<?xml version="1.0" encoding="UTF-8"?>
<svg xmlns="http://www.w3.org/2000/svg" xmlns:xlink="http://www.w3.org/1999/xlink" version="1.2" >
<font id="AIAEverestBold">
<font-face  font-family="AIA Everest" units-per-em="1000" ascent="750" descent="-250" font-style="normal" font-weight="700" font-stretch="normal" cap-height="680" x-height="493" underline-position="-78" underline-thickness="104" />
<missing-glyph  horiz-adv-x="579" d="M100 780 L479 780 L479 -100 L100 -100 L100 780 Z " />
<glyph glyph-name="space" unicode="&#x20;" horiz-adv-x="230" d="" />
<glyph glyph-name="A" unicode="A" horiz-adv-x="648" d="M451 141 L196 141 Q174 61 158 0 L15 0 Q60 163 121 353.5 Q182 544 231 659 Q236 671 243 675.5 Q250 680 267 680 L383 680 Q400 680 407 675.5 Q414 671 420 659 Q468 549 526.5 364.5 Q585 180 634 0 L489 0 Q473 61 451 141 Z M415 270 Q371 421 325 552 Q285 440 233 270 L415 270 Z " />
<glyph glyph-name="Aacute" unicode="&#xc1;" horiz-adv-x="648" d="M451 141 L196 141 Q174 61 158 0 L15 0 Q60 163 121 353.5 Q182 544 231 659 Q236 671 243 675.5 Q250 680 267 680 L383 680 Q400 680 407 675.5 Q414 671 420 659 Q468 549 526.5 364.5 Q585 180 634 0 L489 0 Q473 61 451 141 Z M415 270 Q371 421 325 552 Q285 440 233 270 L415 270 Z M378 737 L263 737 Q292 807 330 861 L471 861 Q429 813 378 737 Z " />
<glyph glyph-name="Abreve" unicode="&#x102;" horiz-adv-x="648" d="M451 141 L196 141 Q174 61 158 0 L15 0 Q60 163 121 353.5 Q182 544 231 659 Q236 671 243 675.5 Q250 680 267 680 L383 680 Q400 680 407 675.5 Q414 671 420 659 Q468 549 526.5 364.5 Q585 180 634 0 L489 0 Q473 61 451 141 Z M415 270 Q371 421 325 552 Q285 440 233 270 L415 270 Z M474 857 Q474 796 433.5 762.5 Q393 729 328 729 Q263 729 222.5 762.5 Q182 796 182 857 L273 857 Q273 835 286 818 Q299 801 328 801 Q357 801 370.5 818 Q384 835 384 857 L474 857 L474 857 Z " />
<glyph glyph-name="Acircumflex" unicode="&#xc2;" horiz-adv-x="648" d="M451 141 L196 141 Q174 61 158 0 L15 0 Q60 163 121 353.5 Q182 544 231 659 Q236 671 243 675.5 Q250 680 267 680 L383 680 Q400 680 407 675.5 Q414 671 420 659 Q468 549 526.5 364.5 Q585 180 634 0 L489 0 Q473 61 451 141 Z M415 270 Q371 421 325 552 Q285 440 233 270 L415 270 Z M382 737 Q365 766 327 809 Q290 769 271 737 L165 737 Q192 796 240 857 L413 857 Q434 831 454.5 799 Q475 767 488 737 L382 737 Z " />
<glyph glyph-name="Adieresis" unicode="&#xc4;" horiz-adv-x="648" d="M451 141 L196 141 Q174 61 158 0 L15 0 Q60 163 121 353.5 Q182 544 231 659 Q236 671 243 675.5 Q250 680 267 680 L383 680 Q400 680 407 675.5 Q414 671 420 659 Q468 549 526.5 364.5 Q585 180 634 0 L489 0 Q473 61 451 141 Z M415 270 Q371 421 325 552 Q285 440 233 270 L415 270 Z M159 804 Q159 835 180 855 Q201 875 232 875 Q264 875 284.5 855 Q305 835 305 804 Q305 773 284.5 753.5 Q264 734 232 734 Q201 734 180 754 Q159 774 159 804 Z M350 804 Q350 835 371 855 Q392 875 423 875 Q454 875 475 855 Q496 835 496 804 Q496 774 475 754 Q454 734 423 734 Q392 734 371 754 Q350 774 350 804 Z " />
<glyph glyph-name="Agrave" unicode="&#xc0;" horiz-adv-x="648" d="M451 141 L196 141 Q174 61 158 0 L15 0 Q60 163 121 353.5 Q182 544 231 659 Q236 671 243 675.5 Q250 680 267 680 L383 680 Q400 680 407 675.5 Q414 671 420 659 Q468 549 526.5 364.5 Q585 180 634 0 L489 0 Q473 61 451 141 Z M415 270 Q371 421 325 552 Q285 440 233 270 L415 270 Z M318 861 Q356 807 385 737 L276 737 Q226 807 177 861 L318 861 Z " />
<glyph glyph-name="Amacron" unicode="&#x100;" horiz-adv-x="648" d="M451 141 L196 141 Q174 61 158 0 L15 0 Q60 163 121 353.5 Q182 544 231 659 Q236 671 243 675.5 Q250 680 267 680 L383 680 Q400 680 407 675.5 Q414 671 420 659 Q468 549 526.5 364.5 Q585 180 634 0 L489 0 Q473 61 451 141 Z M415 270 Q371 421 325 552 Q285 440 233 270 L415 270 Z M464 840 L464 745 L190 745 L190 840 L464 840 Z " />
<glyph glyph-name="Aogonek" unicode="&#x104;" horiz-adv-x="648" d="M624 -96 L631 -96 L631 -181 Q618 -184 595 -184 Q541 -184 510.5 -161 Q480 -138 480 -95 Q480 -39 536 0 L489 0 Q473 61 451 141 L196 141 Q174 61 158 0 L15 0 Q60 163 121 353.5 Q182 544 231 659 Q236 671 243 675.5 Q250 680 267 680 L383 680 Q400 680 407 675.5 Q414 671 420 659 Q468 549 526.5 364.5 Q585 180 634 0 Q580 -28 580 -64 Q580 -78 590.5 -87 Q601 -96 624 -96 Z M415 270 Q371 421 325 552 Q285 440 233 270 L415 270 Z " />
<glyph glyph-name="Aring" unicode="&#xc5;" horiz-adv-x="648" d="M451 141 L196 141 Q174 61 158 0 L15 0 Q60 163 121 353.5 Q182 544 231 659 Q236 671 243 675.5 Q250 680 267 680 L383 680 Q400 680 407 675.5 Q414 671 420 659 Q468 549 526.5 364.5 Q585 180 634 0 L489 0 Q473 61 451 141 Z M415 270 Q371 421 325 552 Q285 440 233 270 L415 270 Z M210 820 Q210 867 242.5 897 Q275 927 327 927 Q379 927 411 897 Q443 867 443 820 Q443 773 410.5 743 Q378 713 327 713 Q275 713 242.5 743 Q210 773 210 820 Z M379 820 Q379 842 365.5 856.5 Q352 871 327 871 Q302 871 288.5 856.5 Q275 842 275 820 Q275 798 288.5 783.5 Q302 769 327 769 Q352 769 365.5 783.5 Q379 798 379 820 Z " />
<glyph glyph-name="Atilde" unicode="&#xc3;" horiz-adv-x="648" d="M451 141 L196 141 Q174 61 158 0 L15 0 Q60 163 121 353.5 Q182 544 231 659 Q236 671 243 675.5 Q250 680 267 680 L383 680 Q400 680 407 675.5 Q414 671 420 659 Q468 549 526.5 364.5 Q585 180 634 0 L489 0 Q473 61 451 141 Z M415 270 Q371 421 325 552 Q285 440 233 270 L415 270 Z M395 734 Q373 734 355 740 Q337 746 316 757 Q312 759 301.5 763.5 Q291 768 282.5 770.5 Q274 773 266 773 Q235 773 232 734 L166 734 Q168 791 193.5 824 Q219 857 264 857 Q283 857 299.5 851 Q316 845 337 834 Q368 816 387 816 Q404 816 412.5 827 Q421 838 422 856 L488 856 Q486 798 462.5 766 Q439 734 395 734 Z " />
<glyph glyph-name="AE" unicode="&#xc6;" horiz-adv-x="885" d="M839 131 L839 0 L374 0 L374 141 L205 141 Q169 35 158 0 L15 0 Q48 118 133.5 332.5 Q219 547 278 658 Q285 671 291.5 675.5 Q298 680 315 680 L830 680 L830 549 L521 549 L521 412 L807 412 L807 280 L521 280 L521 131 L839 131 Z M374 270 L374 570 Q330 474 252 270 L374 270 Z " />
<glyph glyph-name="B" unicode="B" horiz-adv-x="631" d="M598 197 Q598 103 535.5 51.5 Q473 0 363 0 L68 0 L68 680 L364 680 Q458 680 515 632 Q572 584 572 503 Q572 450 548 414 Q524 378 486 361 Q536 343 567 300.5 Q598 258 598 197 Z M215 407 L333 407 Q379 407 404 428.5 Q429 450 429 489 Q429 527 403.5 546.5 Q378 566 333 566 L215 566 L215 407 Z M454 205 Q454 250 422.5 272.5 Q391 295 334 295 L215 295 L215 114 L335 114 Q395 114 424.5 136 Q454 158 454 205 Z " />
<glyph glyph-name="C" unicode="C" horiz-adv-x="609" d="M41 322 L41 358 Q41 531 117.5 612 Q194 693 316 693 Q391 693 446.5 666.5 Q502 640 534 594 Q566 548 572 491 L574 473 L425 473 Q399 560 316 560 Q246 560 217 502 Q188 444 188 355 L188 325 Q188 236 217 178 Q246 120 316 120 Q403 120 426 219 L576 219 L574 201 Q563 104 496 45.5 Q429 -13 316 -13 Q194 -13 117.5 68 Q41 149 41 322 Z " />
<glyph glyph-name="Cacute" unicode="&#x106;" horiz-adv-x="609" d="M41 322 L41 358 Q41 531 117.5 612 Q194 693 316 693 Q391 693 446.5 666.5 Q502 640 534 594 Q566 548 572 491 L574 473 L425 473 Q399 560 316 560 Q246 560 217 502 Q188 444 188 355 L188 325 Q188 236 217 178 Q246 120 316 120 Q403 120 426 219 L576 219 L574 201 Q563 104 496 45.5 Q429 -13 316 -13 Q194 -13 117.5 68 Q41 149 41 322 Z M373 737 L258 737 Q287 807 325 861 L466 861 Q424 813 373 737 Z " />
<glyph glyph-name="Ccaron" unicode="&#x10c;" horiz-adv-x="609" d="M41 322 L41 358 Q41 531 117.5 612 Q194 693 316 693 Q391 693 446.5 666.5 Q502 640 534 594 Q566 548 572 491 L574 473 L425 473 Q399 560 316 560 Q246 560 217 502 Q188 444 188 355 L188 325 Q188 236 217 178 Q246 120 316 120 Q403 120 426 219 L576 219 L574 201 Q563 104 496 45.5 Q429 -13 316 -13 Q194 -13 117.5 68 Q41 149 41 322 Z M483 857 Q470 827 449.5 795 Q429 763 408 737 L235 737 Q187 798 160 857 L266 857 Q285 825 322 785 Q360 828 377 857 L483 857 Z " />
<glyph glyph-name="Ccedilla" unicode="&#xc7;" horiz-adv-x="609" d="M576 219 L574 201 Q564 110 504 52.5 Q444 -5 343 -12 L330 -38 Q369 -42 393 -63 Q417 -84 417 -120 Q417 -163 387 -186 Q357 -209 308 -209 Q278 -209 251 -200 Q224 -191 206 -175 L238 -123 Q268 -145 304 -145 Q322 -145 333 -138 Q344 -131 344 -118 Q344 -104 331.5 -97.5 Q319 -91 300 -91 Q284 -91 266 -96 L246 -72 L276 -10 Q170 2 105.5 83 Q41 164 41 322 L41 358 Q41 531 117.5 612 Q194 693 316 693 Q391 693 446.5 666 Q502 639 534 593.5 Q566 548 572 491 L574 473 L425 473 Q399 560 316 560 Q246 560 217 502 Q188 444 188 355 L188 325 Q188 236 217 178 Q246 120 316 120 Q362 120 388 145.5 Q414 171 426 219 L576 219 Z " />
<glyph glyph-name="Cdotaccent" unicode="&#x10a;" horiz-adv-x="609" d="M41 322 L41 358 Q41 531 117.5 612 Q194 693 316 693 Q391 693 446.5 666.5 Q502 640 534 594 Q566 548 572 491 L574 473 L425 473 Q399 560 316 560 Q246 560 217 502 Q188 444 188 355 L188 325 Q188 236 217 178 Q246 120 316 120 Q403 120 426 219 L576 219 L574 201 Q563 104 496 45.5 Q429 -13 316 -13 Q194 -13 117.5 68 Q41 149 41 322 Z M244 805 Q244 837 266.5 857.5 Q289 878 321 878 Q354 878 376.5 857.5 Q399 837 399 805 Q399 773 376.5 752 Q354 731 321 731 Q289 731 266.5 752 Q244 773 244 805 Z " />
<glyph glyph-name="D" unicode="D" horiz-adv-x="629" d="M68 680 L278 680 Q413 680 500.5 604 Q588 528 588 355 L588 325 Q588 153 500.5 76.5 Q413 0 278 0 L68 0 L68 680 Z M283 131 Q358 131 399.5 180.5 Q441 230 441 328 L441 352 Q441 450 399.5 499.5 Q358 549 283 549 L215 549 L215 131 L283 131 Z " />
<glyph glyph-name="Eth" unicode="&#xd0;" horiz-adv-x="641" d="M600 355 L600 325 Q600 153 512.5 76.5 Q425 0 290 0 L80 0 L80 297 L18 297 L18 388 L80 388 L80 680 L290 680 Q425 680 512.5 604 Q600 528 600 355 Z M453 352 Q453 450 411 499.5 Q369 549 292 549 L227 549 L227 388 L332 388 L332 297 L227 297 L227 131 L292 131 Q369 131 411 180.5 Q453 230 453 328 L453 352 Z " />
<glyph glyph-name="Dcaron" unicode="&#x10e;" horiz-adv-x="629" d="M68 680 L278 680 Q413 680 500.5 604 Q588 528 588 355 L588 325 Q588 153 500.5 76.5 Q413 0 278 0 L68 0 L68 680 Z M283 131 Q358 131 399.5 180.5 Q441 230 441 328 L441 352 Q441 450 399.5 499.5 Q358 549 283 549 L215 549 L215 131 L283 131 Z M456 857 Q443 827 422.5 795 Q402 763 381 737 L208 737 Q160 798 133 857 L239 857 Q258 825 295 785 Q333 828 350 857 L456 857 Z " />
<glyph glyph-name="Dcroat" unicode="&#x110;" horiz-adv-x="641" d="M600 355 L600 325 Q600 153 512.5 76.5 Q425 0 290 0 L80 0 L80 297 L18 297 L18 388 L80 388 L80 680 L290 680 Q425 680 512.5 604 Q600 528 600 355 Z M453 352 Q453 450 411 499.5 Q369 549 292 549 L227 549 L227 388 L332 388 L332 297 L227 297 L227 131 L292 131 Q369 131 411 180.5 Q453 230 453 328 L453 352 Z " />
<glyph glyph-name="E" unicode="E" horiz-adv-x="579" d="M533 131 L533 0 L68 0 L68 680 L524 680 L524 549 L215 549 L215 412 L501 412 L501 280 L215 280 L215 131 L533 131 Z " />
<glyph glyph-name="Eacute" unicode="&#xc9;" horiz-adv-x="579" d="M533 131 L533 0 L68 0 L68 680 L524 680 L524 549 L215 549 L215 412 L501 412 L501 280 L215 280 L215 131 L533 131 Z M352 737 L237 737 Q266 807 304 861 L445 861 Q403 813 352 737 Z " />
<glyph glyph-name="Ecaron" unicode="&#x11a;" horiz-adv-x="579" d="M533 131 L533 0 L68 0 L68 680 L524 680 L524 549 L215 549 L215 412 L501 412 L501 280 L215 280 L215 131 L533 131 Z M462 857 Q449 827 428.5 795 Q408 763 387 737 L214 737 Q166 798 139 857 L245 857 Q264 825 301 785 Q339 828 356 857 L462 857 Z " />
<glyph glyph-name="Ecircumflex" unicode="&#xca;" horiz-adv-x="579" d="M533 131 L533 0 L68 0 L68 680 L524 680 L524 549 L215 549 L215 412 L501 412 L501 280 L215 280 L215 131 L533 131 Z M356 737 Q339 766 301 809 Q264 769 245 737 L139 737 Q166 796 214 857 L387 857 Q408 831 428.5 799 Q449 767 462 737 L356 737 Z " />
<glyph glyph-name="Edieresis" unicode="&#xcb;" horiz-adv-x="579" d="M533 131 L533 0 L68 0 L68 680 L524 680 L524 549 L215 549 L215 412 L501 412 L501 280 L215 280 L215 131 L533 131 Z M132 804 Q132 835 153 855 Q174 875 205 875 Q237 875 257.5 855 Q278 835 278 804 Q278 773 257.5 753.5 Q237 734 205 734 Q174 734 153 754 Q132 774 132 804 Z M323 804 Q323 835 344 855 Q365 875 396 875 Q427 875 448 855 Q469 835 469 804 Q469 774 448 754 Q427 734 396 734 Q365 734 344 754 Q323 774 323 804 Z " />
<glyph glyph-name="Edotaccent" unicode="&#x116;" horiz-adv-x="579" d="M533 131 L533 0 L68 0 L68 680 L524 680 L524 549 L215 549 L215 412 L501 412 L501 280 L215 280 L215 131 L533 131 Z M223 805 Q223 837 245.5 857.5 Q268 878 300 878 Q333 878 355.5 857.5 Q378 837 378 805 Q378 773 355.5 752 Q333 731 300 731 Q268 731 245.5 752 Q223 773 223 805 Z " />
<glyph glyph-name="Egrave" unicode="&#xc8;" horiz-adv-x="579" d="M533 131 L533 0 L68 0 L68 680 L524 680 L524 549 L215 549 L215 412 L501 412 L501 280 L215 280 L215 131 L533 131 Z M292 861 Q330 807 359 737 L250 737 Q200 807 151 861 L292 861 Z " />
<glyph glyph-name="Emacron" unicode="&#x112;" horiz-adv-x="579" d="M533 131 L533 0 L68 0 L68 680 L524 680 L524 549 L215 549 L215 412 L501 412 L501 280 L215 280 L215 131 L533 131 Z M438 840 L438 745 L164 745 L164 840 L438 840 Z " />
<glyph glyph-name="Eogonek" unicode="&#x118;" horiz-adv-x="579" d="M479 -64 Q479 -78 489.5 -87 Q500 -96 522 -96 L530 -96 L530 -181 Q517 -184 493 -184 Q439 -184 409 -160.5 Q379 -137 379 -95 Q379 -39 435 0 L68 0 L68 680 L524 680 L524 549 L215 549 L215 412 L501 412 L501 280 L215 280 L215 131 L533 131 L533 0 Q479 -28 479 -64 Z " />
<glyph glyph-name="F" unicode="F" horiz-adv-x="569" d="M215 549 L215 412 L501 412 L501 280 L215 280 L215 0 L68 0 L68 680 L524 680 L524 549 L215 549 Z " />
<glyph glyph-name="G" unicode="G" horiz-adv-x="638" d="M41 322 L41 358 Q41 531 120.5 612 Q200 693 325 693 Q403 693 460.5 665.5 Q518 638 550 593 Q582 548 589 495 L591 480 L439 480 Q415 560 327 560 Q252 560 220 502.5 Q188 445 188 355 L188 325 Q188 236 219.5 178 Q251 120 326 120 Q388 120 418.5 154.5 Q449 189 449 244 L449 257 L325 257 L325 387 L595 387 L595 279 Q595 128 521 57.5 Q447 -13 325 -13 Q245 -13 181 21 Q117 55 79 130 Q41 205 41 322 Z " />
<glyph glyph-name="Gbreve" unicode="&#x11e;" horiz-adv-x="638" d="M41 322 L41 358 Q41 531 120.5 612 Q200 693 325 693 Q403 693 460.5 665.5 Q518 638 550 593 Q582 548 589 495 L591 480 L439 480 Q415 560 327 560 Q252 560 220 502.5 Q188 445 188 355 L188 325 Q188 236 219.5 178 Q251 120 326 120 Q388 120 418.5 154.5 Q449 189 449 244 L449 257 L325 257 L325 387 L595 387 L595 279 Q595 128 521 57.5 Q447 -13 325 -13 Q245 -13 181 21 Q117 55 79 130 Q41 205 41 322 Z M474 857 Q474 796 433.5 762.5 Q393 729 328 729 Q263 729 222.5 762.5 Q182 796 182 857 L273 857 Q273 835 286 818 Q299 801 328 801 Q357 801 370.5 818 Q384 835 384 857 L474 857 L474 857 Z " />
<glyph glyph-name="Gcommaaccent" unicode="&#x122;" horiz-adv-x="638" d="M41 322 L41 358 Q41 531 120.5 612 Q200 693 325 693 Q403 693 460.5 665.5 Q518 638 550 593 Q582 548 589 495 L591 480 L439 480 Q415 560 327 560 Q252 560 220 502.5 Q188 445 188 355 L188 325 Q188 236 219.5 178 Q251 120 326 120 Q388 120 418.5 154.5 Q449 189 449 244 L449 257 L325 257 L325 387 L595 387 L595 279 Q595 128 521 57.5 Q447 -13 325 -13 Q245 -13 181 21 Q117 55 79 130 Q41 205 41 322 Z M267 -50 L384 -50 Q383 -97 369.5 -132.5 Q356 -168 335 -200 L252 -200 Q267 -128 267 -50 Z " />
<glyph glyph-name="Gdotaccent" unicode="&#x120;" horiz-adv-x="638" d="M41 322 L41 358 Q41 531 120.5 612 Q200 693 325 693 Q403 693 460.5 665.5 Q518 638 550 593 Q582 548 589 495 L591 480 L439 480 Q415 560 327 560 Q252 560 220 502.5 Q188 445 188 355 L188 325 Q188 236 219.5 178 Q251 120 326 120 Q388 120 418.5 154.5 Q449 189 449 244 L449 257 L325 257 L325 387 L595 387 L595 279 Q595 128 521 57.5 Q447 -13 325 -13 Q245 -13 181 21 Q117 55 79 130 Q41 205 41 322 Z M250 805 Q250 837 272.5 857.5 Q295 878 327 878 Q360 878 382.5 857.5 Q405 837 405 805 Q405 773 382.5 752 Q360 731 327 731 Q295 731 272.5 752 Q250 773 250 805 Z " />
<glyph glyph-name="H" unicode="H" horiz-adv-x="682" d="M614 680 L614 0 L467 0 L467 280 L215 280 L215 0 L68 0 L68 680 L215 680 L215 412 L467 412 L467 680 L614 680 Z " />
<glyph glyph-name="Hbar" unicode="&#x126;" horiz-adv-x="682" d="M660 495 L614 495 L614 0 L467 0 L467 280 L215 280 L215 0 L68 0 L68 495 L22 495 L22 585 L68 585 L68 680 L215 680 L215 585 L467 585 L467 680 L614 680 L614 585 L660 585 L660 495 Z M467 495 L215 495 L215 412 L467 412 L467 495 Z " />
<glyph glyph-name="I" unicode="I" horiz-adv-x="290" d="M219 0 L72 0 L72 680 L219 680 L219 0 Z " />
<glyph glyph-name="Iacute" unicode="&#xcd;" horiz-adv-x="290" d="M219 0 L72 0 L72 680 L219 680 L219 0 Z M196 737 L81 737 Q110 807 148 861 L289 861 Q247 813 196 737 Z " />
<glyph glyph-name="Icircumflex" unicode="&#xce;" horiz-adv-x="290" d="M219 0 L72 0 L72 680 L219 680 L219 0 Z M200 737 Q183 766 145 809 Q108 769 89 737 L-17 737 Q10 796 58 857 L231 857 Q252 831 272.5 799 Q293 767 306 737 L200 737 Z " />
<glyph glyph-name="Idieresis" unicode="&#xcf;" horiz-adv-x="290" d="M219 0 L72 0 L72 680 L219 680 L219 0 Z M-23 804 Q-23 835 -2 855 Q19 875 50 875 Q82 875 102.5 855 Q123 835 123 804 Q123 773 102.5 753.5 Q82 734 50 734 Q19 734 -2 754 Q-23 774 -23 804 Z M168 804 Q168 835 189 855 Q210 875 241 875 Q272 875 293 855 Q314 835 314 804 Q314 774 293 754 Q272 734 241 734 Q210 734 189 754 Q168 774 168 804 Z " />
<glyph glyph-name="Idot" unicode="&#x130;" horiz-adv-x="290" d="M219 0 L72 0 L72 680 L219 680 L219 0 Z M68 805 Q68 837 90.5 857.5 Q113 878 145 878 Q178 878 200.5 857.5 Q223 837 223 805 Q223 773 200.5 752 Q178 731 145 731 Q113 731 90.5 752 Q68 773 68 805 Z " />
<glyph glyph-name="Igrave" unicode="&#xcc;" horiz-adv-x="290" d="M219 0 L72 0 L72 680 L219 680 L219 0 Z M136 861 Q174 807 203 737 L94 737 Q44 807 -5 861 L136 861 Z " />
<glyph glyph-name="Imacron" unicode="&#x12a;" horiz-adv-x="290" d="M219 0 L72 0 L72 680 L219 680 L219 0 Z M282 840 L282 745 L8 745 L8 840 L282 840 Z " />
<glyph glyph-name="Iogonek" unicode="&#x12e;" horiz-adv-x="290" d="M165 -64 Q165 -78 175.5 -87 Q186 -96 208 -96 L216 -96 L216 -181 Q203 -184 179 -184 Q125 -184 95 -160.5 Q65 -137 65 -95 Q65 -39 121 0 L72 0 L72 680 L219 680 L219 0 Q165 -28 165 -64 Z " />
<glyph glyph-name="J" unicode="J" horiz-adv-x="419" d="M105 123 Q156 123 181.5 148 Q207 173 207 230 L207 680 L353 680 L353 206 Q353 -9 143 -9 Q106 -9 73 -4 Q40 1 21 9 L21 136 Q60 123 105 123 Z " />
<glyph glyph-name="K" unicode="K" horiz-adv-x="640" d="M304 297 Q267 261 215 213 L215 0 L68 0 L68 680 L215 680 L215 381 Q370 551 450 680 L610 680 Q540 549 406 401 Q468 304 534 183.5 Q600 63 624 0 L466 0 Q439 63 393.5 146.5 Q348 230 304 297 Z " />
<glyph glyph-name="Kcommaaccent" unicode="&#x136;" horiz-adv-x="640" d="M304 297 Q267 261 215 213 L215 0 L68 0 L68 680 L215 680 L215 381 Q370 551 450 680 L610 680 Q540 549 406 401 Q468 304 534 183.5 Q600 63 624 0 L466 0 Q439 63 393.5 146.5 Q348 230 304 297 Z M254 -50 L371 -50 Q370 -97 356.5 -132.5 Q343 -168 322 -200 L239 -200 Q254 -128 254 -50 Z " />
<glyph glyph-name="L" unicode="L" horiz-adv-x="525" d="M500 131 L500 0 L68 0 L68 680 L215 680 L215 131 L500 131 Z " />
<glyph glyph-name="Lacute" unicode="&#x139;" horiz-adv-x="525" d="M500 131 L500 0 L68 0 L68 680 L215 680 L215 131 L500 131 Z M199 737 L84 737 Q113 807 151 861 L292 861 Q250 813 199 737 Z " />
<glyph glyph-name="Lcaron" unicode="&#x13d;" horiz-adv-x="525" d="M500 131 L500 0 L68 0 L68 680 L215 680 L215 131 L500 131 Z M323 501 L260 501 Q267 537 273 588 Q279 639 279 681 L379 681 Q376 579 323 501 Z " />
<glyph glyph-name="Lcommaaccent" unicode="&#x13b;" horiz-adv-x="525" d="M500 131 L500 0 L68 0 L68 680 L215 680 L215 131 L500 131 Z M230 -50 L347 -50 Q346 -97 332.5 -132.5 Q319 -168 298 -200 L215 -200 Q230 -128 230 -50 Z " />
<glyph glyph-name="Lslash" unicode="&#x141;" horiz-adv-x="547" d="M521 131 L521 0 L89 0 L89 210 L24 170 L24 284 L89 324 L89 680 L236 680 L236 413 L370 495 L370 380 L236 299 L236 131 L521 131 Z " />
<glyph glyph-name="M" unicode="M" horiz-adv-x="789" d="M721 680 L721 0 L581 0 L581 451 Q507 282 440 166 Q429 147 410 147 L379 147 Q369 147 363 151.5 Q357 156 351 166 Q281 292 208 453 L208 0 L68 0 L68 680 L236 680 Q314 500 397 334 Q438 417 481 513 Q524 609 553 680 L721 680 Z " />
<glyph glyph-name="N" unicode="N" horiz-adv-x="684" d="M616 680 L616 0 L486 0 L208 450 L208 0 L68 0 L68 680 L213 680 L476 255 L476 680 L616 680 Z " />
<glyph glyph-name="Nacute" unicode="&#x143;" horiz-adv-x="684" d="M616 680 L616 0 L486 0 L208 450 L208 0 L68 0 L68 680 L213 680 L476 255 L476 680 L616 680 Z M399 737 L284 737 Q313 807 351 861 L492 861 Q450 813 399 737 Z " />
<glyph glyph-name="Ncaron" unicode="&#x147;" horiz-adv-x="684" d="M616 680 L616 0 L486 0 L208 450 L208 0 L68 0 L68 680 L213 680 L476 255 L476 680 L616 680 Z M509 857 Q496 827 475.5 795 Q455 763 434 737 L261 737 Q213 798 186 857 L292 857 Q311 825 348 785 Q386 828 403 857 L509 857 Z " />
<glyph glyph-name="Ncommaaccent" unicode="&#x145;" horiz-adv-x="684" d="M616 680 L616 0 L486 0 L208 450 L208 0 L68 0 L68 680 L213 680 L476 255 L476 680 L616 680 Z M281 -50 L398 -50 Q397 -97 383.5 -132.5 Q370 -168 349 -200 L266 -200 Q281 -128 281 -50 Z " />
<glyph glyph-name="Eng" unicode="&#x14a;" horiz-adv-x="684" d="M616 680 L616 -3 Q616 -88 570 -128.5 Q524 -169 431 -169 Q373 -169 336 -155 L336 -46 Q369 -58 413 -58 Q446 -58 464.5 -44 Q483 -30 483 -2 L483 4 L208 448 L208 0 L68 0 L68 680 L213 680 L476 257 L476 680 L616 680 Z " />
<glyph glyph-name="Ntilde" unicode="&#xd1;" horiz-adv-x="684" d="M616 680 L616 0 L486 0 L208 450 L208 0 L68 0 L68 680 L213 680 L476 255 L476 680 L616 680 Z M416 734 Q394 734 376 740 Q358 746 337 757 Q333 759 322.5 763.5 Q312 768 303.5 770.5 Q295 773 287 773 Q256 773 253 734 L187 734 Q189 791 214.5 824 Q240 857 285 857 Q304 857 320.5 851 Q337 845 358 834 Q389 816 408 816 Q425 816 433.5 827 Q442 838 443 856 L509 856 Q507 798 483.5 766 Q460 734 416 734 Z " />
<glyph glyph-name="O" unicode="O" horiz-adv-x="650" d="M41 322 L41 358 Q41 531 120 612 Q199 693 325 693 Q451 693 530 612 Q609 531 609 358 L609 322 Q609 149 530 68 Q451 -13 325 -13 Q199 -13 120 68 Q41 149 41 322 Z M462 325 L462 355 Q462 445 431 502.5 Q400 560 325 560 Q250 560 219 502.5 Q188 445 188 355 L188 325 Q188 235 219 177.5 Q250 120 325 120 Q400 120 431 177.5 Q462 235 462 325 Z " />
<glyph glyph-name="Oacute" unicode="&#xd3;" horiz-adv-x="650" d="M41 322 L41 358 Q41 531 120 612 Q199 693 325 693 Q451 693 530 612 Q609 531 609 358 L609 322 Q609 149 530 68 Q451 -13 325 -13 Q199 -13 120 68 Q41 149 41 322 Z M462 325 L462 355 Q462 445 431 502.5 Q400 560 325 560 Q250 560 219 502.5 Q188 445 188 355 L188 325 Q188 235 219 177.5 Q250 120 325 120 Q400 120 431 177.5 Q462 235 462 325 Z M376 737 L261 737 Q290 807 328 861 L469 861 Q427 813 376 737 Z " />
<glyph glyph-name="Ocircumflex" unicode="&#xd4;" horiz-adv-x="650" d="M41 322 L41 358 Q41 531 120 612 Q199 693 325 693 Q451 693 530 612 Q609 531 609 358 L609 322 Q609 149 530 68 Q451 -13 325 -13 Q199 -13 120 68 Q41 149 41 322 Z M462 325 L462 355 Q462 445 431 502.5 Q400 560 325 560 Q250 560 219 502.5 Q188 445 188 355 L188 325 Q188 235 219 177.5 Q250 120 325 120 Q400 120 431 177.5 Q462 235 462 325 Z M380 737 Q363 766 325 809 Q288 769 269 737 L163 737 Q190 796 238 857 L411 857 Q432 831 452.5 799 Q473 767 486 737 L380 737 Z " />
<glyph glyph-name="Odieresis" unicode="&#xd6;" horiz-adv-x="650" d="M41 322 L41 358 Q41 531 120 612 Q199 693 325 693 Q451 693 530 612 Q609 531 609 358 L609 322 Q609 149 530 68 Q451 -13 325 -13 Q199 -13 120 68 Q41 149 41 322 Z M462 325 L462 355 Q462 445 431 502.5 Q400 560 325 560 Q250 560 219 502.5 Q188 445 188 355 L188 325 Q188 235 219 177.5 Q250 120 325 120 Q400 120 431 177.5 Q462 235 462 325 Z M156 804 Q156 835 177 855 Q198 875 229 875 Q261 875 281.5 855 Q302 835 302 804 Q302 773 281.5 753.5 Q261 734 229 734 Q198 734 177 754 Q156 774 156 804 Z M347 804 Q347 835 368 855 Q389 875 420 875 Q451 875 472 855 Q493 835 493 804 Q493 774 472 754 Q451 734 420 734 Q389 734 368 754 Q347 774 347 804 Z " />
<glyph glyph-name="Ograve" unicode="&#xd2;" horiz-adv-x="650" d="M41 322 L41 358 Q41 531 120 612 Q199 693 325 693 Q451 693 530 612 Q609 531 609 358 L609 322 Q609 149 530 68 Q451 -13 325 -13 Q199 -13 120 68 Q41 149 41 322 Z M462 325 L462 355 Q462 445 431 502.5 Q400 560 325 560 Q250 560 219 502.5 Q188 445 188 355 L188 325 Q188 235 219 177.5 Q250 120 325 120 Q400 120 431 177.5 Q462 235 462 325 Z M316 861 Q354 807 383 737 L274 737 Q224 807 175 861 L316 861 Z " />
<glyph glyph-name="Ohungarumlaut" unicode="&#x150;" horiz-adv-x="650" d="M41 322 L41 358 Q41 531 120 612 Q199 693 325 693 Q451 693 530 612 Q609 531 609 358 L609 322 Q609 149 530 68 Q451 -13 325 -13 Q199 -13 120 68 Q41 149 41 322 Z M462 325 L462 355 Q462 445 431 502.5 Q400 560 325 560 Q250 560 219 502.5 Q188 445 188 355 L188 325 Q188 235 219 177.5 Q250 120 325 120 Q400 120 431 177.5 Q462 235 462 325 Z M294 737 L195 737 Q213 785 251 857 L372 857 Q335 813 294 737 Z M455 737 L356 737 Q388 805 423 857 L544 857 Q520 827 455 737 Z " />
<glyph glyph-name="Omacron" unicode="&#x14c;" horiz-adv-x="650" d="M41 322 L41 358 Q41 531 120 612 Q199 693 325 693 Q451 693 530 612 Q609 531 609 358 L609 322 Q609 149 530 68 Q451 -13 325 -13 Q199 -13 120 68 Q41 149 41 322 Z M462 325 L462 355 Q462 445 431 502.5 Q400 560 325 560 Q250 560 219 502.5 Q188 445 188 355 L188 325 Q188 235 219 177.5 Q250 120 325 120 Q400 120 431 177.5 Q462 235 462 325 Z M462 840 L462 745 L188 745 L188 840 L462 840 Z " />
<glyph glyph-name="Oslash" unicode="&#xd8;" horiz-adv-x="649" d="M608 358 L608 322 Q608 149 529 68 Q450 -13 324 -13 Q258 -13 202 11 L178 -36 L102 0 L131 57 Q41 142 41 322 L41 358 Q41 531 120 612 Q199 693 324 693 Q393 693 446 670 L470 716 L547 680 L518 623 Q608 536 608 358 Z M207 203 L383 547 Q360 560 324 560 Q250 560 219 502.5 Q188 445 188 355 L188 325 Q188 251 207 203 Z M461 355 Q461 428 442 477 L265 133 Q288 120 324 120 Q399 120 430 177.5 Q461 235 461 325 L461 355 Z " />
<glyph glyph-name="Otilde" unicode="&#xd5;" horiz-adv-x="650" d="M41 322 L41 358 Q41 531 120 612 Q199 693 325 693 Q451 693 530 612 Q609 531 609 358 L609 322 Q609 149 530 68 Q451 -13 325 -13 Q199 -13 120 68 Q41 149 41 322 Z M462 325 L462 355 Q462 445 431 502.5 Q400 560 325 560 Q250 560 219 502.5 Q188 445 188 355 L188 325 Q188 235 219 177.5 Q250 120 325 120 Q400 120 431 177.5 Q462 235 462 325 Z M392 734 Q370 734 352 740 Q334 746 313 757 Q309 759 298.5 763.5 Q288 768 279.5 770.5 Q271 773 263 773 Q232 773 229 734 L163 734 Q165 791 190.5 824 Q216 857 261 857 Q280 857 296.5 851 Q313 845 334 834 Q365 816 384 816 Q401 816 409.5 827 Q418 838 419 856 L485 856 Q483 798 459.5 766 Q436 734 392 734 Z " />
<glyph glyph-name="OE" unicode="&#x152;" horiz-adv-x="959" d="M912 131 L912 0 L447 0 L447 46 Q420 16 383 1.5 Q346 -13 296 -13 Q184 -13 112.5 68.5 Q41 150 41 323 L41 357 Q41 530 112.5 611.5 Q184 693 296 693 Q396 693 447 632 L447 680 L903 680 L903 549 L594 549 L594 412 L880 412 L880 280 L594 280 L594 131 L912 131 Z M447 206 L447 475 Q415 560 328 560 Q252 560 220 502 Q188 444 188 354 L188 326 Q188 236 220 178 Q252 120 328 120 Q415 120 447 206 Z " />
<glyph glyph-name="P" unicode="P" horiz-adv-x="610" d="M581 459 Q581 388 550.5 338.5 Q520 289 467 263.5 Q414 238 348 238 L215 238 L215 0 L68 0 L68 680 L348 680 Q414 680 467 654.5 Q520 629 550.5 579.5 Q581 530 581 459 Z M436 459 Q436 505 407 529 Q378 553 329 553 L215 553 L215 365 L329 365 Q378 365 407 389 Q436 413 436 459 Z " />
<glyph glyph-name="Thorn" unicode="&#xde;" horiz-adv-x="591" d="M562 355 Q562 285 532 236 Q502 187 450.5 162 Q399 137 333 137 L215 137 L215 0 L68 0 L68 680 L215 680 L215 573 L333 573 Q399 573 450.5 548 Q502 523 532 474 Q562 425 562 355 Z M417 355 Q417 400 389.5 423 Q362 446 313 446 L215 446 L215 264 L313 264 Q362 264 389.5 287 Q417 310 417 355 Z " />
<glyph glyph-name="Q" unicode="Q" horiz-adv-x="650" d="M476 25 Q509 11 556 11 Q580 11 599 13 L599 -90 Q574 -97 540 -97 Q481 -97 427 -77.5 Q373 -58 341 -12 Q336 -13 325 -13 Q199 -13 120 68 Q41 149 41 322 L41 358 Q41 531 120 612 Q199 693 325 693 Q451 693 530 612 Q609 531 609 358 L609 322 Q609 209 574 135.5 Q539 62 476 25 Z M325 120 Q400 120 431 177.5 Q462 235 462 325 L462 355 Q462 445 431 502.5 Q400 560 325 560 Q250 560 219 502.5 Q188 445 188 355 L188 325 Q188 235 219 177.5 Q250 120 325 120 Z " />
<glyph glyph-name="R" unicode="R" horiz-adv-x="629" d="M449 0 Q423 53 383 124 Q343 195 305 251 L215 251 L215 0 L68 0 L68 680 L353 680 Q419 680 470.5 655 Q522 630 551.5 581.5 Q581 533 581 466 Q581 396 546 345.5 Q511 295 452 272 Q497 207 543.5 124 Q590 41 607 0 L449 0 Z M215 379 L336 379 Q383 379 409.5 402.5 Q436 426 436 467 Q436 508 409.5 530.5 Q383 553 336 553 L215 553 L215 379 Z " />
<glyph glyph-name="Racute" unicode="&#x154;" horiz-adv-x="629" d="M449 0 Q423 53 383 124 Q343 195 305 251 L215 251 L215 0 L68 0 L68 680 L353 680 Q419 680 470.5 655 Q522 630 551.5 581.5 Q581 533 581 466 Q581 396 546 345.5 Q511 295 452 272 Q497 207 543.5 124 Q590 41 607 0 L449 0 Z M215 379 L336 379 Q383 379 409.5 402.5 Q436 426 436 467 Q436 508 409.5 530.5 Q383 553 336 553 L215 553 L215 379 Z M354 737 L239 737 Q268 807 306 861 L447 861 Q405 813 354 737 Z " />
<glyph glyph-name="Rcaron" unicode="&#x158;" horiz-adv-x="629" d="M449 0 Q423 53 383 124 Q343 195 305 251 L215 251 L215 0 L68 0 L68 680 L353 680 Q419 680 470.5 655 Q522 630 551.5 581.5 Q581 533 581 466 Q581 396 546 345.5 Q511 295 452 272 Q497 207 543.5 124 Q590 41 607 0 L449 0 Z M215 379 L336 379 Q383 379 409.5 402.5 Q436 426 436 467 Q436 508 409.5 530.5 Q383 553 336 553 L215 553 L215 379 Z M464 857 Q451 827 430.5 795 Q410 763 389 737 L216 737 Q168 798 141 857 L247 857 Q266 825 303 785 Q341 828 358 857 L464 857 Z " />
<glyph glyph-name="Rcommaaccent" unicode="&#x156;" horiz-adv-x="629" d="M449 0 Q423 53 383 124 Q343 195 305 251 L215 251 L215 0 L68 0 L68 680 L353 680 Q419 680 470.5 655 Q522 630 551.5 581.5 Q581 533 581 466 Q581 396 546 345.5 Q511 295 452 272 Q497 207 543.5 124 Q590 41 607 0 L449 0 Z M215 379 L336 379 Q383 379 409.5 402.5 Q436 426 436 467 Q436 508 409.5 530.5 Q383 553 336 553 L215 553 L215 379 Z M271 -50 L388 -50 Q387 -97 373.5 -132.5 Q360 -168 339 -200 L256 -200 Q271 -128 271 -50 Z " />
<glyph glyph-name="S" unicode="S" horiz-adv-x="579" d="M378 493 Q373 524 346 545 Q319 566 276 566 Q235 566 212 546 Q189 526 189 497 Q189 466 216 450 Q243 434 306 415 L362 398 Q453 371 499 327 Q545 283 545 201 Q545 105 479 47.5 Q413 -10 295 -10 Q210 -10 151 16.5 Q92 43 62.5 88 Q33 133 30 189 L29 211 L181 211 Q184 167 215 140.5 Q246 114 298 114 Q345 114 371.5 134 Q398 154 398 191 Q398 225 375 241 Q352 257 297 274 L240 292 Q169 314 127.5 337.5 Q86 361 64 397.5 Q42 434 42 490 Q42 546 70 591.5 Q98 637 152 663.5 Q206 690 282 690 Q362 690 416 665 Q470 640 497.5 600 Q525 560 529 513 L530 493 L378 493 Z " />
<glyph glyph-name="Sacute" unicode="&#x15a;" horiz-adv-x="579" d="M378 493 Q373 524 346 545 Q319 566 276 566 Q235 566 212 546 Q189 526 189 497 Q189 466 216 450 Q243 434 306 415 L362 398 Q453 371 499 327 Q545 283 545 201 Q545 105 479 47.5 Q413 -10 295 -10 Q210 -10 151 16.5 Q92 43 62.5 88 Q33 133 30 189 L29 211 L181 211 Q184 167 215 140.5 Q246 114 298 114 Q345 114 371.5 134 Q398 154 398 191 Q398 225 375 241 Q352 257 297 274 L240 292 Q169 314 127.5 337.5 Q86 361 64 397.5 Q42 434 42 490 Q42 546 70 591.5 Q98 637 152 663.5 Q206 690 282 690 Q362 690 416 665 Q470 640 497.5 600 Q525 560 529 513 L530 493 L378 493 Z M341 737 L226 737 Q255 807 293 861 L434 861 Q392 813 341 737 Z " />
<glyph glyph-name="Scaron" unicode="&#x160;" horiz-adv-x="579" d="M378 493 Q373 524 346 545 Q319 566 276 566 Q235 566 212 546 Q189 526 189 497 Q189 466 216 450 Q243 434 306 415 L362 398 Q453 371 499 327 Q545 283 545 201 Q545 105 479 47.5 Q413 -10 295 -10 Q210 -10 151 16.5 Q92 43 62.5 88 Q33 133 30 189 L29 211 L181 211 Q184 167 215 140.5 Q246 114 298 114 Q345 114 371.5 134 Q398 154 398 191 Q398 225 375 241 Q352 257 297 274 L240 292 Q169 314 127.5 337.5 Q86 361 64 397.5 Q42 434 42 490 Q42 546 70 591.5 Q98 637 152 663.5 Q206 690 282 690 Q362 690 416 665 Q470 640 497.5 600 Q525 560 529 513 L530 493 L378 493 Z M451 857 Q438 827 417.5 795 Q397 763 376 737 L203 737 Q155 798 128 857 L234 857 Q253 825 290 785 Q328 828 345 857 L451 857 Z " />
<glyph glyph-name="Scedilla" unicode="&#x15e;" horiz-adv-x="579" d="M317 -10 L303 -38 Q342 -42 366 -63 Q390 -84 390 -120 Q390 -163 360 -186 Q330 -209 282 -209 Q252 -209 224.5 -200 Q197 -191 179 -175 L212 -123 Q242 -145 277 -145 Q296 -145 306.5 -138 Q317 -131 317 -118 Q317 -104 304.5 -97.5 Q292 -91 273 -91 Q257 -91 239 -96 L220 -72 L251 -8 Q146 2 90 56.5 Q34 111 30 189 L29 211 L181 211 Q184 167 215 140.5 Q246 114 298 114 Q345 114 371.5 134 Q398 154 398 191 Q398 225 375 241 Q352 257 297 274 L240 292 Q169 314 127.5 337.5 Q86 361 64 397.5 Q42 434 42 490 Q42 546 70 591.5 Q98 637 152 663.5 Q206 690 282 690 Q362 690 416 665 Q470 640 497.5 600 Q525 560 529 513 L530 493 L378 493 Q373 524 346 545 Q319 566 276 566 Q235 566 212 546 Q189 526 189 497 Q189 466 216 450 Q243 434 306 415 L362 398 Q453 371 499 327 Q545 283 545 201 Q545 109 485 52 Q425 -5 317 -10 Z " />
<glyph glyph-name="Scommaaccent" unicode="&#x218;" horiz-adv-x="579" d="M378 493 Q373 524 346 545 Q319 566 276 566 Q235 566 212 546 Q189 526 189 497 Q189 466 216 450 Q243 434 306 415 L362 398 Q453 371 499 327 Q545 283 545 201 Q545 105 479 47.5 Q413 -10 295 -10 Q210 -10 151 16.5 Q92 43 62.5 88 Q33 133 30 189 L29 211 L181 211 Q184 167 215 140.5 Q246 114 298 114 Q345 114 371.5 134 Q398 154 398 191 Q398 225 375 241 Q352 257 297 274 L240 292 Q169 314 127.5 337.5 Q86 361 64 397.5 Q42 434 42 490 Q42 546 70 591.5 Q98 637 152 663.5 Q206 690 282 690 Q362 690 416 665 Q470 640 497.5 600 Q525 560 529 513 L530 493 L378 493 Z M229 -50 L346 -50 Q345 -97 331.5 -132.5 Q318 -168 297 -200 L214 -200 Q229 -128 229 -50 Z " />
<glyph glyph-name="T" unicode="T" horiz-adv-x="554" d="M528 549 L350 549 L350 0 L203 0 L203 549 L26 549 L26 680 L528 680 L528 549 Z " />
<glyph glyph-name="Tbar" unicode="&#x166;" horiz-adv-x="554" d="M350 549 L350 386 L433 386 L433 295 L350 295 L350 0 L203 0 L203 295 L119 295 L119 386 L203 386 L203 549 L26 549 L26 680 L528 680 L528 549 L350 549 Z " />
<glyph glyph-name="Tcaron" unicode="&#x164;" horiz-adv-x="554" d="M528 549 L350 549 L350 0 L203 0 L203 549 L26 549 L26 680 L528 680 L528 549 Z M438 857 Q425 827 404.5 795 Q384 763 363 737 L190 737 Q142 798 115 857 L221 857 Q240 825 277 785 Q315 828 332 857 L438 857 Z " />
<glyph glyph-name="uni0162" unicode="&#x162;" horiz-adv-x="554" d="M312 0 L293 -38 Q333 -42 357 -63 Q381 -84 381 -120 Q381 -163 351 -186 Q321 -209 272 -209 Q242 -209 214.5 -200 Q187 -191 170 -175 L202 -123 Q232 -145 268 -145 Q286 -145 297 -138 Q308 -131 308 -118 Q308 -105 295.5 -98 Q283 -91 264 -91 Q249 -91 229 -96 L210 -72 L245 0 L203 0 L203 549 L26 549 L26 680 L528 680 L528 549 L350 549 L350 0 L312 0 Z " />
<glyph glyph-name="uni021A" unicode="&#x21a;" horiz-adv-x="554" d="M528 549 L350 549 L350 0 L203 0 L203 549 L26 549 L26 680 L528 680 L528 549 Z M219 -50 L336 -50 Q335 -97 321.5 -132.5 Q308 -168 287 -200 L204 -200 Q219 -128 219 -50 Z " />
<glyph glyph-name="U" unicode="U" horiz-adv-x="654" d="M588 680 L588 229 Q588 109 518 50 Q448 -9 327 -9 Q206 -9 136 49.5 Q66 108 66 229 L66 680 L213 680 L213 245 Q213 183 243 152 Q273 121 327 121 Q381 121 411 152 Q441 183 441 245 L441 680 L588 680 Z " />
<glyph glyph-name="Uacute" unicode="&#xda;" horiz-adv-x="654" d="M588 680 L588 229 Q588 109 518 50 Q448 -9 327 -9 Q206 -9 136 49.5 Q66 108 66 229 L66 680 L213 680 L213 245 Q213 183 243 152 Q273 121 327 121 Q381 121 411 152 Q441 183 441 245 L441 680 L588 680 Z M378 737 L263 737 Q292 807 330 861 L471 861 Q429 813 378 737 Z " />
<glyph glyph-name="Ucircumflex" unicode="&#xdb;" horiz-adv-x="654" d="M588 680 L588 229 Q588 109 518 50 Q448 -9 327 -9 Q206 -9 136 49.5 Q66 108 66 229 L66 680 L213 680 L213 245 Q213 183 243 152 Q273 121 327 121 Q381 121 411 152 Q441 183 441 245 L441 680 L588 680 Z M382 737 Q365 766 327 809 Q290 769 271 737 L165 737 Q192 796 240 857 L413 857 Q434 831 454.5 799 Q475 767 488 737 L382 737 Z " />
<glyph glyph-name="Udieresis" unicode="&#xdc;" horiz-adv-x="654" d="M588 680 L588 229 Q588 109 518 50 Q448 -9 327 -9 Q206 -9 136 49.5 Q66 108 66 229 L66 680 L213 680 L213 245 Q213 183 243 152 Q273 121 327 121 Q381 121 411 152 Q441 183 441 245 L441 680 L588 680 Z M158 804 Q158 835 179 855 Q200 875 231 875 Q263 875 283.5 855 Q304 835 304 804 Q304 773 283.5 753.5 Q263 734 231 734 Q200 734 179 754 Q158 774 158 804 Z M349 804 Q349 835 370 855 Q391 875 422 875 Q453 875 474 855 Q495 835 495 804 Q495 774 474 754 Q453 734 422 734 Q391 734 370 754 Q349 774 349 804 Z " />
<glyph glyph-name="Ugrave" unicode="&#xd9;" horiz-adv-x="654" d="M588 680 L588 229 Q588 109 518 50 Q448 -9 327 -9 Q206 -9 136 49.5 Q66 108 66 229 L66 680 L213 680 L213 245 Q213 183 243 152 Q273 121 327 121 Q381 121 411 152 Q441 183 441 245 L441 680 L588 680 Z M318 861 Q356 807 385 737 L276 737 Q226 807 177 861 L318 861 Z " />
<glyph glyph-name="Uhungarumlaut" unicode="&#x170;" horiz-adv-x="654" d="M588 680 L588 229 Q588 109 518 50 Q448 -9 327 -9 Q206 -9 136 49.5 Q66 108 66 229 L66 680 L213 680 L213 245 Q213 183 243 152 Q273 121 327 121 Q381 121 411 152 Q441 183 441 245 L441 680 L588 680 Z M296 737 L197 737 Q215 785 253 857 L374 857 Q337 813 296 737 Z M457 737 L358 737 Q390 805 425 857 L546 857 Q522 827 457 737 Z " />
<glyph glyph-name="Umacron" unicode="&#x16a;" horiz-adv-x="654" d="M588 680 L588 229 Q588 109 518 50 Q448 -9 327 -9 Q206 -9 136 49.5 Q66 108 66 229 L66 680 L213 680 L213 245 Q213 183 243 152 Q273 121 327 121 Q381 121 411 152 Q441 183 441 245 L441 680 L588 680 Z M464 840 L464 745 L190 745 L190 840 L464 840 Z " />
<glyph glyph-name="Uogonek" unicode="&#x172;" horiz-adv-x="654" d="M320 -91 Q320 -44 358 -8 Q348 -9 326 -9 Q206 -9 136 50 Q66 109 66 229 L66 680 L213 680 L213 245 Q213 183 243 152 Q273 121 327 121 Q381 121 411 152 Q441 183 441 245 L441 680 L588 680 L588 229 Q588 168 571.5 128 Q555 88 535 68.5 Q515 49 483 27 Q450 2 435 -17 Q420 -36 420 -58 Q420 -96 464 -96 L471 -96 L471 -181 Q457 -184 435 -184 Q380 -184 350 -159.5 Q320 -135 320 -91 Z " />
<glyph glyph-name="Uring" unicode="&#x16e;" horiz-adv-x="654" d="M588 680 L588 229 Q588 109 518 50 Q448 -9 327 -9 Q206 -9 136 49.5 Q66 108 66 229 L66 680 L213 680 L213 245 Q213 183 243 152 Q273 121 327 121 Q381 121 411 152 Q441 183 441 245 L441 680 L588 680 Z M210 820 Q210 867 242.5 897 Q275 927 327 927 Q379 927 411 897 Q443 867 443 820 Q443 773 410.5 743 Q378 713 327 713 Q275 713 242.5 743 Q210 773 210 820 Z M379 820 Q379 842 365.5 856.5 Q352 871 327 871 Q302 871 288.5 856.5 Q275 842 275 820 Q275 798 288.5 783.5 Q302 769 327 769 Q352 769 365.5 783.5 Q379 798 379 820 Z " />
<glyph glyph-name="V" unicode="V" horiz-adv-x="640" d="M625 680 Q580 515 519 325.5 Q458 136 410 21 Q405 9 398 4.5 Q391 0 374 0 L266 0 Q249 0 241.5 4.5 Q234 9 229 21 Q180 134 120 323 Q60 512 15 680 L167 680 Q197 563 239 420 Q281 277 320 161 Q359 274 401.5 416.5 Q444 559 475 680 L625 680 Z " />
<glyph glyph-name="W" unicode="W" horiz-adv-x="959" d="M934 680 Q896 499 851 316.5 Q806 134 767 21 Q763 9 755.5 4.5 Q748 0 731 0 L632 0 Q615 0 607.5 4.5 Q600 9 597 21 L480 450 L364 21 Q361 10 353 5 Q345 0 328 0 L229 0 Q212 0 205 4.5 Q198 9 194 21 Q155 141 107 330 Q59 519 25 680 L176 680 Q219 462 287 208 L412 680 L551 680 L679 209 Q746 463 787 680 L934 680 Z " />
<glyph glyph-name="Wacute" unicode="&#x1e82;" horiz-adv-x="959" d="M934 680 Q896 499 851 316.5 Q806 134 767 21 Q763 9 755.5 4.5 Q748 0 731 0 L632 0 Q615 0 607.5 4.5 Q600 9 597 21 L480 450 L364 21 Q361 10 353 5 Q345 0 328 0 L229 0 Q212 0 205 4.5 Q198 9 194 21 Q155 141 107 330 Q59 519 25 680 L176 680 Q219 462 287 208 L412 680 L551 680 L679 209 Q746 463 787 680 L934 680 Z M534 737 L419 737 Q448 807 486 861 L627 861 Q585 813 534 737 Z " />
<glyph glyph-name="Wcircumflex" unicode="&#x174;" horiz-adv-x="959" d="M934 680 Q896 499 851 316.5 Q806 134 767 21 Q763 9 755.5 4.5 Q748 0 731 0 L632 0 Q615 0 607.5 4.5 Q600 9 597 21 L480 450 L364 21 Q361 10 353 5 Q345 0 328 0 L229 0 Q212 0 205 4.5 Q198 9 194 21 Q155 141 107 330 Q59 519 25 680 L176 680 Q219 462 287 208 L412 680 L551 680 L679 209 Q746 463 787 680 L934 680 Z M538 737 Q521 766 483 809 Q446 769 427 737 L321 737 Q348 796 396 857 L569 857 Q590 831 610.5 799 Q631 767 644 737 L538 737 Z " />
<glyph glyph-name="Wdieresis" unicode="&#x1e84;" horiz-adv-x="959" d="M934 680 Q896 499 851 316.5 Q806 134 767 21 Q763 9 755.5 4.5 Q748 0 731 0 L632 0 Q615 0 607.5 4.5 Q600 9 597 21 L480 450 L364 21 Q361 10 353 5 Q345 0 328 0 L229 0 Q212 0 205 4.5 Q198 9 194 21 Q155 141 107 330 Q59 519 25 680 L176 680 Q219 462 287 208 L412 680 L551 680 L679 209 Q746 463 787 680 L934 680 Z M315 804 Q315 835 336 855 Q357 875 388 875 Q420 875 440.5 855 Q461 835 461 804 Q461 773 440.5 753.5 Q420 734 388 734 Q357 734 336 754 Q315 774 315 804 Z M506 804 Q506 835 527 855 Q548 875 579 875 Q610 875 631 855 Q652 835 652 804 Q652 774 631 754 Q610 734 579 734 Q548 734 527 754 Q506 774 506 804 Z " />
<glyph glyph-name="Wgrave" unicode="&#x1e80;" horiz-adv-x="959" d="M934 680 Q896 499 851 316.5 Q806 134 767 21 Q763 9 755.5 4.5 Q748 0 731 0 L632 0 Q615 0 607.5 4.5 Q600 9 597 21 L480 450 L364 21 Q361 10 353 5 Q345 0 328 0 L229 0 Q212 0 205 4.5 Q198 9 194 21 Q155 141 107 330 Q59 519 25 680 L176 680 Q219 462 287 208 L412 680 L551 680 L679 209 Q746 463 787 680 L934 680 Z M474 861 Q512 807 541 737 L432 737 Q382 807 333 861 L474 861 Z " />
<glyph glyph-name="X" unicode="X" horiz-adv-x="620" d="M445 0 Q373 145 309 252 Q257 166 171 0 L17 0 Q107 186 214 357 Q118 501 27 680 L184 680 Q247 557 310 461 Q381 569 436 680 L590 680 Q505 509 403 357 Q504 203 602 0 L445 0 Z " />
<glyph glyph-name="Y" unicode="Y" horiz-adv-x="608" d="M378 257 L378 0 L231 0 L231 257 Q92 490 15 680 L165 680 Q224 540 306 395 Q381 529 444 680 L593 680 Q551 575 498 472.5 Q445 370 378 257 Z " />
<glyph glyph-name="Yacute" unicode="&#xdd;" horiz-adv-x="608" d="M378 257 L378 0 L231 0 L231 257 Q92 490 15 680 L165 680 Q224 540 306 395 Q381 529 444 680 L593 680 Q551 575 498 472.5 Q445 370 378 257 Z M352 737 L237 737 Q266 807 304 861 L445 861 Q403 813 352 737 Z " />
<glyph glyph-name="Ycircumflex" unicode="&#x176;" horiz-adv-x="608" d="M378 257 L378 0 L231 0 L231 257 Q92 490 15 680 L165 680 Q224 540 306 395 Q381 529 444 680 L593 680 Q551 575 498 472.5 Q445 370 378 257 Z M356 737 Q339 766 301 809 Q264 769 245 737 L139 737 Q166 796 214 857 L387 857 Q408 831 428.5 799 Q449 767 462 737 L356 737 Z " />
<glyph glyph-name="Ydieresis" unicode="&#x178;" horiz-adv-x="608" d="M378 257 L378 0 L231 0 L231 257 Q92 490 15 680 L165 680 Q224 540 306 395 Q381 529 444 680 L593 680 Q551 575 498 472.5 Q445 370 378 257 Z M132 804 Q132 835 153 855 Q174 875 205 875 Q237 875 257.5 855 Q278 835 278 804 Q278 773 257.5 753.5 Q237 734 205 734 Q174 734 153 754 Q132 774 132 804 Z M323 804 Q323 835 344 855 Q365 875 396 875 Q427 875 448 855 Q469 835 469 804 Q469 774 448 754 Q427 734 396 734 Q365 734 344 754 Q323 774 323 804 Z " />
<glyph glyph-name="Ygrave" unicode="&#x1ef2;" horiz-adv-x="608" d="M378 257 L378 0 L231 0 L231 257 Q92 490 15 680 L165 680 Q224 540 306 395 Q381 529 444 680 L593 680 Q551 575 498 472.5 Q445 370 378 257 Z M292 861 Q330 807 359 737 L250 737 Q200 807 151 861 L292 861 Z " />
<glyph glyph-name="Z" unicode="Z" horiz-adv-x="577" d="M544 132 L544 0 L36 0 L36 119 L359 549 L50 549 L50 680 L541 680 L541 563 L218 132 L544 132 Z " />
<glyph glyph-name="Zacute" unicode="&#x179;" horiz-adv-x="577" d="M544 132 L544 0 L36 0 L36 119 L359 549 L50 549 L50 680 L541 680 L541 563 L218 132 L544 132 Z M347 737 L232 737 Q261 807 299 861 L440 861 Q398 813 347 737 Z " />
<glyph glyph-name="Zcaron" unicode="&#x17d;" horiz-adv-x="577" d="M544 132 L544 0 L36 0 L36 119 L359 549 L50 549 L50 680 L541 680 L541 563 L218 132 L544 132 Z M457 857 Q444 827 423.5 795 Q403 763 382 737 L209 737 Q161 798 134 857 L240 857 Q259 825 296 785 Q334 828 351 857 L457 857 Z " />
<glyph glyph-name="Zdotaccent" unicode="&#x17b;" horiz-adv-x="577" d="M544 132 L544 0 L36 0 L36 119 L359 549 L50 549 L50 680 L541 680 L541 563 L218 132 L544 132 Z M219 805 Q219 837 241.5 857.5 Q264 878 296 878 Q329 878 351.5 857.5 Q374 837 374 805 Q374 773 351.5 752 Q329 731 296 731 Q264 731 241.5 752 Q219 773 219 805 Z " />
<glyph glyph-name="a" unicode="a" horiz-adv-x="515" d="M492 104 L492 2 Q474 -5 444 -5 Q360 -5 341 57 Q321 26 286 8.5 Q251 -9 200 -9 Q120 -9 75.5 29 Q31 67 31 135 Q31 215 99 259 Q167 303 317 318 L317 325 Q317 392 250 392 Q219 392 201 376 Q183 360 179 337 L46 337 Q51 412 105 458 Q159 504 251 504 Q345 504 398.5 458.5 Q452 413 452 325 L452 158 Q452 127 461 115.5 Q470 104 492 104 Z M317 168 L317 227 Q167 208 167 144 Q167 120 184.5 107.5 Q202 95 233 95 Q270 95 293.5 114.5 Q317 134 317 168 Z " />
<glyph glyph-name="aacute" unicode="&#xe1;" horiz-adv-x="515" d="M492 104 L492 2 Q474 -5 444 -5 Q360 -5 341 57 Q321 26 286 8.5 Q251 -9 200 -9 Q120 -9 75.5 29 Q31 67 31 135 Q31 215 99 259 Q167 303 317 318 L317 325 Q317 392 250 392 Q219 392 201 376 Q183 360 179 337 L46 337 Q51 412 105 458 Q159 504 251 504 Q345 504 398.5 458.5 Q452 413 452 325 L452 158 Q452 127 461 115.5 Q470 104 492 104 Z M317 168 L317 227 Q167 208 167 144 Q167 120 184.5 107.5 Q202 95 233 95 Q270 95 293.5 114.5 Q317 134 317 168 Z M306 560 L191 560 Q220 630 258 684 L399 684 Q357 636 306 560 Z " />
<glyph glyph-name="abreve" unicode="&#x103;" horiz-adv-x="515" d="M492 104 L492 2 Q474 -5 444 -5 Q360 -5 341 57 Q321 26 286 8.5 Q251 -9 200 -9 Q120 -9 75.5 29 Q31 67 31 135 Q31 215 99 259 Q167 303 317 318 L317 325 Q317 392 250 392 Q219 392 201 376 Q183 360 179 337 L46 337 Q51 412 105 458 Q159 504 251 504 Q345 504 398.5 458.5 Q452 413 452 325 L452 158 Q452 127 461 115.5 Q470 104 492 104 Z M317 168 L317 227 Q167 208 167 144 Q167 120 184.5 107.5 Q202 95 233 95 Q270 95 293.5 114.5 Q317 134 317 168 Z M402 680 Q402 619 361.5 585.5 Q321 552 256 552 Q191 552 150.5 585.5 Q110 619 110 680 L201 680 Q201 658 214 641 Q227 624 256 624 Q285 624 298.5 641 Q312 658 312 680 L402 680 L402 680 Z " />
<glyph glyph-name="acircumflex" unicode="&#xe2;" horiz-adv-x="515" d="M492 104 L492 2 Q474 -5 444 -5 Q360 -5 341 57 Q321 26 286 8.5 Q251 -9 200 -9 Q120 -9 75.5 29 Q31 67 31 135 Q31 215 99 259 Q167 303 317 318 L317 325 Q317 392 250 392 Q219 392 201 376 Q183 360 179 337 L46 337 Q51 412 105 458 Q159 504 251 504 Q345 504 398.5 458.5 Q452 413 452 325 L452 158 Q452 127 461 115.5 Q470 104 492 104 Z M317 168 L317 227 Q167 208 167 144 Q167 120 184.5 107.5 Q202 95 233 95 Q270 95 293.5 114.5 Q317 134 317 168 Z M310 560 Q293 589 255 632 Q218 592 199 560 L93 560 Q120 619 168 680 L341 680 Q362 654 382.5 622 Q403 590 416 560 L310 560 Z " />
<glyph glyph-name="adieresis" unicode="&#xe4;" horiz-adv-x="515" d="M492 104 L492 2 Q474 -5 444 -5 Q360 -5 341 57 Q321 26 286 8.5 Q251 -9 200 -9 Q120 -9 75.5 29 Q31 67 31 135 Q31 215 99 259 Q167 303 317 318 L317 325 Q317 392 250 392 Q219 392 201 376 Q183 360 179 337 L46 337 Q51 412 105 458 Q159 504 251 504 Q345 504 398.5 458.5 Q452 413 452 325 L452 158 Q452 127 461 115.5 Q470 104 492 104 Z M317 168 L317 227 Q167 208 167 144 Q167 120 184.5 107.5 Q202 95 233 95 Q270 95 293.5 114.5 Q317 134 317 168 Z M87 627 Q87 658 108 678 Q129 698 160 698 Q192 698 212.5 678 Q233 658 233 627 Q233 596 212.5 576.5 Q192 557 160 557 Q129 557 108 577 Q87 597 87 627 Z M278 627 Q278 658 299 678 Q320 698 351 698 Q382 698 403 678 Q424 658 424 627 Q424 597 403 577 Q382 557 351 557 Q320 557 299 577 Q278 597 278 627 Z " />
<glyph glyph-name="agrave" unicode="&#xe0;" horiz-adv-x="515" d="M492 104 L492 2 Q474 -5 444 -5 Q360 -5 341 57 Q321 26 286 8.5 Q251 -9 200 -9 Q120 -9 75.5 29 Q31 67 31 135 Q31 215 99 259 Q167 303 317 318 L317 325 Q317 392 250 392 Q219 392 201 376 Q183 360 179 337 L46 337 Q51 412 105 458 Q159 504 251 504 Q345 504 398.5 458.5 Q452 413 452 325 L452 158 Q452 127 461 115.5 Q470 104 492 104 Z M317 168 L317 227 Q167 208 167 144 Q167 120 184.5 107.5 Q202 95 233 95 Q270 95 293.5 114.5 Q317 134 317 168 Z M246 684 Q284 630 313 560 L204 560 Q154 630 105 684 L246 684 Z " />
<glyph glyph-name="amacron" unicode="&#x101;" horiz-adv-x="515" d="M492 104 L492 2 Q474 -5 444 -5 Q360 -5 341 57 Q321 26 286 8.5 Q251 -9 200 -9 Q120 -9 75.5 29 Q31 67 31 135 Q31 215 99 259 Q167 303 317 318 L317 325 Q317 392 250 392 Q219 392 201 376 Q183 360 179 337 L46 337 Q51 412 105 458 Q159 504 251 504 Q345 504 398.5 458.5 Q452 413 452 325 L452 158 Q452 127 461 115.5 Q470 104 492 104 Z M317 168 L317 227 Q167 208 167 144 Q167 120 184.5 107.5 Q202 95 233 95 Q270 95 293.5 114.5 Q317 134 317 168 Z M392 663 L392 568 L118 568 L118 663 L392 663 Z " />
<glyph glyph-name="aogonek" unicode="&#x105;" horiz-adv-x="514" d="M333 -95 Q333 -65 349 -40 Q365 -15 393 2 Q355 15 340 57 Q321 26 286 8.5 Q251 -9 200 -9 Q120 -9 75.5 28.5 Q31 66 31 134 Q31 213 99 258 Q167 303 317 319 L317 325 Q317 392 251 392 Q218 392 201 376.5 Q184 361 180 337 L48 337 Q53 412 106 458 Q159 504 251 504 Q346 504 399 459.5 Q452 415 452 327 L452 162 Q452 129 461 116.5 Q470 104 492 104 L492 2 Q433 -24 433 -64 Q433 -96 476 -96 L483 -96 L483 -181 Q469 -184 447 -184 Q393 -184 363 -160.5 Q333 -137 333 -95 Z M317 168 L317 227 Q242 216 204.5 196.5 Q167 177 167 143 Q167 119 184.5 107 Q202 95 233 95 Q270 95 293.5 114.5 Q317 134 317 168 Z " />
<glyph glyph-name="aring" unicode="&#xe5;" horiz-adv-x="515" d="M492 104 L492 2 Q474 -5 444 -5 Q360 -5 341 57 Q321 26 286 8.5 Q251 -9 200 -9 Q120 -9 75.5 29 Q31 67 31 135 Q31 215 99 259 Q167 303 317 318 L317 325 Q317 392 250 392 Q219 392 201 376 Q183 360 179 337 L46 337 Q51 412 105 458 Q159 504 251 504 Q345 504 398.5 458.5 Q452 413 452 325 L452 158 Q452 127 461 115.5 Q470 104 492 104 Z M317 168 L317 227 Q167 208 167 144 Q167 120 184.5 107.5 Q202 95 233 95 Q270 95 293.5 114.5 Q317 134 317 168 Z M138 643 Q138 690 170.5 720 Q203 750 255 750 Q307 750 339 720 Q371 690 371 643 Q371 596 338.5 566 Q306 536 255 536 Q203 536 170.5 566 Q138 596 138 643 Z M307 643 Q307 665 293.5 679.5 Q280 694 255 694 Q230 694 216.5 679.5 Q203 665 203 643 Q203 621 216.5 606.5 Q230 592 255 592 Q280 592 293.5 606.5 Q307 621 307 643 Z " />
<glyph glyph-name="atilde" unicode="&#xe3;" horiz-adv-x="515" d="M492 104 L492 2 Q474 -5 444 -5 Q360 -5 341 57 Q321 26 286 8.5 Q251 -9 200 -9 Q120 -9 75.5 29 Q31 67 31 135 Q31 215 99 259 Q167 303 317 318 L317 325 Q317 392 250 392 Q219 392 201 376 Q183 360 179 337 L46 337 Q51 412 105 458 Q159 504 251 504 Q345 504 398.5 458.5 Q452 413 452 325 L452 158 Q452 127 461 115.5 Q470 104 492 104 Z M317 168 L317 227 Q167 208 167 144 Q167 120 184.5 107.5 Q202 95 233 95 Q270 95 293.5 114.5 Q317 134 317 168 Z M323 557 Q301 557 283 563 Q265 569 244 580 Q240 582 229.5 586.5 Q219 591 210.5 593.5 Q202 596 194 596 Q163 596 160 557 L94 557 Q96 614 121.5 647 Q147 680 192 680 Q211 680 227.5 674 Q244 668 265 657 Q296 639 315 639 Q332 639 340.5 650 Q349 661 350 679 L416 679 Q414 621 390.5 589 Q367 557 323 557 Z " />
<glyph glyph-name="ae" unicode="&#xe6;" horiz-adv-x="805" d="M451 212 Q455 165 478.5 136 Q502 107 548 107 Q613 107 633 161 L772 161 Q736 -9 548 -9 Q494 -9 449.5 10 Q405 29 374 65 Q353 31 311.5 11 Q270 -9 210 -9 Q127 -9 79 28 Q31 65 31 133 Q31 212 95 254.5 Q159 297 316 304 L316 326 Q316 358 299 375 Q282 392 249 392 Q188 392 177 337 L46 337 Q50 413 102 458.5 Q154 504 245 504 Q349 504 400 453 Q458 502 549 502 Q653 502 713.5 440 Q774 378 774 273 L774 212 L451 212 Z M453 302 L643 302 Q638 341 615.5 364.5 Q593 388 549 388 Q506 388 482.5 365 Q459 342 453 302 Z M316 169 L316 219 Q241 213 204 195 Q167 177 167 145 Q167 120 184 107.5 Q201 95 232 95 Q270 95 293 114.5 Q316 134 316 169 Z " />
<glyph glyph-name="b" unicode="b" horiz-adv-x="552" d="M521 259 L521 234 Q521 117 468.5 54 Q416 -9 329 -9 Q235 -9 190 61 L190 0 L59 0 L59 700 L197 700 L197 442 Q241 502 329 502 Q416 502 468.5 439 Q521 376 521 259 Z M383 259 Q383 312 361.5 347 Q340 382 290 382 Q242 382 219.5 348.5 Q197 315 197 265 L197 228 Q197 179 219.5 145.5 Q242 112 290 112 Q340 112 361.5 146.5 Q383 181 383 234 L383 259 Z " />
<glyph glyph-name="c" unicode="c" horiz-adv-x="500" d="M474 172 Q467 87 409 39 Q351 -9 259 -9 Q154 -9 93 53.5 Q32 116 32 233 L32 261 Q32 378 93.5 440 Q155 502 260 502 Q352 502 409 456 Q466 410 471 334 L472 321 L334 321 Q328 350 308.5 366 Q289 382 257 382 Q210 382 190 348 Q170 314 170 261 L170 233 Q170 180 190 146 Q210 112 257 112 Q292 112 312 131.5 Q332 151 337 185 L475 185 L474 172 Z " />
<glyph glyph-name="cacute" unicode="&#x107;" horiz-adv-x="500" d="M474 172 Q467 87 409 39 Q351 -9 259 -9 Q154 -9 93 53.5 Q32 116 32 233 L32 261 Q32 378 93.5 440 Q155 502 260 502 Q352 502 409 456 Q466 410 471 334 L472 321 L334 321 Q328 350 308.5 366 Q289 382 257 382 Q210 382 190 348 Q170 314 170 261 L170 233 Q170 180 190 146 Q210 112 257 112 Q292 112 312 131.5 Q332 151 337 185 L475 185 L474 172 Z M318 560 L203 560 Q232 630 270 684 L411 684 Q369 636 318 560 Z " />
<glyph glyph-name="ccaron" unicode="&#x10d;" horiz-adv-x="500" d="M474 172 Q467 87 409 39 Q351 -9 259 -9 Q154 -9 93 53.5 Q32 116 32 233 L32 261 Q32 378 93.5 440 Q155 502 260 502 Q352 502 409 456 Q466 410 471 334 L472 321 L334 321 Q328 350 308.5 366 Q289 382 257 382 Q210 382 190 348 Q170 314 170 261 L170 233 Q170 180 190 146 Q210 112 257 112 Q292 112 312 131.5 Q332 151 337 185 L475 185 L474 172 Z M428 680 Q415 650 394.5 618 Q374 586 353 560 L180 560 Q132 621 105 680 L211 680 Q230 648 267 608 Q305 651 322 680 L428 680 Z " />
<glyph glyph-name="ccedilla" unicode="&#xe7;" horiz-adv-x="500" d="M475 185 L474 172 Q468 93 417 46 Q366 -1 284 -8 L269 -38 Q308 -42 332.5 -63 Q357 -84 357 -120 Q357 -163 327 -186 Q297 -209 248 -209 Q218 -209 190.5 -200 Q163 -191 146 -175 L178 -123 Q208 -145 244 -145 Q262 -145 273 -138 Q284 -131 284 -118 Q284 -105 271 -98 Q258 -91 239 -91 Q225 -91 205 -96 L186 -72 L218 -6 Q131 6 81.5 66.5 Q32 127 32 233 L32 261 Q32 378 93.5 440 Q155 502 260 502 Q352 502 409 456 Q466 410 471 334 L472 321 L334 321 Q328 350 308.5 366 Q289 382 257 382 Q210 382 190 348 Q170 314 170 261 L170 233 Q170 180 190 146 Q210 112 257 112 Q292 112 312 131.5 Q332 151 337 185 L475 185 Z " />
<glyph glyph-name="cdotaccent" unicode="&#x10b;" horiz-adv-x="500" d="M474 172 Q467 87 409 39 Q351 -9 259 -9 Q154 -9 93 53.5 Q32 116 32 233 L32 261 Q32 378 93.5 440 Q155 502 260 502 Q352 502 409 456 Q466 410 471 334 L472 321 L334 321 Q328 350 308.5 366 Q289 382 257 382 Q210 382 190 348 Q170 314 170 261 L170 233 Q170 180 190 146 Q210 112 257 112 Q292 112 312 131.5 Q332 151 337 185 L475 185 L474 172 Z M189 628 Q189 660 211.5 680.5 Q234 701 266 701 Q299 701 321.5 680.5 Q344 660 344 628 Q344 596 321.5 575 Q299 554 266 554 Q234 554 211.5 575 Q189 596 189 628 Z " />
<glyph glyph-name="d" unicode="d" horiz-adv-x="552" d="M493 700 L493 0 L362 0 L362 61 Q317 -9 223 -9 Q136 -9 84 54 Q32 117 32 234 L32 259 Q32 376 84 439 Q136 502 223 502 Q311 502 355 442 L355 700 L493 700 Z M355 228 L355 265 Q355 315 332.5 348.5 Q310 382 262 382 Q213 382 191.5 347 Q170 312 170 259 L170 234 Q170 182 191.5 147 Q213 112 262 112 Q310 112 332.5 145.5 Q355 179 355 228 Z " />
<glyph glyph-name="eth" unicode="&#xf0;" horiz-adv-x="525" d="M493 281 L493 240 Q493 120 429.5 55.5 Q366 -9 262 -9 Q159 -9 95.5 54 Q32 117 32 234 L32 252 Q32 329 59 384.5 Q86 440 132.5 468 Q179 496 235 496 Q293 496 327 465 Q309 506 280 548 L173 519 L152 592 L227 612 Q177 665 126 700 L291 700 Q321 680 353 647 L440 670 L461 596 L404 581 Q445 519 469 442.5 Q493 366 493 281 Z M355 252 Q355 305 333.5 339.5 Q312 374 262 374 Q213 374 191.5 339.5 Q170 305 170 252 L170 234 Q170 182 191.5 147 Q213 112 262 112 Q312 112 333.5 146.5 Q355 181 355 234 L355 252 Z " />
<glyph glyph-name="dcaron" unicode="&#x10f;" horiz-adv-x="635" d="M493 700 L493 0 L362 0 L362 61 Q317 -9 223 -9 Q136 -9 84 54 Q32 117 32 234 L32 259 Q32 376 84 439 Q136 502 223 502 Q311 502 355 442 L355 700 L493 700 Z M355 228 L355 265 Q355 315 332.5 348.5 Q310 382 262 382 Q213 382 191.5 347 Q170 312 170 259 L170 234 Q170 182 191.5 147 Q213 112 262 112 Q310 112 332.5 145.5 Q355 179 355 228 Z M594 520 L531 520 Q538 556 544 607 Q550 658 550 700 L650 700 Q647 598 594 520 Z " />
<glyph glyph-name="dslash" unicode="&#x111;" horiz-adv-x="552" d="M548 539 L493 539 L493 0 L362 0 L362 61 Q317 -9 223 -9 Q136 -9 84 54 Q32 117 32 234 L32 259 Q32 376 84 439 Q136 502 223 502 Q311 502 355 442 L355 539 L234 539 L234 630 L355 630 L355 700 L493 700 L493 630 L548 630 L548 539 Z M355 228 L355 265 Q355 315 332.5 348.5 Q310 382 262 382 Q213 382 191.5 347 Q170 312 170 259 L170 234 Q170 182 191.5 147 Q213 112 262 112 Q310 112 332.5 145.5 Q355 179 355 228 Z " />
<glyph glyph-name="e" unicode="e" horiz-adv-x="518" d="M166 212 Q170 165 193 136 Q216 107 262 107 Q327 107 347 161 L485 161 Q468 81 413.5 36 Q359 -9 262 -9 Q158 -9 95 54 Q32 117 32 234 L32 259 Q32 337 61.5 391.5 Q91 446 143.5 474 Q196 502 263 502 Q367 502 427.5 440 Q488 378 488 273 L488 212 L166 212 Z M168 302 L357 302 Q352 340 329 364 Q306 388 263 388 Q182 388 168 302 Z " />
<glyph glyph-name="eacute" unicode="&#xe9;" horiz-adv-x="518" d="M166 212 Q170 165 193 136 Q216 107 262 107 Q327 107 347 161 L485 161 Q468 81 413.5 36 Q359 -9 262 -9 Q158 -9 95 54 Q32 117 32 234 L32 259 Q32 337 61.5 391.5 Q91 446 143.5 474 Q196 502 263 502 Q367 502 427.5 440 Q488 378 488 273 L488 212 L166 212 Z M168 302 L357 302 Q352 340 329 364 Q306 388 263 388 Q182 388 168 302 Z M318 560 L203 560 Q232 630 270 684 L411 684 Q369 636 318 560 Z " />
<glyph glyph-name="ecaron" unicode="&#x11b;" horiz-adv-x="518" d="M166 212 Q170 165 193 136 Q216 107 262 107 Q327 107 347 161 L485 161 Q468 81 413.5 36 Q359 -9 262 -9 Q158 -9 95 54 Q32 117 32 234 L32 259 Q32 337 61.5 391.5 Q91 446 143.5 474 Q196 502 263 502 Q367 502 427.5 440 Q488 378 488 273 L488 212 L166 212 Z M168 302 L357 302 Q352 340 329 364 Q306 388 263 388 Q182 388 168 302 Z M428 680 Q415 650 394.5 618 Q374 586 353 560 L180 560 Q132 621 105 680 L211 680 Q230 648 267 608 Q305 651 322 680 L428 680 Z " />
<glyph glyph-name="ecircumflex" unicode="&#xea;" horiz-adv-x="518" d="M166 212 Q170 165 193 136 Q216 107 262 107 Q327 107 347 161 L485 161 Q468 81 413.5 36 Q359 -9 262 -9 Q158 -9 95 54 Q32 117 32 234 L32 259 Q32 337 61.5 391.5 Q91 446 143.5 474 Q196 502 263 502 Q367 502 427.5 440 Q488 378 488 273 L488 212 L166 212 Z M168 302 L357 302 Q352 340 329 364 Q306 388 263 388 Q182 388 168 302 Z M322 560 Q305 589 267 632 Q230 592 211 560 L105 560 Q132 619 180 680 L353 680 Q374 654 394.5 622 Q415 590 428 560 L322 560 Z " />
<glyph glyph-name="edieresis" unicode="&#xeb;" horiz-adv-x="518" d="M166 212 Q170 165 193 136 Q216 107 262 107 Q327 107 347 161 L485 161 Q468 81 413.5 36 Q359 -9 262 -9 Q158 -9 95 54 Q32 117 32 234 L32 259 Q32 337 61.5 391.5 Q91 446 143.5 474 Q196 502 263 502 Q367 502 427.5 440 Q488 378 488 273 L488 212 L166 212 Z M168 302 L357 302 Q352 340 329 364 Q306 388 263 388 Q182 388 168 302 Z M99 627 Q99 658 120 678 Q141 698 172 698 Q204 698 224.5 678 Q245 658 245 627 Q245 596 224.5 576.5 Q204 557 172 557 Q141 557 120 577 Q99 597 99 627 Z M290 627 Q290 658 311 678 Q332 698 363 698 Q394 698 415 678 Q436 658 436 627 Q436 597 415 577 Q394 557 363 557 Q332 557 311 577 Q290 597 290 627 Z " />
<glyph glyph-name="edotaccent" unicode="&#x117;" horiz-adv-x="518" d="M166 212 Q170 165 193 136 Q216 107 262 107 Q327 107 347 161 L485 161 Q468 81 413.5 36 Q359 -9 262 -9 Q158 -9 95 54 Q32 117 32 234 L32 259 Q32 337 61.5 391.5 Q91 446 143.5 474 Q196 502 263 502 Q367 502 427.5 440 Q488 378 488 273 L488 212 L166 212 Z M168 302 L357 302 Q352 340 329 364 Q306 388 263 388 Q182 388 168 302 Z M190 628 Q190 660 212.5 680.5 Q235 701 267 701 Q300 701 322.5 680.5 Q345 660 345 628 Q345 596 322.5 575 Q300 554 267 554 Q235 554 212.5 575 Q190 596 190 628 Z " />
<glyph glyph-name="egrave" unicode="&#xe8;" horiz-adv-x="518" d="M166 212 Q170 165 193 136 Q216 107 262 107 Q327 107 347 161 L485 161 Q468 81 413.5 36 Q359 -9 262 -9 Q158 -9 95 54 Q32 117 32 234 L32 259 Q32 337 61.5 391.5 Q91 446 143.5 474 Q196 502 263 502 Q367 502 427.5 440 Q488 378 488 273 L488 212 L166 212 Z M168 302 L357 302 Q352 340 329 364 Q306 388 263 388 Q182 388 168 302 Z M259 684 Q297 630 326 560 L217 560 Q167 630 118 684 L259 684 Z " />
<glyph glyph-name="emacron" unicode="&#x113;" horiz-adv-x="518" d="M166 212 Q170 165 193 136 Q216 107 262 107 Q327 107 347 161 L485 161 Q468 81 413.5 36 Q359 -9 262 -9 Q158 -9 95 54 Q32 117 32 234 L32 259 Q32 337 61.5 391.5 Q91 446 143.5 474 Q196 502 263 502 Q367 502 427.5 440 Q488 378 488 273 L488 212 L166 212 Z M168 302 L357 302 Q352 340 329 364 Q306 388 263 388 Q182 388 168 302 Z M404 663 L404 568 L130 568 L130 663 L404 663 Z " />
<glyph glyph-name="eogonek" unicode="&#x119;" horiz-adv-x="518" d="M248 -95 Q248 -47 291 -7 Q281 -9 262 -9 Q158 -9 95 54 Q32 117 32 234 L32 259 Q32 337 61.5 391.5 Q91 446 143.5 474 Q196 502 263 502 Q367 502 427.5 440 Q488 378 488 273 L488 212 L167 212 Q170 166 193 136.5 Q216 107 262 107 Q327 107 347 161 L485 161 Q478 118 458 85 Q438 52 404 26 Q374 3 361 -16.5 Q348 -36 348 -59 Q348 -96 390 -96 L398 -96 L398 -181 Q385 -184 365 -184 Q310 -184 279 -161.5 Q248 -139 248 -95 Z M357 302 Q351 341 328.5 364.5 Q306 388 263 388 Q221 388 198 364.5 Q175 341 168 302 L357 302 Z " />
<glyph glyph-name="f" unicode="f" horiz-adv-x="344" d="M293 581 Q255 581 241.5 565 Q228 549 228 512 L228 493 L315 493 L315 380 L228 380 L228 0 L90 0 L90 380 L22 380 L22 493 L90 493 L90 546 Q90 625 133.5 665 Q177 705 268 705 Q300 705 320 700 L320 579 Q300 581 293 581 Z " />
<glyph glyph-name="g" unicode="g" horiz-adv-x="539" d="M483 493 L483 16 Q483 -83 422 -126 Q361 -169 264 -169 Q160 -169 106.5 -130 Q53 -91 46 -24 L45 -14 L189 -14 Q193 -37 212 -52 Q231 -67 266 -67 Q305 -67 325 -48.5 Q345 -30 345 12 L345 69 Q305 21 229 21 Q141 21 87 80.5 Q33 140 33 250 L33 274 Q33 384 87 443 Q141 502 229 502 Q310 502 350 448 L350 493 L483 493 Z M345 246 L345 278 Q345 323 324.5 352.5 Q304 382 259 382 Q213 382 192 351 Q171 320 171 274 L171 251 Q171 205 192 173.5 Q213 142 259 142 Q304 142 324.5 171.5 Q345 201 345 246 Z " />
<glyph glyph-name="gbreve" unicode="&#x11f;" horiz-adv-x="539" d="M483 493 L483 16 Q483 -83 422 -126 Q361 -169 264 -169 Q160 -169 106.5 -130 Q53 -91 46 -24 L45 -14 L189 -14 Q193 -37 212 -52 Q231 -67 266 -67 Q305 -67 325 -48.5 Q345 -30 345 12 L345 69 Q305 21 229 21 Q141 21 87 80.5 Q33 140 33 250 L33 274 Q33 384 87 443 Q141 502 229 502 Q310 502 350 448 L350 493 L483 493 Z M345 246 L345 278 Q345 323 324.5 352.5 Q304 382 259 382 Q213 382 192 351 Q171 320 171 274 L171 251 Q171 205 192 173.5 Q213 142 259 142 Q304 142 324.5 171.5 Q345 201 345 246 Z M416 680 Q416 619 375.5 585.5 Q335 552 270 552 Q205 552 164.5 585.5 Q124 619 124 680 L215 680 Q215 658 228 641 Q241 624 270 624 Q299 624 312.5 641 Q326 658 326 680 L416 680 L416 680 Z " />
<glyph glyph-name="gcommaaccent" unicode="&#x123;" horiz-adv-x="539" d="M483 493 L483 16 Q483 -83 422 -126 Q361 -169 264 -169 Q160 -169 106.5 -130 Q53 -91 46 -24 L45 -14 L189 -14 Q193 -37 212 -52 Q231 -67 266 -67 Q305 -67 325 -48.5 Q345 -30 345 12 L345 69 Q305 21 229 21 Q141 21 87 80.5 Q33 140 33 250 L33 274 Q33 384 87 443 Q141 502 229 502 Q310 502 350 448 L350 493 L483 493 Z M345 246 L345 278 Q345 323 324.5 352.5 Q304 382 259 382 Q213 382 192 351 Q171 320 171 274 L171 251 Q171 205 192 173.5 Q213 142 259 142 Q304 142 324.5 171.5 Q345 201 345 246 Z M321 565 L204 565 Q205 612 218.5 647.5 Q232 683 253 715 L336 715 Q321 634 321 565 Z " />
<glyph glyph-name="gdotaccent" unicode="&#x121;" horiz-adv-x="539" d="M483 493 L483 16 Q483 -83 422 -126 Q361 -169 264 -169 Q160 -169 106.5 -130 Q53 -91 46 -24 L45 -14 L189 -14 Q193 -37 212 -52 Q231 -67 266 -67 Q305 -67 325 -48.5 Q345 -30 345 12 L345 69 Q305 21 229 21 Q141 21 87 80.5 Q33 140 33 250 L33 274 Q33 384 87 443 Q141 502 229 502 Q310 502 350 448 L350 493 L483 493 Z M345 246 L345 278 Q345 323 324.5 352.5 Q304 382 259 382 Q213 382 192 351 Q171 320 171 274 L171 251 Q171 205 192 173.5 Q213 142 259 142 Q304 142 324.5 171.5 Q345 201 345 246 Z M193 628 Q193 660 215.5 680.5 Q238 701 270 701 Q303 701 325.5 680.5 Q348 660 348 628 Q348 596 325.5 575 Q303 554 270 554 Q238 554 215.5 575 Q193 596 193 628 Z " />
<glyph glyph-name="h" unicode="h" horiz-adv-x="552" d="M495 329 L495 0 L357 0 L357 295 Q357 337 337.5 359.5 Q318 382 280 382 Q242 382 219.5 358.5 Q197 335 197 294 L197 0 L59 0 L59 700 L197 700 L197 436 Q216 465 249 483.5 Q282 502 331 502 Q406 502 450.5 455.5 Q495 409 495 329 Z " />
<glyph glyph-name="hbar" unicode="&#x127;" horiz-adv-x="552" d="M495 329 L495 0 L357 0 L357 295 Q357 337 337.5 359.5 Q318 382 280 382 Q242 382 219.5 358.5 Q197 335 197 294 L197 0 L59 0 L59 539 L-4 539 L-4 630 L59 630 L59 700 L197 700 L197 630 L310 630 L310 539 L197 539 L197 436 Q215 465 248.5 483.5 Q282 502 330 502 Q405 502 450 455.5 Q495 409 495 329 Z " />
<glyph glyph-name="i" unicode="i" horiz-adv-x="256" d="M197 0 L59 0 L59 493 L197 493 L197 0 Z M51 628 Q51 660 73.5 680.5 Q96 701 128 701 Q161 701 183.5 680.5 Q206 660 206 628 Q206 596 183.5 575 Q161 554 128 554 Q96 554 73.5 575 Q51 596 51 628 Z " />
<glyph glyph-name="dotlessi" unicode="&#x131;" horiz-adv-x="256" d="M197 0 L59 0 L59 493 L197 493 L197 0 Z " />
<glyph glyph-name="iacute" unicode="&#xed;" horiz-adv-x="256" d="M197 0 L59 0 L59 493 L197 493 L197 0 Z M179 560 L64 560 Q93 630 131 684 L272 684 Q230 636 179 560 Z " />
<glyph glyph-name="icircumflex" unicode="&#xee;" horiz-adv-x="256" d="M197 0 L59 0 L59 493 L197 493 L197 0 Z M183 560 Q166 589 128 632 Q91 592 72 560 L-34 560 Q-7 619 41 680 L214 680 Q235 654 255.5 622 Q276 590 289 560 L183 560 Z " />
<glyph glyph-name="idieresis" unicode="&#xef;" horiz-adv-x="256" d="M197 0 L59 0 L59 493 L197 493 L197 0 Z M-40 627 Q-40 658 -19 678 Q2 698 33 698 Q65 698 85.5 678 Q106 658 106 627 Q106 596 85.5 576.5 Q65 557 33 557 Q2 557 -19 577 Q-40 597 -40 627 Z M151 627 Q151 658 172 678 Q193 698 224 698 Q255 698 276 678 Q297 658 297 627 Q297 597 276 577 Q255 557 224 557 Q193 557 172 577 Q151 597 151 627 Z " />
<glyph glyph-name="igrave" unicode="&#xec;" horiz-adv-x="256" d="M197 0 L59 0 L59 493 L197 493 L197 0 Z M119 684 Q157 630 186 560 L77 560 Q27 630 -22 684 L119 684 Z " />
<glyph glyph-name="imacron" unicode="&#x12b;" horiz-adv-x="256" d="M197 0 L59 0 L59 493 L197 493 L197 0 Z M265 663 L265 568 L-9 568 L-9 663 L265 663 Z " />
<glyph glyph-name="iogonek" unicode="&#x12f;" horiz-adv-x="256" d="M51 628 Q51 660 73 680.5 Q95 701 128 701 Q160 701 182.5 680.5 Q205 660 205 628 Q205 596 182.5 575 Q160 554 128 554 Q95 554 73 574.5 Q51 595 51 628 Z M59 493 L197 493 L197 0 Q143 -28 143 -64 Q143 -78 153.5 -87 Q164 -96 187 -96 L194 -96 L194 -181 Q181 -184 158 -184 Q104 -184 73.5 -161 Q43 -138 43 -95 Q43 -39 100 0 L59 0 L59 493 Z " />
<glyph glyph-name="j" unicode="j" horiz-adv-x="256" d="M51 628 Q51 660 73.5 680.5 Q96 701 128 701 Q160 701 182.5 680.5 Q205 660 205 628 Q205 596 182.5 575 Q160 554 128 554 Q96 554 73.5 575 Q51 596 51 628 Z M3 -44 Q31 -42 45 -22.5 Q59 -3 59 39 L59 493 L197 493 L197 24 Q197 -79 148 -121.5 Q99 -164 3 -164 L3 -44 Z " />
<glyph glyph-name="k" unicode="k" horiz-adv-x="510" d="M256 199 Q212 159 190 141 L190 0 L59 0 L59 700 L190 700 L190 289 Q289 399 344 493 L488 493 Q433 391 347 294 Q395 223 439.5 141.5 Q484 60 509 0 L364 0 Q325 88 256 199 Z " />
<glyph glyph-name="kcommaaccent" unicode="&#x137;" horiz-adv-x="510" d="M256 199 Q212 159 190 141 L190 0 L59 0 L59 700 L190 700 L190 289 Q289 399 344 493 L488 493 Q433 391 347 294 Q395 223 439.5 141.5 Q484 60 509 0 L364 0 Q325 88 256 199 Z M217 -50 L334 -50 Q333 -97 319.5 -132.5 Q306 -168 285 -200 L202 -200 Q217 -128 217 -50 Z " />
<glyph glyph-name="l" unicode="l" horiz-adv-x="271" d="M194 177 Q194 137 205.5 122 Q217 107 247 109 L247 1 Q224 -8 192 -8 Q119 -8 87.5 25 Q56 58 56 127 L56 700 L194 700 L194 177 Z " />
<glyph glyph-name="lacute" unicode="&#x13a;" horiz-adv-x="271" d="M194 177 Q194 137 205.5 122 Q217 107 247 109 L247 1 Q224 -8 192 -8 Q119 -8 87.5 25 Q56 58 56 127 L56 700 L194 700 L194 177 Z M187 758 L72 758 Q101 828 139 882 L280 882 Q238 834 187 758 Z " />
<glyph glyph-name="lcaron" unicode="&#x13e;" horiz-adv-x="338" d="M194 177 Q194 137 205.5 122 Q217 107 247 109 L247 1 Q224 -8 192 -8 Q119 -8 87.5 25 Q56 58 56 127 L56 700 L194 700 L194 177 Z M297 520 L234 520 Q241 556 247 607 Q253 658 253 700 L353 700 Q350 598 297 520 Z " />
<glyph glyph-name="lcommaaccent" unicode="&#x13c;" horiz-adv-x="271" d="M194 177 Q194 137 205.5 122 Q217 107 247 109 L247 1 Q224 -8 192 -8 Q119 -8 87.5 25 Q56 58 56 127 L56 700 L194 700 L194 177 Z M104 -50 L221 -50 Q220 -97 206.5 -132.5 Q193 -168 172 -200 L89 -200 Q104 -128 104 -50 Z " />
<glyph glyph-name="lslash" unicode="&#x142;" horiz-adv-x="314" d="M214 349 L214 181 Q214 141 225.5 126.5 Q237 112 267 114 L267 5 Q246 -3 215 -3 Q142 -3 109 30 Q76 63 76 132 L76 273 L20 243 L20 349 L76 380 L76 700 L214 700 L214 456 L281 493 L281 386 L214 349 Z " />
<glyph glyph-name="m" unicode="m" horiz-adv-x="825" d="M768 330 L768 0 L630 0 L630 295 Q630 336 613 359 Q596 382 560 382 Q524 382 503.5 358 Q483 334 483 294 L483 0 L345 0 L345 295 Q345 336 327.5 359 Q310 382 274 382 Q238 382 217.5 358 Q197 334 197 294 L197 0 L59 0 L59 493 L190 493 L190 425 Q206 458 239 480 Q272 502 324 502 Q370 502 404.5 482.5 Q439 463 460 428 Q481 461 516 481.5 Q551 502 602 502 Q679 502 723.5 455 Q768 408 768 330 Z " />
<glyph glyph-name="n" unicode="n" horiz-adv-x="552" d="M495 329 L495 0 L357 0 L357 295 Q357 337 337.5 359.5 Q318 382 280 382 Q242 382 219.5 358.5 Q197 335 197 294 L197 0 L59 0 L59 493 L190 493 L190 424 Q206 457 241.5 479.5 Q277 502 331 502 Q406 502 450.5 455.5 Q495 409 495 329 Z " />
<glyph glyph-name="nacute" unicode="&#x144;" horiz-adv-x="552" d="M495 329 L495 0 L357 0 L357 295 Q357 337 337.5 359.5 Q318 382 280 382 Q242 382 219.5 358.5 Q197 335 197 294 L197 0 L59 0 L59 493 L190 493 L190 424 Q206 457 241.5 479.5 Q277 502 331 502 Q406 502 450.5 455.5 Q495 409 495 329 Z M337 560 L222 560 Q251 630 289 684 L430 684 Q388 636 337 560 Z " />
<glyph glyph-name="ncaron" unicode="&#x148;" horiz-adv-x="552" d="M495 329 L495 0 L357 0 L357 295 Q357 337 337.5 359.5 Q318 382 280 382 Q242 382 219.5 358.5 Q197 335 197 294 L197 0 L59 0 L59 493 L190 493 L190 424 Q206 457 241.5 479.5 Q277 502 331 502 Q406 502 450.5 455.5 Q495 409 495 329 Z M447 680 Q434 650 413.5 618 Q393 586 372 560 L199 560 Q151 621 124 680 L230 680 Q249 648 286 608 Q324 651 341 680 L447 680 Z " />
<glyph glyph-name="ncommaaccent" unicode="&#x146;" horiz-adv-x="552" d="M495 329 L495 0 L357 0 L357 295 Q357 337 337.5 359.5 Q318 382 280 382 Q242 382 219.5 358.5 Q197 335 197 294 L197 0 L59 0 L59 493 L190 493 L190 424 Q206 457 241.5 479.5 Q277 502 331 502 Q406 502 450.5 455.5 Q495 409 495 329 Z M214 -50 L331 -50 Q330 -97 316.5 -132.5 Q303 -168 282 -200 L199 -200 Q214 -128 214 -50 Z " />
<glyph glyph-name="eng" unicode="&#x14b;" horiz-adv-x="552" d="M495 329 L495 0 L357 0 L357 295 Q357 337 337.5 359.5 Q318 382 280 382 Q242 382 219.5 358.5 Q197 335 197 294 L197 0 L59 0 L59 493 L190 493 L190 424 Q206 457 241.5 479.5 Q277 502 331 502 Q406 502 450.5 455.5 Q495 409 495 329 Z " />
<glyph glyph-name="ntilde" unicode="&#xf1;" horiz-adv-x="552" d="M495 329 L495 0 L357 0 L357 295 Q357 337 337.5 359.5 Q318 382 280 382 Q242 382 219.5 358.5 Q197 335 197 294 L197 0 L59 0 L59 493 L190 493 L190 424 Q206 457 241.5 479.5 Q277 502 331 502 Q406 502 450.5 455.5 Q495 409 495 329 Z M353 557 Q331 557 313 563 Q295 569 274 580 Q270 582 259.5 586.5 Q249 591 240.5 593.5 Q232 596 224 596 Q193 596 190 557 L124 557 Q126 614 151.5 647 Q177 680 222 680 Q241 680 257.5 674 Q274 668 295 657 Q326 639 345 639 Q362 639 370.5 650 Q379 661 380 679 L446 679 Q444 621 420.5 589 Q397 557 353 557 Z " />
<glyph glyph-name="o" unicode="o" horiz-adv-x="525" d="M32 233 L32 260 Q32 377 95 440 Q158 503 262 503 Q366 503 429.5 440 Q493 377 493 260 L493 233 Q493 116 429.5 53 Q366 -10 262 -10 Q158 -10 95 53 Q32 116 32 233 Z M355 233 L355 260 Q355 313 333.5 347.5 Q312 382 262 382 Q212 382 191 347.5 Q170 313 170 260 L170 233 Q170 181 191 146 Q212 111 262 111 Q312 111 333.5 146 Q355 181 355 233 Z " />
<glyph glyph-name="oacute" unicode="&#xf3;" horiz-adv-x="525" d="M32 233 L32 260 Q32 377 95 440 Q158 503 262 503 Q366 503 429.5 440 Q493 377 493 260 L493 233 Q493 116 429.5 53 Q366 -10 262 -10 Q158 -10 95 53 Q32 116 32 233 Z M355 233 L355 260 Q355 313 333.5 347.5 Q312 382 262 382 Q212 382 191 347.5 Q170 313 170 260 L170 233 Q170 181 191 146 Q212 111 262 111 Q312 111 333.5 146 Q355 181 355 233 Z M313 560 L198 560 Q227 630 265 684 L406 684 Q364 636 313 560 Z " />
<glyph glyph-name="ocircumflex" unicode="&#xf4;" horiz-adv-x="525" d="M32 233 L32 260 Q32 377 95 440 Q158 503 262 503 Q366 503 429.5 440 Q493 377 493 260 L493 233 Q493 116 429.5 53 Q366 -10 262 -10 Q158 -10 95 53 Q32 116 32 233 Z M355 233 L355 260 Q355 313 333.5 347.5 Q312 382 262 382 Q212 382 191 347.5 Q170 313 170 260 L170 233 Q170 181 191 146 Q212 111 262 111 Q312 111 333.5 146 Q355 181 355 233 Z M317 560 Q300 589 262 632 Q225 592 206 560 L100 560 Q127 619 175 680 L348 680 Q369 654 389.5 622 Q410 590 423 560 L317 560 Z " />
<glyph glyph-name="odieresis" unicode="&#xf6;" horiz-adv-x="525" d="M32 233 L32 260 Q32 377 95 440 Q158 503 262 503 Q366 503 429.5 440 Q493 377 493 260 L493 233 Q493 116 429.5 53 Q366 -10 262 -10 Q158 -10 95 53 Q32 116 32 233 Z M355 233 L355 260 Q355 313 333.5 347.5 Q312 382 262 382 Q212 382 191 347.5 Q170 313 170 260 L170 233 Q170 181 191 146 Q212 111 262 111 Q312 111 333.5 146 Q355 181 355 233 Z M94 627 Q94 658 115 678 Q136 698 167 698 Q199 698 219.5 678 Q240 658 240 627 Q240 596 219.5 576.5 Q199 557 167 557 Q136 557 115 577 Q94 597 94 627 Z M285 627 Q285 658 306 678 Q327 698 358 698 Q389 698 410 678 Q431 658 431 627 Q431 597 410 577 Q389 557 358 557 Q327 557 306 577 Q285 597 285 627 Z " />
<glyph glyph-name="ograve" unicode="&#xf2;" horiz-adv-x="525" d="M32 233 L32 260 Q32 377 95 440 Q158 503 262 503 Q366 503 429.5 440 Q493 377 493 260 L493 233 Q493 116 429.5 53 Q366 -10 262 -10 Q158 -10 95 53 Q32 116 32 233 Z M355 233 L355 260 Q355 313 333.5 347.5 Q312 382 262 382 Q212 382 191 347.5 Q170 313 170 260 L170 233 Q170 181 191 146 Q212 111 262 111 Q312 111 333.5 146 Q355 181 355 233 Z M253 684 Q291 630 320 560 L211 560 Q161 630 112 684 L253 684 Z " />
<glyph glyph-name="ohungarumlaut" unicode="&#x151;" horiz-adv-x="525" d="M32 233 L32 260 Q32 377 95 440 Q158 503 262 503 Q366 503 429.5 440 Q493 377 493 260 L493 233 Q493 116 429.5 53 Q366 -10 262 -10 Q158 -10 95 53 Q32 116 32 233 Z M355 233 L355 260 Q355 313 333.5 347.5 Q312 382 262 382 Q212 382 191 347.5 Q170 313 170 260 L170 233 Q170 181 191 146 Q212 111 262 111 Q312 111 333.5 146 Q355 181 355 233 Z M231 560 L132 560 Q150 608 188 680 L309 680 Q272 636 231 560 Z M392 560 L293 560 Q325 628 360 680 L481 680 Q457 650 392 560 Z " />
<glyph glyph-name="omacron" unicode="&#x14d;" horiz-adv-x="525" d="M32 233 L32 260 Q32 377 95 440 Q158 503 262 503 Q366 503 429.5 440 Q493 377 493 260 L493 233 Q493 116 429.5 53 Q366 -10 262 -10 Q158 -10 95 53 Q32 116 32 233 Z M355 233 L355 260 Q355 313 333.5 347.5 Q312 382 262 382 Q212 382 191 347.5 Q170 313 170 260 L170 233 Q170 181 191 146 Q212 111 262 111 Q312 111 333.5 146 Q355 181 355 233 Z M399 663 L399 568 L125 568 L125 663 L399 663 Z " />
<glyph glyph-name="oslash" unicode="&#xf8;" horiz-adv-x="532" d="M500 260 L500 233 Q500 116 435.5 53 Q371 -10 266 -10 Q220 -10 178 4 L155 -40 L87 -10 L112 39 Q74 70 53 119 Q32 168 32 233 L32 260 Q32 377 96.5 440 Q161 503 266 503 Q310 503 349 491 L368 529 L436 499 L415 458 Q456 427 478 377 Q500 327 500 260 Z M178 165 L293 385 Q281 388 266 388 Q213 388 190 352.5 Q167 317 167 262 L167 231 Q167 193 178 165 Z M365 262 Q365 305 351 336 L233 110 Q250 105 266 105 Q319 105 342 141 Q365 177 365 231 L365 262 Z " />
<glyph glyph-name="otilde" unicode="&#xf5;" horiz-adv-x="525" d="M32 233 L32 260 Q32 377 95 440 Q158 503 262 503 Q366 503 429.5 440 Q493 377 493 260 L493 233 Q493 116 429.5 53 Q366 -10 262 -10 Q158 -10 95 53 Q32 116 32 233 Z M355 233 L355 260 Q355 313 333.5 347.5 Q312 382 262 382 Q212 382 191 347.5 Q170 313 170 260 L170 233 Q170 181 191 146 Q212 111 262 111 Q312 111 333.5 146 Q355 181 355 233 Z M330 557 Q308 557 290 563 Q272 569 251 580 Q247 582 236.5 586.5 Q226 591 217.5 593.5 Q209 596 201 596 Q170 596 167 557 L101 557 Q103 614 128.5 647 Q154 680 199 680 Q218 680 234.5 674 Q251 668 272 657 Q303 639 322 639 Q339 639 347.5 650 Q356 661 357 679 L423 679 Q421 621 397.5 589 Q374 557 330 557 Z " />
<glyph glyph-name="oe" unicode="&#x153;" horiz-adv-x="844" d="M491 212 Q495 165 518.5 136 Q542 107 588 107 Q654 107 672 161 L811 161 Q794 80 739 35.5 Q684 -9 587 -9 Q483 -9 423 56 Q394 24 352.5 7 Q311 -10 262 -10 Q158 -10 95 53 Q32 116 32 233 L32 260 Q32 377 95 440 Q158 503 262 503 Q312 503 353.5 486.5 Q395 470 424 437 Q454 469 496 485.5 Q538 502 589 502 Q693 502 753 440 Q813 378 813 273 L813 212 L491 212 Z M493 302 L682 302 Q677 341 654.5 364.5 Q632 388 588 388 Q546 388 522.5 364.5 Q499 341 493 302 Z M355 260 Q355 313 333.5 347.5 Q312 382 262 382 Q212 382 191 347.5 Q170 313 170 260 L170 233 Q170 181 191 146 Q212 111 262 111 Q312 111 333.5 146 Q355 181 355 233 L355 260 Z " />
<glyph glyph-name="p" unicode="p" horiz-adv-x="552" d="M521 259 L521 234 Q521 117 468.5 54 Q416 -9 329 -9 Q241 -9 197 51 L197 -160 L59 -160 L59 493 L190 493 L190 432 Q235 502 329 502 Q416 502 468.5 439 Q521 376 521 259 Z M383 259 Q383 312 361.5 347 Q340 382 290 382 Q242 382 219.5 348 Q197 314 197 265 L197 228 Q197 179 219.5 145.5 Q242 112 290 112 Q340 112 361.5 146.5 Q383 181 383 234 L383 259 Z " />
<glyph glyph-name="thorn" unicode="&#xfe;" horiz-adv-x="552" d="M521 259 L521 234 Q521 117 468.5 54 Q416 -9 329 -9 Q241 -9 197 51 L197 -160 L59 -160 L59 707 L197 707 L197 442 Q241 502 329 502 Q416 502 468.5 439 Q521 376 521 259 Z M383 259 Q383 312 361.5 347 Q340 382 290 382 Q242 382 219.5 348 Q197 314 197 265 L197 228 Q197 179 219.5 145.5 Q242 112 290 112 Q340 112 361.5 146.5 Q383 181 383 234 L383 259 Z " />
<glyph glyph-name="q" unicode="q" horiz-adv-x="552" d="M493 493 L493 -160 L355 -160 L355 51 Q311 -9 223 -9 Q136 -9 84 54 Q32 117 32 234 L32 259 Q32 376 84 439 Q136 502 223 502 Q317 502 362 432 L362 493 L493 493 Z M355 228 L355 265 Q355 314 332.5 348 Q310 382 262 382 Q213 382 191.5 347 Q170 312 170 259 L170 234 Q170 182 191.5 147 Q213 112 262 112 Q310 112 332.5 145.5 Q355 179 355 228 Z " />
<glyph glyph-name="r" unicode="r" horiz-adv-x="384" d="M369 493 L369 351 Q352 355 327 355 Q267 355 232 318.5 Q197 282 197 202 L197 0 L59 0 L59 493 L190 493 L190 380 Q200 427 233.5 462 Q267 497 329 497 Q357 497 369 493 Z " />
<glyph glyph-name="racute" unicode="&#x155;" horiz-adv-x="384" d="M369 493 L369 351 Q352 355 327 355 Q267 355 232 318.5 Q197 282 197 202 L197 0 L59 0 L59 493 L190 493 L190 380 Q200 427 233.5 462 Q267 497 329 497 Q357 497 369 493 Z M274 560 L159 560 Q188 630 226 684 L367 684 Q325 636 274 560 Z " />
<glyph glyph-name="rcaron" unicode="&#x159;" horiz-adv-x="384" d="M369 493 L369 351 Q352 355 327 355 Q267 355 232 318.5 Q197 282 197 202 L197 0 L59 0 L59 493 L190 493 L190 380 Q200 427 233.5 462 Q267 497 329 497 Q357 497 369 493 Z M384 680 Q371 650 350.5 618 Q330 586 309 560 L136 560 Q88 621 61 680 L167 680 Q186 648 223 608 Q261 651 278 680 L384 680 Z " />
<glyph glyph-name="rcommaaccent" unicode="&#x157;" horiz-adv-x="384" d="M369 493 L369 351 Q352 355 327 355 Q267 355 232 318.5 Q197 282 197 202 L197 0 L59 0 L59 493 L190 493 L190 380 Q200 427 233.5 462 Q267 497 329 497 Q357 497 369 493 Z M70 -50 L187 -50 Q186 -97 172.5 -132.5 Q159 -168 138 -200 L55 -200 Q70 -128 70 -50 Z " />
<glyph glyph-name="s" unicode="s" horiz-adv-x="475" d="M439 362 L440 350 L299 350 Q297 373 278 387.5 Q259 402 230 402 Q203 402 189 390.5 Q175 379 175 361 Q175 342 190.5 332.5 Q206 323 244 312 L295 299 Q379 276 414.5 241 Q450 206 450 146 Q450 75 397 32.5 Q344 -10 248 -10 Q148 -10 90.5 31 Q33 72 28 148 L27 163 L164 163 Q166 130 188 110.5 Q210 91 248 91 Q280 91 296.5 103 Q313 115 313 137 Q313 158 299.5 168.5 Q286 179 248 190 L195 205 Q140 220 107 236.5 Q74 253 55.5 280 Q37 307 37 351 Q37 392 58 426.5 Q79 461 123 482 Q167 503 232 503 Q328 503 381 465.5 Q434 428 439 362 Z " />
<glyph glyph-name="sacute" unicode="&#x15b;" horiz-adv-x="475" d="M439 362 L440 350 L299 350 Q297 373 278 387.5 Q259 402 230 402 Q203 402 189 390.5 Q175 379 175 361 Q175 342 190.5 332.5 Q206 323 244 312 L295 299 Q379 276 414.5 241 Q450 206 450 146 Q450 75 397 32.5 Q344 -10 248 -10 Q148 -10 90.5 31 Q33 72 28 148 L27 163 L164 163 Q166 130 188 110.5 Q210 91 248 91 Q280 91 296.5 103 Q313 115 313 137 Q313 158 299.5 168.5 Q286 179 248 190 L195 205 Q140 220 107 236.5 Q74 253 55.5 280 Q37 307 37 351 Q37 392 58 426.5 Q79 461 123 482 Q167 503 232 503 Q328 503 381 465.5 Q434 428 439 362 Z M294 560 L179 560 Q208 630 246 684 L387 684 Q345 636 294 560 Z " />
<glyph glyph-name="scaron" unicode="&#x161;" horiz-adv-x="475" d="M439 362 L440 350 L299 350 Q297 373 278 387.5 Q259 402 230 402 Q203 402 189 390.5 Q175 379 175 361 Q175 342 190.5 332.5 Q206 323 244 312 L295 299 Q379 276 414.5 241 Q450 206 450 146 Q450 75 397 32.5 Q344 -10 248 -10 Q148 -10 90.5 31 Q33 72 28 148 L27 163 L164 163 Q166 130 188 110.5 Q210 91 248 91 Q280 91 296.5 103 Q313 115 313 137 Q313 158 299.5 168.5 Q286 179 248 190 L195 205 Q140 220 107 236.5 Q74 253 55.5 280 Q37 307 37 351 Q37 392 58 426.5 Q79 461 123 482 Q167 503 232 503 Q328 503 381 465.5 Q434 428 439 362 Z M404 680 Q391 650 370.5 618 Q350 586 329 560 L156 560 Q108 621 81 680 L187 680 Q206 648 243 608 Q281 651 298 680 L404 680 Z " />
<glyph glyph-name="scedilla" unicode="&#x15f;" horiz-adv-x="475" d="M267 -9 L252 -38 Q291 -42 315 -63 Q339 -84 339 -120 Q339 -163 309 -186 Q279 -209 231 -209 Q201 -209 173.5 -200 Q146 -191 128 -175 L161 -123 Q191 -145 226 -145 Q245 -145 255.5 -138 Q266 -131 266 -118 Q266 -104 253.5 -97.5 Q241 -91 222 -91 Q208 -91 188 -96 L169 -72 L201 -6 Q123 3 77.5 42.5 Q32 82 28 148 L27 163 L164 163 Q166 130 188 110.5 Q210 91 248 91 Q280 91 296.5 103 Q313 115 313 137 Q313 158 299.5 168.5 Q286 179 248 190 L195 205 Q140 220 107 236.5 Q74 253 55.5 280 Q37 307 37 351 Q37 392 58 426 Q79 460 123 481 Q167 502 232 502 Q328 502 381 464.5 Q434 427 439 362 L440 350 L299 350 Q297 373 278 387.5 Q259 402 230 402 Q203 402 189 390.5 Q175 379 175 361 Q175 342 190.5 332.5 Q206 323 244 312 L295 299 Q379 276 414.5 241 Q450 206 450 146 Q450 79 402 37 Q354 -5 267 -9 Z " />
<glyph glyph-name="scommaaccent" unicode="&#x219;" horiz-adv-x="475" d="M439 362 L440 350 L299 350 Q297 373 278 387.5 Q259 402 230 402 Q203 402 189 390.5 Q175 379 175 361 Q175 342 190.5 332.5 Q206 323 244 312 L295 299 Q379 276 414.5 241 Q450 206 450 146 Q450 75 397 32.5 Q344 -10 248 -10 Q148 -10 90.5 31 Q33 72 28 148 L27 163 L164 163 Q166 130 188 110.5 Q210 91 248 91 Q280 91 296.5 103 Q313 115 313 137 Q313 158 299.5 168.5 Q286 179 248 190 L195 205 Q140 220 107 236.5 Q74 253 55.5 280 Q37 307 37 351 Q37 392 58 426.5 Q79 461 123 482 Q167 503 232 503 Q328 503 381 465.5 Q434 428 439 362 Z M178 -50 L295 -50 Q294 -97 280.5 -132.5 Q267 -168 246 -200 L163 -200 Q178 -128 178 -50 Z " />
<glyph glyph-name="germandbls" unicode="&#xdf;" horiz-adv-x="558" d="M528 206 Q528 102 466 48.5 Q404 -5 307 -5 Q271 -5 236 0 L236 123 Q258 116 289 116 Q334 116 362 139.5 Q390 163 390 213 Q390 310 254 310 L254 425 Q306 425 333 445 Q360 465 360 510 Q360 545 338.5 566.5 Q317 588 279 588 Q239 588 218 563.5 Q197 539 197 499 L197 0 L59 0 L59 494 Q59 593 116.5 650 Q174 707 279 707 Q380 707 439 656 Q498 605 498 520 Q498 467 475 432 Q452 397 417 380 Q468 363 498 319 Q528 275 528 206 Z " />
<glyph glyph-name="t" unicode="t" horiz-adv-x="347" d="M89 153 L89 380 L22 380 L22 493 L90 493 L90 620 L228 620 L228 493 L315 493 L315 380 L228 380 L228 173 Q228 143 242 129 Q256 115 289 115 Q305 115 315 117 L315 3 Q284 -6 248 -6 Q163 -6 126 33 Q89 72 89 153 Z " />
<glyph glyph-name="tbar" unicode="&#x167;" horiz-adv-x="347" d="M228 380 L228 301 L315 301 L315 216 L228 216 L228 174 Q228 144 242 130 Q256 116 289 116 Q305 116 315 118 L315 4 Q284 -5 248 -5 Q163 -5 126 34 Q89 73 89 154 L89 216 L22 216 L22 301 L89 301 L89 380 L22 380 L22 493 L90 493 L90 620 L228 620 L228 493 L315 493 L315 380 L228 380 Z " />
<glyph glyph-name="tcaron" unicode="&#x165;" horiz-adv-x="347" d="M89 153 L89 380 L22 380 L22 493 L90 493 L90 620 L228 620 L228 493 L315 493 L315 380 L228 380 L228 173 Q228 143 242 129 Q256 115 289 115 Q305 115 315 117 L315 3 Q284 -6 248 -6 Q163 -6 126 33 Q89 72 89 153 Z M336 546 L273 546 Q280 582 286 633 Q292 684 292 726 L392 726 Q389 624 336 546 Z " />
<glyph glyph-name="uni0163" unicode="&#x163;" horiz-adv-x="347" d="M228 380 L228 174 Q228 144 242 130 Q256 116 289 116 Q305 116 315 118 L315 4 Q284 -5 248 -5 L237 -5 L220 -38 Q260 -42 284 -63 Q308 -84 308 -120 Q308 -163 278 -186 Q248 -209 199 -209 Q169 -209 141.5 -200 Q114 -191 97 -175 L129 -123 Q159 -145 195 -145 Q213 -145 224 -138 Q235 -131 235 -118 Q235 -104 222.5 -97.5 Q210 -91 191 -91 Q176 -91 156 -96 L137 -72 L175 5 Q130 20 109.5 56.5 Q89 93 89 154 L89 380 L22 380 L22 493 L90 493 L90 620 L228 620 L228 493 L315 493 L315 380 L228 380 Z " />
<glyph glyph-name="uni021B" unicode="&#x21b;" horiz-adv-x="347" d="M89 153 L89 380 L22 380 L22 493 L90 493 L90 620 L228 620 L228 493 L315 493 L315 380 L228 380 L228 173 Q228 143 242 129 Q256 115 289 115 Q305 115 315 117 L315 3 Q284 -6 248 -6 Q163 -6 126 33 Q89 72 89 153 Z M146 -50 L263 -50 Q262 -97 248.5 -132.5 Q235 -168 214 -200 L131 -200 Q146 -128 146 -50 Z " />
<glyph glyph-name="u" unicode="u" horiz-adv-x="543" d="M483 493 L483 0 L352 0 L352 53 Q313 -9 226 -9 Q148 -9 102.5 36.5 Q57 82 57 162 L57 493 L195 493 L195 196 Q195 156 212.5 134 Q230 112 267 112 Q304 112 324.5 134.5 Q345 157 345 197 L345 493 L483 493 Z " />
<glyph glyph-name="uacute" unicode="&#xfa;" horiz-adv-x="543" d="M483 493 L483 0 L352 0 L352 53 Q313 -9 226 -9 Q148 -9 102.5 36.5 Q57 82 57 162 L57 493 L195 493 L195 196 Q195 156 212.5 134 Q230 112 267 112 Q304 112 324.5 134.5 Q345 157 345 197 L345 493 L483 493 Z M322 560 L207 560 Q236 630 274 684 L415 684 Q373 636 322 560 Z " />
<glyph glyph-name="ucircumflex" unicode="&#xfb;" horiz-adv-x="543" d="M483 493 L483 0 L352 0 L352 53 Q313 -9 226 -9 Q148 -9 102.5 36.5 Q57 82 57 162 L57 493 L195 493 L195 196 Q195 156 212.5 134 Q230 112 267 112 Q304 112 324.5 134.5 Q345 157 345 197 L345 493 L483 493 Z M326 560 Q309 589 271 632 Q234 592 215 560 L109 560 Q136 619 184 680 L357 680 Q378 654 398.5 622 Q419 590 432 560 L326 560 Z " />
<glyph glyph-name="udieresis" unicode="&#xfc;" horiz-adv-x="543" d="M483 493 L483 0 L352 0 L352 53 Q313 -9 226 -9 Q148 -9 102.5 36.5 Q57 82 57 162 L57 493 L195 493 L195 196 Q195 156 212.5 134 Q230 112 267 112 Q304 112 324.5 134.5 Q345 157 345 197 L345 493 L483 493 Z M103 627 Q103 658 124 678 Q145 698 176 698 Q208 698 228.5 678 Q249 658 249 627 Q249 596 228.5 576.5 Q208 557 176 557 Q145 557 124 577 Q103 597 103 627 Z M294 627 Q294 658 315 678 Q336 698 367 698 Q398 698 419 678 Q440 658 440 627 Q440 597 419 577 Q398 557 367 557 Q336 557 315 577 Q294 597 294 627 Z " />
<glyph glyph-name="ugrave" unicode="&#xf9;" horiz-adv-x="543" d="M483 493 L483 0 L352 0 L352 53 Q313 -9 226 -9 Q148 -9 102.5 36.5 Q57 82 57 162 L57 493 L195 493 L195 196 Q195 156 212.5 134 Q230 112 267 112 Q304 112 324.5 134.5 Q345 157 345 197 L345 493 L483 493 Z M262 684 Q300 630 329 560 L220 560 Q170 630 121 684 L262 684 Z " />
<glyph glyph-name="uhungarumlaut" unicode="&#x171;" horiz-adv-x="543" d="M483 493 L483 0 L352 0 L352 53 Q313 -9 226 -9 Q148 -9 102.5 36.5 Q57 82 57 162 L57 493 L195 493 L195 196 Q195 156 212.5 134 Q230 112 267 112 Q304 112 324.5 134.5 Q345 157 345 197 L345 493 L483 493 Z M240 560 L141 560 Q159 608 197 680 L318 680 Q281 636 240 560 Z M401 560 L302 560 Q334 628 369 680 L490 680 Q466 650 401 560 Z " />
<glyph glyph-name="umacron" unicode="&#x16b;" horiz-adv-x="543" d="M483 493 L483 0 L352 0 L352 53 Q313 -9 226 -9 Q148 -9 102.5 36.5 Q57 82 57 162 L57 493 L195 493 L195 196 Q195 156 212.5 134 Q230 112 267 112 Q304 112 324.5 134.5 Q345 157 345 197 L345 493 L483 493 Z M408 663 L408 568 L134 568 L134 663 L408 663 Z " />
<glyph glyph-name="uogonek" unicode="&#x173;" horiz-adv-x="543" d="M430 -64 Q430 -78 440.5 -87 Q451 -96 473 -96 L480 -96 L480 -181 Q466 -184 444 -184 Q390 -184 360 -160.5 Q330 -137 330 -95 Q330 -39 386 0 L352 0 L352 53 Q313 -9 226 -9 Q148 -9 102.5 36.5 Q57 82 57 162 L57 493 L195 493 L195 196 Q195 156 212.5 134 Q230 112 267 112 Q304 112 324.5 134.5 Q345 157 345 197 L345 493 L483 493 L483 0 Q430 -28 430 -64 Z " />
<glyph glyph-name="uring" unicode="&#x16f;" horiz-adv-x="543" d="M483 493 L483 0 L352 0 L352 53 Q313 -9 226 -9 Q148 -9 102.5 36.5 Q57 82 57 162 L57 493 L195 493 L195 196 Q195 156 212.5 134 Q230 112 267 112 Q304 112 324.5 134.5 Q345 157 345 197 L345 493 L483 493 Z M154 643 Q154 690 186.5 720 Q219 750 271 750 Q323 750 355 720 Q387 690 387 643 Q387 596 354.5 566 Q322 536 271 536 Q219 536 186.5 566 Q154 596 154 643 Z M323 643 Q323 665 309.5 679.5 Q296 694 271 694 Q246 694 232.5 679.5 Q219 665 219 643 Q219 621 232.5 606.5 Q246 592 271 592 Q296 592 309.5 606.5 Q323 621 323 643 Z " />
<glyph glyph-name="v" unicode="v" horiz-adv-x="510" d="M495 493 Q466 379 423.5 252 Q381 125 336 19 Q331 8 326.5 4 Q322 0 310 0 L201 0 Q189 0 184 4 Q179 8 175 19 Q129 127 86.5 254.5 Q44 382 16 493 L157 493 Q196 335 257 163 Q320 347 357 493 L495 493 Z " />
<glyph glyph-name="w" unicode="w" horiz-adv-x="763" d="M741 493 Q716 380 679 251.5 Q642 123 602 19 Q598 9 592.5 4.5 Q587 0 576 0 L481 0 Q469 0 463.5 4 Q458 8 455 19 L382 286 L309 19 Q306 8 300.5 4 Q295 0 283 0 L187 0 Q175 0 170 4 Q165 8 161 19 Q121 125 83 253.5 Q45 382 22 493 L162 493 Q192 352 239 185 L321 493 L446 493 L528 186 Q569 330 605 493 L741 493 Z " />
<glyph glyph-name="wacute" unicode="&#x1e83;" horiz-adv-x="763" d="M741 493 Q716 380 679 251.5 Q642 123 602 19 Q598 9 592.5 4.5 Q587 0 576 0 L481 0 Q469 0 463.5 4 Q458 8 455 19 L382 286 L309 19 Q306 8 300.5 4 Q295 0 283 0 L187 0 Q175 0 170 4 Q165 8 161 19 Q121 125 83 253.5 Q45 382 22 493 L162 493 Q192 352 239 185 L321 493 L446 493 L528 186 Q569 330 605 493 L741 493 Z M433 560 L318 560 Q347 630 385 684 L526 684 Q484 636 433 560 Z " />
<glyph glyph-name="wcircumflex" unicode="&#x175;" horiz-adv-x="763" d="M741 493 Q716 380 679 251.5 Q642 123 602 19 Q598 9 592.5 4.5 Q587 0 576 0 L481 0 Q469 0 463.5 4 Q458 8 455 19 L382 286 L309 19 Q306 8 300.5 4 Q295 0 283 0 L187 0 Q175 0 170 4 Q165 8 161 19 Q121 125 83 253.5 Q45 382 22 493 L162 493 Q192 352 239 185 L321 493 L446 493 L528 186 Q569 330 605 493 L741 493 Z M437 560 Q420 589 382 632 Q345 592 326 560 L220 560 Q247 619 295 680 L468 680 Q489 654 509.5 622 Q530 590 543 560 L437 560 Z " />
<glyph glyph-name="wdieresis" unicode="&#x1e85;" horiz-adv-x="763" d="M741 493 Q716 380 679 251.5 Q642 123 602 19 Q598 9 592.5 4.5 Q587 0 576 0 L481 0 Q469 0 463.5 4 Q458 8 455 19 L382 286 L309 19 Q306 8 300.5 4 Q295 0 283 0 L187 0 Q175 0 170 4 Q165 8 161 19 Q121 125 83 253.5 Q45 382 22 493 L162 493 Q192 352 239 185 L321 493 L446 493 L528 186 Q569 330 605 493 L741 493 Z M214 627 Q214 658 235 678 Q256 698 287 698 Q319 698 339.5 678 Q360 658 360 627 Q360 596 339.5 576.5 Q319 557 287 557 Q256 557 235 577 Q214 597 214 627 Z M405 627 Q405 658 426 678 Q447 698 478 698 Q509 698 530 678 Q551 658 551 627 Q551 597 530 577 Q509 557 478 557 Q447 557 426 577 Q405 597 405 627 Z " />
<glyph glyph-name="wgrave" unicode="&#x1e81;" horiz-adv-x="763" d="M741 493 Q716 380 679 251.5 Q642 123 602 19 Q598 9 592.5 4.5 Q587 0 576 0 L481 0 Q469 0 463.5 4 Q458 8 455 19 L382 286 L309 19 Q306 8 300.5 4 Q295 0 283 0 L187 0 Q175 0 170 4 Q165 8 161 19 Q121 125 83 253.5 Q45 382 22 493 L162 493 Q192 352 239 185 L321 493 L446 493 L528 186 Q569 330 605 493 L741 493 Z M373 684 Q411 630 440 560 L331 560 Q281 630 232 684 L373 684 Z " />
<glyph glyph-name="x" unicode="x" horiz-adv-x="502" d="M342 0 Q304 79 250 169 Q205 94 158 0 L12 0 Q77 132 158 254 Q71 382 17 493 L166 493 Q212 403 251 340 Q291 406 335 493 L483 493 Q435 393 342 257 Q429 124 491 0 L342 0 Z " />
<glyph glyph-name="y" unicode="y" horiz-adv-x="510" d="M495 493 Q474 393 427 260.5 Q380 128 329 10.5 Q278 -107 247 -160 L106 -160 Q139 -103 186 6 Q134 113 87 249 Q40 385 16 493 L157 493 Q190 345 255 167 Q319 339 358 493 L495 493 Z " />
<glyph glyph-name="yacute" unicode="&#xfd;" horiz-adv-x="510" d="M495 493 Q474 393 427 260.5 Q380 128 329 10.5 Q278 -107 247 -160 L106 -160 Q139 -103 186 6 Q134 113 87 249 Q40 385 16 493 L157 493 Q190 345 255 167 Q319 339 358 493 L495 493 Z M307 560 L192 560 Q221 630 259 684 L400 684 Q358 636 307 560 Z " />
<glyph glyph-name="ycircumflex" unicode="&#x177;" horiz-adv-x="510" d="M495 493 Q474 393 427 260.5 Q380 128 329 10.5 Q278 -107 247 -160 L106 -160 Q139 -103 186 6 Q134 113 87 249 Q40 385 16 493 L157 493 Q190 345 255 167 Q319 339 358 493 L495 493 Z M311 560 Q294 589 256 632 Q219 592 200 560 L94 560 Q121 619 169 680 L342 680 Q363 654 383.5 622 Q404 590 417 560 L311 560 Z " />
<glyph glyph-name="ydieresis" unicode="&#xff;" horiz-adv-x="510" d="M495 493 Q474 393 427 260.5 Q380 128 329 10.5 Q278 -107 247 -160 L106 -160 Q139 -103 186 6 Q134 113 87 249 Q40 385 16 493 L157 493 Q190 345 255 167 Q319 339 358 493 L495 493 Z M88 627 Q88 658 109 678 Q130 698 161 698 Q193 698 213.5 678 Q234 658 234 627 Q234 596 213.5 576.5 Q193 557 161 557 Q130 557 109 577 Q88 597 88 627 Z M279 627 Q279 658 300 678 Q321 698 352 698 Q383 698 404 678 Q425 658 425 627 Q425 597 404 577 Q383 557 352 557 Q321 557 300 577 Q279 597 279 627 Z " />
<glyph glyph-name="ygrave" unicode="&#x1ef3;" horiz-adv-x="510" d="M495 493 Q474 393 427 260.5 Q380 128 329 10.5 Q278 -107 247 -160 L106 -160 Q139 -103 186 6 Q134 113 87 249 Q40 385 16 493 L157 493 Q190 345 255 167 Q319 339 358 493 L495 493 Z M247 684 Q285 630 314 560 L205 560 Q155 630 106 684 L247 684 Z " />
<glyph glyph-name="z" unicode="z" horiz-adv-x="462" d="M433 119 L433 0 L28 0 L28 107 L259 375 L39 375 L39 493 L429 493 L429 386 L200 119 L433 119 Z " />
<glyph glyph-name="zacute" unicode="&#x17a;" horiz-adv-x="462" d="M433 119 L433 0 L28 0 L28 107 L259 375 L39 375 L39 493 L429 493 L429 386 L200 119 L433 119 Z M267 560 L152 560 Q181 630 219 684 L360 684 Q318 636 267 560 Z " />
<glyph glyph-name="zcaron" unicode="&#x17e;" horiz-adv-x="462" d="M433 119 L433 0 L28 0 L28 107 L259 375 L39 375 L39 493 L429 493 L429 386 L200 119 L433 119 Z M377 680 Q364 650 343.5 618 Q323 586 302 560 L129 560 Q81 621 54 680 L160 680 Q179 648 216 608 Q254 651 271 680 L377 680 Z " />
<glyph glyph-name="zdotaccent" unicode="&#x17c;" horiz-adv-x="462" d="M433 119 L433 0 L28 0 L28 107 L259 375 L39 375 L39 493 L429 493 L429 386 L200 119 L433 119 Z M139 628 Q139 660 161.5 680.5 Q184 701 216 701 Q249 701 271.5 680.5 Q294 660 294 628 Q294 596 271.5 575 Q249 554 216 554 Q184 554 161.5 575 Q139 596 139 628 Z " />
<glyph glyph-name="zero" unicode="0" horiz-adv-x="560" d="M40 317 L40 363 Q40 534 105 612 Q170 690 280 690 Q390 690 455 612 Q520 534 520 363 L520 317 Q520 146 455 68 Q390 -10 280 -10 Q170 -10 105 68 Q40 146 40 317 Z M377 320 L377 360 Q377 453 355.5 508.5 Q334 564 280 564 Q226 564 204.5 508.5 Q183 453 183 360 L183 320 Q183 227 204.5 171.5 Q226 116 280 116 Q334 116 355.5 171.5 Q377 227 377 320 Z " />
<glyph glyph-name="one" unicode="1" horiz-adv-x="560" d="M395 680 L395 0 L254 0 L254 492 Q222 466 180 444.5 Q138 423 102 413 L102 546 Q147 567 198.5 606 Q250 645 277 680 L395 680 Z " />
<glyph glyph-name="two" unicode="2" horiz-adv-x="560" d="M514 126 L514 0 L58 0 L58 112 Q181 201 270 291.5 Q359 382 359 475 Q359 518 338.5 541 Q318 564 278 564 Q197 564 186 452 L46 452 Q47 559 107 624.5 Q167 690 278 690 Q388 690 444.5 633 Q501 576 501 480 Q501 376 432 287.5 Q363 199 261 126 L514 126 Z " />
<glyph glyph-name="three" unicode="3" horiz-adv-x="560" d="M514 201 Q514 105 452.5 47.5 Q391 -10 282 -10 Q173 -10 110.5 47 Q48 104 43 195 L42 213 L184 213 Q186 167 213 141 Q240 115 282 115 Q323 115 348.5 138.5 Q374 162 374 206 Q374 256 341 276.5 Q308 297 251 297 L251 409 Q300 409 328.5 429.5 Q357 450 357 492 Q357 526 336.5 545.5 Q316 565 280 565 Q242 565 220.5 542 Q199 519 194 480 L53 480 Q58 581 119 635.5 Q180 690 280 690 Q346 690 395 666.5 Q444 643 471 601 Q498 559 498 504 Q498 451 476 415 Q454 379 418 358 Q461 338 487.5 298.5 Q514 259 514 201 Z " />
<glyph glyph-name="four" unicode="4" horiz-adv-x="560" d="M541 130 L474 130 L474 0 L333 0 L333 130 L33 130 L33 208 Q33 251 43 276 Q77 358 153 485.5 Q229 613 285 680 L453 680 Q385 594 305 467.5 Q225 341 184 248 L333 248 L333 402 L474 402 L474 248 L541 248 L541 130 Z " />
<glyph glyph-name="five" unicode="5" horiz-adv-x="560" d="M519 229 Q519 119 455.5 55 Q392 -9 283 -9 Q181 -9 120 41.5 Q59 92 51 171 L49 193 L187 193 Q192 107 284 107 Q328 107 353 138.5 Q378 170 378 228 Q378 284 353 313 Q328 342 281 342 Q251 342 228.5 329 Q206 316 196 295 L66 304 Q68 361 81 482 Q94 603 107 680 L482 680 L482 554 L222 554 Q214 513 206 424 Q246 457 314 457 Q407 457 463 396.5 Q519 336 519 229 Z " />
<glyph glyph-name="six" unicode="6" horiz-adv-x="560" d="M520 230 Q520 159 491.5 104.5 Q463 50 409 20 Q355 -10 281 -10 Q171 -10 108.5 52.5 Q46 115 46 225 L46 256 Q46 329 78 409.5 Q110 490 161 561 Q212 632 268 680 L447 680 Q383 625 334 569.5 Q285 514 252 451 Q274 457 304 457 Q403 457 461.5 395 Q520 333 520 230 Z M377 227 Q377 281 353.5 311.5 Q330 342 283 342 Q235 342 211.5 310.5 Q188 279 188 223 Q188 166 212.5 135.5 Q237 105 282 105 Q327 105 352 137.5 Q377 170 377 227 Z " />
<glyph glyph-name="seven" unicode="7" horiz-adv-x="560" d="M499 680 L499 562 Q468 448 389.5 271 Q311 94 260 0 L101 0 Q172 133 240.5 283 Q309 433 351 554 L47 554 L47 680 L499 680 Z " />
<glyph glyph-name="eight" unicode="8" horiz-adv-x="560" d="M522 186 Q522 95 455.5 42 Q389 -11 281 -11 Q209 -11 154 12 Q99 35 68.5 78.5 Q38 122 38 180 Q38 293 149 354 Q62 416 62 510 Q62 563 89.5 604.5 Q117 646 167.5 668.5 Q218 691 284 691 Q351 691 402 668.5 Q453 646 481 605 Q509 564 509 510 Q509 414 410 360 Q522 295 522 186 Z M204 510 Q204 483 223.5 460.5 Q243 438 297 413 Q370 448 370 507 Q370 538 347.5 558.5 Q325 579 285 579 Q248 579 226 559 Q204 539 204 510 Z M381 185 Q381 223 351 246.5 Q321 270 248 301 Q215 283 195.5 255 Q176 227 176 193 Q176 155 204.5 129.5 Q233 104 279 104 Q325 104 353 126.5 Q381 149 381 185 Z " />
<glyph glyph-name="nine" unicode="9" horiz-adv-x="560" d="M513 457 L513 429 Q513 356 481 275 Q449 194 398.5 121.5 Q348 49 292 0 L120 0 Q183 57 231.5 113 Q280 169 315 236 Q290 227 255 227 Q157 227 99 289 Q41 351 41 453 Q41 524 69.5 577.5 Q98 631 151.5 660.5 Q205 690 278 690 Q387 690 450 628.5 Q513 567 513 457 Z M277 343 Q324 343 347.5 374 Q371 405 371 459 Q371 514 346 544.5 Q321 575 277 575 Q233 575 208 543 Q183 511 183 456 Q183 403 207 373 Q231 343 277 343 Z " />
<glyph glyph-name="fraction" unicode="&#x2044;" horiz-adv-x="237" d="M-23 0 L-133 0 L260 680 L370 680 L-23 0 Z " />
<glyph glyph-name="onehalf" unicode="&#xbd;" horiz-adv-x="965" d="M233 680 L233 266 L129 266 L129 542 Q108 525 81 512 Q54 499 31 493 L31 581 Q63 600 94 626.5 Q125 653 147 680 L233 680 Z M294 0 L184 0 L577 680 L687 680 L294 0 Z M917 86 L917 0 L602 0 L602 72 Q634 94 650 104 Q702 138 732.5 162 Q763 186 784 217 Q805 248 805 286 Q805 310 792 324.5 Q779 339 755 339 Q730 339 715.5 320 Q701 301 699 271 L596 271 Q598 340 639.5 380.5 Q681 421 754 421 Q827 421 868 384 Q909 347 909 285 Q909 175 760 86 L917 86 Z " />
<glyph glyph-name="onequarter" unicode="&#xbc;" horiz-adv-x="912" d="M233 680 L233 266 L129 266 L129 542 Q108 525 81 512 Q54 499 31 493 L31 581 Q63 600 94 626.5 Q125 653 147 680 L233 680 Z M294 0 L184 0 L577 680 L687 680 L294 0 Z M887 77 L843 77 L843 0 L741 0 L741 77 L527 77 L527 118 Q527 150 536 172 Q559 227 602.5 295.5 Q646 364 687 414 L805 414 Q762 363 716 294.5 Q670 226 641 164 L741 164 L741 257 L843 257 L843 164 L887 164 L887 77 Z " />
<glyph glyph-name="threequarters" unicode="&#xbe;" horiz-adv-x="976" d="M356 388 Q356 329 314 294 Q272 259 195 259 Q121 259 78.5 292.5 Q36 326 36 387 L137 387 Q139 366 154.5 352.5 Q170 339 196 339 Q222 339 237 353 Q252 367 252 392 Q252 420 231 431.5 Q210 443 169 443 L169 516 Q208 516 228 528 Q248 540 248 568 Q248 589 234 601 Q220 613 196 613 Q172 613 157 598 Q142 583 139 563 L42 563 Q42 620 84.5 654.5 Q127 689 196 689 Q267 689 307.5 656 Q348 623 348 572 Q348 536 332 514.5 Q316 493 290 484 Q320 473 338 448 Q356 423 356 388 Z M358 0 L248 0 L641 680 L751 680 L358 0 Z M951 77 L907 77 L907 0 L805 0 L805 77 L591 77 L591 118 Q591 150 600 172 Q623 227 666.5 295.5 Q710 364 751 414 L869 414 Q826 363 780 294.5 Q734 226 705 164 L805 164 L805 257 L907 257 L907 164 L951 164 L951 77 Z " />
<glyph glyph-name="uni00B9" unicode="&#xb9;" horiz-adv-x="327" d="M233 720 L233 306 L129 306 L129 582 Q108 565 81 552 Q54 539 31 533 L31 621 Q63 640 94 666.5 Q125 693 147 720 L233 720 Z " />
<glyph glyph-name="uni00B2" unicode="&#xb2;" horiz-adv-x="416" d="M368 394 L368 308 L53 308 L53 380 Q85 402 101 412 Q153 446 183.5 470 Q214 494 235 525 Q256 556 256 594 Q256 618 243 632.5 Q230 647 206 647 Q181 647 166.5 628 Q152 609 150 579 L47 579 Q49 648 90.5 688.5 Q132 729 205 729 Q278 729 319 692 Q360 655 360 593 Q360 483 211 394 L368 394 Z " />
<glyph glyph-name="uni00B3" unicode="&#xb3;" horiz-adv-x="389" d="M356 428 Q356 369 314 334 Q272 299 195 299 Q121 299 78.5 332.5 Q36 366 36 427 L137 427 Q139 406 154.5 392.5 Q170 379 196 379 Q222 379 237 393 Q252 407 252 432 Q252 460 231 471.5 Q210 483 169 483 L169 556 Q208 556 228 568 Q248 580 248 608 Q248 629 234 641 Q220 653 196 653 Q172 653 157 638 Q142 623 139 603 L42 603 Q42 660 84.5 694.5 Q127 729 196 729 Q267 729 307.5 696 Q348 663 348 612 Q348 576 332 554.5 Q316 533 290 524 Q320 513 338 488 Q356 463 356 428 Z " />
<glyph glyph-name="asterisk" unicode="&#x2a;" horiz-adv-x="354" d="M232 548 Q298 519 330 508 Q325 493 311 468.5 Q297 444 287 435 Q251 466 204 500 Q211 435 220 395 Q202 391 177 391 Q154 391 134 395 Q142 434 150 501 Q124 482 66 435 Q56 445 42 469.5 Q28 494 23 508 Q72 525 123 548 Q67 572 23 587 Q28 602 42 626.5 Q56 651 66 661 Q106 626 149 595 Q142 661 134 700 Q147 704 177 704 Q208 704 220 700 Q213 663 204 596 Q262 637 287 661 Q298 650 312 625.5 Q326 601 330 587 Q270 565 232 548 Z " />
<glyph glyph-name="backslash" unicode="&#x5c;" horiz-adv-x="443" d="M153 700 L437 -20 L292 -20 L7 700 L153 700 Z " />
<glyph glyph-name="middot" unicode="&#xb7;" horiz-adv-x="271" d="M46 349 Q46 387 72 412 Q98 437 135 437 Q172 437 198 412 Q224 387 224 349 Q224 312 198 286 Q172 260 135 260 Q98 260 72 286 Q46 312 46 349 Z " />
<glyph glyph-name="bullet" unicode="&#x2022;" horiz-adv-x="380" d="M60 327 Q60 382 97.5 419.5 Q135 457 190 457 Q245 457 282.5 419.5 Q320 382 320 327 Q320 272 282.5 234.5 Q245 197 190 197 Q135 197 97.5 234.5 Q60 272 60 327 Z " />
<glyph glyph-name="colon" unicode="&#x3a;" horiz-adv-x="255" d="M38 79 Q38 117 64 142 Q90 167 127 167 Q164 167 190 142 Q216 117 216 79 Q216 42 190 16 Q164 -10 127 -10 Q90 -10 64 16 Q38 42 38 79 Z M38 414 Q38 452 64 477 Q90 502 127 502 Q164 502 190 477 Q216 452 216 414 Q216 377 190 351 Q164 325 127 325 Q90 325 64 351 Q38 377 38 414 Z " />
<glyph glyph-name="comma" unicode="&#x2c;" horiz-adv-x="225" d="M192 98 Q192 30 166.5 -21.5 Q141 -73 108 -114 L21 -114 Q43 -11 43 94 L43 143 L192 143 L192 98 Z " />
<glyph glyph-name="ellipsis" unicode="&#x2026;" horiz-adv-x="670" d="M469 79 Q469 117 495 142 Q521 167 558 167 Q595 167 621 142 Q647 117 647 79 Q647 42 621 16 Q595 -10 558 -10 Q521 -10 495 16 Q469 42 469 79 Z M246 79 Q246 117 272 142 Q298 167 335 167 Q372 167 398 142 Q424 117 424 79 Q424 42 398 16 Q372 -10 335 -10 Q298 -10 272 16 Q246 42 246 79 Z M23 79 Q23 117 49 142 Q75 167 112 167 Q149 167 175 142 Q201 117 201 79 Q201 42 175 16 Q149 -10 112 -10 Q75 -10 49 16 Q23 42 23 79 Z " />
<glyph glyph-name="exclam" unicode="&#x21;" horiz-adv-x="313" d="M213 227 L100 227 Q89 317 81 442.5 Q73 568 71 680 L242 680 Q240 564 232 439 Q224 314 213 227 Z M68 79 Q68 117 94 142 Q120 167 157 167 Q194 167 220 142 Q246 117 246 79 Q246 42 220 16 Q194 -10 157 -10 Q120 -10 94 16 Q68 42 68 79 Z " />
<glyph glyph-name="exclamdown" unicode="&#xa1;" horiz-adv-x="313" d="M246 410 Q246 373 220 348 Q194 323 157 323 Q120 323 94 348 Q68 373 68 410 Q68 447 94 473 Q120 499 157 499 Q194 499 220 473 Q246 447 246 410 Z M100 263 L213 263 Q224 176 232 51 Q240 -74 242 -190 L71 -190 Q73 -78 81 47.5 Q89 173 100 263 Z " />
<glyph glyph-name="numbersign" unicode="&#x23;" horiz-adv-x="560" d="M439 402 L421 280 L490 280 L490 191 L409 191 L382 0 L288 0 L315 191 L205 191 L178 0 L83 0 L110 191 L37 191 L37 280 L123 280 L140 402 L69 402 L69 492 L153 492 L179 680 L273 680 L247 492 L358 492 L384 680 L478 680 L451 492 L523 492 L523 402 L439 402 Z M345 402 L234 402 L217 280 L328 280 L345 402 Z " />
<glyph glyph-name="period" unicode="&#x2e;" horiz-adv-x="225" d="M23 79 Q23 117 49 142 Q75 167 112 167 Q149 167 175 142 Q201 117 201 79 Q201 42 175 16 Q149 -10 112 -10 Q75 -10 49 16 Q23 42 23 79 Z " />
<glyph glyph-name="question" unicode="&#x3f;" horiz-adv-x="423" d="M273 489 Q273 524 257.5 543 Q242 562 212 562 Q181 562 164.5 541 Q148 520 145 485 L16 485 L16 498 Q16 551 38.5 595.5 Q61 640 106 666 Q151 692 214 692 Q278 692 323 667.5 Q368 643 391 601.5 Q414 560 414 510 Q414 384 291 224 L153 224 Q273 399 273 489 Z M128 79 Q128 117 154.5 142 Q181 167 218 167 Q255 167 281 142 Q307 117 307 79 Q307 42 280.5 16 Q254 -10 218 -10 Q181 -10 154.5 16 Q128 42 128 79 Z " />
<glyph glyph-name="questiondown" unicode="&#xbf;" horiz-adv-x="393" d="M292 412 Q292 374 266 349 Q240 324 203 324 Q166 324 140 349 Q114 374 114 412 Q114 449 140 475 Q166 501 203 501 Q240 501 266 475 Q292 449 292 412 Z M150 2 Q150 -33 165.5 -52 Q181 -71 211 -71 Q242 -71 258.5 -50 Q275 -29 277 6 L407 6 L407 -7 Q407 -60 384 -104.5 Q361 -149 316 -175 Q271 -201 208 -201 Q144 -201 99 -176.5 Q54 -152 31 -110.5 Q8 -69 8 -19 Q8 60 46.5 132.5 Q85 205 131 267 L269 267 Q150 94 150 2 Z " />
<glyph glyph-name="quotedbl" unicode="&#x22;" horiz-adv-x="341" d="M143 680 Q143 610 138 548 Q133 486 125 448 L42 448 Q34 488 28.5 549.5 Q23 611 23 680 L143 680 Z M318 680 Q318 610 313 548 Q308 486 300 448 L217 448 Q209 488 203.5 549.5 Q198 611 198 680 L318 680 Z " />
<glyph glyph-name="quotesingle" unicode="&#x27;" horiz-adv-x="166" d="M143 680 Q143 610 138 548 Q133 486 125 448 L42 448 Q34 488 28.5 549.5 Q23 611 23 680 L143 680 Z " />
<glyph glyph-name="semicolon" unicode="&#x3b;" horiz-adv-x="256" d="M207 98 Q207 30 181.5 -21.5 Q156 -73 123 -114 L36 -114 Q58 -11 58 94 L58 143 L207 143 L207 98 Z M39 414 Q39 452 65 477 Q91 502 128 502 Q165 502 191 477 Q217 452 217 414 Q217 377 191 351 Q165 325 128 325 Q91 325 65 351 Q39 377 39 414 Z " />
<glyph glyph-name="slash" unicode="&#x2f;" horiz-adv-x="443" d="M152 -20 L7 -20 L291 700 L437 700 L152 -20 Z " />
<glyph glyph-name="underscore" unicode="&#x5f;" horiz-adv-x="502" d="M507 -78 L507 -182 L-5 -182 L-5 -78 L507 -78 Z " />
<glyph glyph-name="braceleft" unicode="&#x7b;" horiz-adv-x="362" d="M329 595 L297 595 Q263 595 248 584.5 Q233 574 233 542 L233 385 Q233 333 210 304.5 Q187 276 139 266 L139 264 Q187 255 210 226.5 Q233 198 233 145 L233 -16 Q233 -47 248 -56.5 Q263 -66 297 -66 L329 -66 L329 -151 L264 -151 Q187 -151 148.5 -122.5 Q110 -94 110 -12 L110 122 Q110 171 91.5 189.5 Q73 208 36 208 L36 322 Q73 322 91.5 341 Q110 360 110 410 L110 541 Q110 598 128.5 628 Q147 658 180 669 Q213 680 264 680 L329 680 L329 595 Z " />
<glyph glyph-name="braceright" unicode="&#x7d;" horiz-adv-x="359" d="M98 680 Q149 680 182 669 Q215 658 233.5 628 Q252 598 252 541 L252 410 Q252 360 270.5 341 Q289 322 326 322 L326 208 Q289 208 270.5 189.5 Q252 171 252 122 L252 -12 Q252 -94 213.5 -122.5 Q175 -151 98 -151 L33 -151 L33 -66 L65 -66 Q99 -66 114 -56.5 Q129 -47 129 -16 L129 145 Q129 198 152 226.5 Q175 255 223 264 L223 266 Q175 276 152 304.5 Q129 333 129 385 L129 542 Q129 574 114 584.5 Q99 595 65 595 L33 595 L33 680 L98 680 Z " />
<glyph glyph-name="bracketleft" unicode="&#x5b;" horiz-adv-x="333" d="M300 595 L191 595 L191 -66 L300 -66 L300 -151 L68 -151 L68 680 L300 680 L300 595 Z " />
<glyph glyph-name="bracketright" unicode="&#x5d;" horiz-adv-x="333" d="M265 680 L265 -151 L33 -151 L33 -66 L142 -66 L142 595 L33 595 L33 680 L265 680 Z " />
<glyph glyph-name="parenleft" unicode="&#x28;" horiz-adv-x="374" d="M229 680 L362 680 Q283 589 237 492.5 Q191 396 191 267 Q191 138 237 41.5 Q283 -55 362 -146 L229 -146 Q158 -81 105 21.5 Q52 124 52 267 Q52 410 105 512.5 Q158 615 229 680 Z " />
<glyph glyph-name="parenright" unicode="&#x29;" horiz-adv-x="374" d="M145 -146 L12 -146 Q91 -55 137 41.5 Q183 138 183 267 Q183 396 137 492.5 Q91 589 12 680 L145 680 Q216 615 269 512.5 Q322 410 322 267 Q322 124 269 21.5 Q216 -81 145 -146 Z " />
<glyph glyph-name="emdash" unicode="&#x2014;" horiz-adv-x="801" d="M763 356 L763 232 L38 232 L38 356 L763 356 Z " />
<glyph glyph-name="endash" unicode="&#x2013;" horiz-adv-x="586" d="M548 356 L548 232 L38 232 L38 356 L548 356 Z " />
<glyph glyph-name="hyphen" unicode="&#x2d;" horiz-adv-x="362" d="M324 358 L324 230 L38 230 L38 358 L324 358 Z " />
<glyph glyph-name="guillemotleft" unicode="&#xab;" horiz-adv-x="642" d="M426 242 L597 48 L453 48 L285 242 L453 435 L597 435 L426 242 Z M187 242 L358 48 L214 48 L46 242 L214 435 L358 435 L187 242 Z " />
<glyph glyph-name="guillemotright" unicode="&#xbb;" horiz-adv-x="642" d="M428 435 L597 242 L428 48 L285 48 L455 242 L285 435 L428 435 Z M189 435 L358 242 L189 48 L46 48 L216 242 L46 435 L189 435 Z " />
<glyph glyph-name="guilsinglleft" unicode="&#x2039;" horiz-adv-x="403" d="M187 242 L358 48 L214 48 L46 242 L214 435 L358 435 L187 242 Z " />
<glyph glyph-name="guilsinglright" unicode="&#x203a;" horiz-adv-x="403" d="M189 435 L358 242 L189 48 L46 48 L216 242 L46 435 L189 435 Z " />
<glyph glyph-name="quotedblbase" unicode="&#x201e;" horiz-adv-x="381" d="M172 99 Q172 36 150 -10 Q128 -56 97 -94 L23 -94 Q40 -21 40 97 L40 143 L172 143 L172 99 Z M357 99 Q357 36 335 -10 Q313 -56 282 -94 L208 -94 Q225 -21 225 97 L225 143 L357 143 L357 99 Z " />
<glyph glyph-name="quotedblleft" unicode="&#x201c;" horiz-adv-x="381" d="M208 487 Q208 550 230 596 Q252 642 283 680 L357 680 Q341 602 341 489 L341 443 L208 443 L208 487 Z M23 487 Q23 550 45 596 Q67 642 98 680 L172 680 Q156 602 156 489 L156 443 L23 443 L23 487 Z " />
<glyph glyph-name="quotedblright" unicode="&#x201d;" horiz-adv-x="381" d="M357 636 Q357 573 335 527 Q313 481 282 443 L208 443 Q225 516 225 634 L225 680 L357 680 L357 636 Z M172 636 Q172 573 150 527 Q128 481 97 443 L23 443 Q40 516 40 634 L40 680 L172 680 L172 636 Z " />
<glyph glyph-name="quoteleft" unicode="&#x2018;" horiz-adv-x="196" d="M23 487 Q23 550 45 596 Q67 642 98 680 L172 680 Q156 602 156 489 L156 443 L23 443 L23 487 Z " />
<glyph glyph-name="quoteright" unicode="&#x2019;" horiz-adv-x="196" d="M172 636 Q172 573 150 527 Q128 481 97 443 L23 443 Q40 516 40 634 L40 680 L172 680 L172 636 Z " />
<glyph glyph-name="quotesinglbase" unicode="&#x201a;" horiz-adv-x="196" d="M172 99 Q172 36 150 -10 Q128 -56 97 -94 L23 -94 Q40 -21 40 97 L40 143 L172 143 L172 99 Z " />
<glyph glyph-name="uni00A0" unicode="&#xa0;" horiz-adv-x="600" d="" />
<glyph glyph-name="cent" unicode="&#xa2;" horiz-adv-x="560" d="M503 185 L502 172 Q496 99 451.5 52.5 Q407 6 335 -5 L335 -80 L239 -80 L239 -5 Q155 9 107.5 69.5 Q60 130 60 233 L60 261 Q60 364 107.5 424 Q155 484 239 498 L239 573 L335 573 L335 499 Q407 488 450.5 444 Q494 400 499 334 L500 321 L362 321 Q356 350 336.5 366 Q317 382 285 382 Q239 382 218.5 347.5 Q198 313 198 261 L198 233 Q198 180 218 146 Q238 112 285 112 Q353 112 366 185 L503 185 Z " />
<glyph glyph-name="currency" unicode="&#xa4;" horiz-adv-x="560" d="M467 475 L422 431 Q452 390 452 332 Q452 274 422 233 L467 188 L423 145 L378 191 Q337 166 282 166 Q226 166 182 193 L136 145 L93 189 L139 234 Q111 274 111 332 Q111 390 140 430 L92 476 L136 519 L182 472 Q229 498 282 498 Q337 498 378 473 L423 519 L467 475 Z M197 332 Q197 290 220.5 267 Q244 244 282 244 Q320 244 342.5 267 Q365 290 365 332 Q365 374 342.5 397 Q320 420 282 420 Q244 420 220.5 397 Q197 374 197 332 Z " />
<glyph glyph-name="dollar" unicode="&#x24;" horiz-adv-x="560" d="M325 -8 L325 -80 L228 -80 L228 -7 Q135 7 86.5 61 Q38 115 35 189 L34 211 L176 211 Q179 164 208 137 Q237 110 288 110 Q333 110 358 130.5 Q383 151 383 190 Q383 227 360.5 244 Q338 261 286 278 L231 296 Q135 327 90 371 Q45 415 45 492 Q45 566 93.5 621 Q142 676 228 688 L228 766 L325 766 L325 686 Q409 673 455 624 Q501 575 507 513 L509 493 L365 493 Q359 526 333.5 547.5 Q308 569 266 569 Q226 569 205 549 Q184 529 184 498 Q184 466 211 448.5 Q238 431 297 412 L351 394 Q433 368 477.5 322.5 Q522 277 522 201 Q522 117 469 59.5 Q416 2 325 -8 Z " />
<glyph glyph-name="Euro" unicode="&#x20ac;" horiz-adv-x="560" d="M403 193 L544 193 L543 184 Q533 93 471.5 41 Q410 -11 318 -11 Q222 -11 158 49.5 Q94 110 80 240 L17 240 L17 318 L76 318 L76 370 L17 370 L17 447 L80 447 Q96 573 159.5 632 Q223 691 318 691 Q411 691 472 639.5 Q533 588 543 497 L544 487 L403 487 Q386 566 318 566 Q239 566 222 447 L371 447 L371 370 L217 370 L217 318 L371 318 L371 240 L221 240 Q238 114 318 114 Q354 114 374 134 Q394 154 403 193 Z " />
<glyph glyph-name="sterling" unicode="&#xa3;" horiz-adv-x="560" d="M210 126 L516 126 L516 0 L48 0 L48 110 Q95 145 113 177.5 Q131 210 131 264 L130 271 L59 271 L59 377 L108 377 Q96 418 90.5 440 Q85 462 85 489 Q85 545 110 591 Q135 637 184 664 Q233 691 302 691 Q406 691 461.5 636.5 Q517 582 521 500 L522 482 L379 482 Q377 519 357 542.5 Q337 566 303 566 Q268 566 248 542 Q228 518 228 476 Q228 451 232.5 429.5 Q237 408 247 377 L417 377 L417 271 L267 271 L268 251 Q268 218 252.5 185 Q237 152 210 126 Z " />
<glyph glyph-name="yen" unicode="&#xa5;" horiz-adv-x="560" d="M423 408 L509 408 L509 330 L380 330 L369 311 L352 281 L352 278 L509 278 L509 200 L352 200 L352 0 L210 0 L210 200 L53 200 L53 278 L210 278 L210 281 L182 330 L53 330 L53 408 L139 408 Q59 555 9 680 L157 680 Q205 562 282 424 Q355 559 405 680 L551 680 Q502 554 423 408 Z " />
<glyph glyph-name="approxequal" unicode="&#x2248;" horiz-adv-x="570" d="M284 362 Q246 372 226.5 376.5 Q207 381 186 381 Q136 381 105 347 L58 421 Q101 489 183 489 Q206 489 229 484 Q252 479 287 469 Q322 459 343.5 454 Q365 449 386 449 Q411 449 429.5 458 Q448 467 465 485 L512 410 Q468 342 387 342 Q364 342 340.5 347 Q317 352 284 362 Z M284 178 Q246 188 226.5 192.5 Q207 197 186 197 Q136 197 105 163 L58 237 Q101 305 183 305 Q206 305 229 300 Q252 295 287 285 Q322 275 343.5 270 Q365 265 386 265 Q412 265 430 273.5 Q448 282 465 300 L512 226 Q468 158 387 158 Q364 158 340.5 163 Q317 168 284 178 Z " />
<glyph glyph-name="asciitilde" unicode="&#x7e;" horiz-adv-x="570" d="M308 387 Q329 374 344 367.5 Q359 361 373 361 Q400 361 412 378.5 Q424 396 424 424 L512 424 Q512 349 481 299.5 Q450 250 378 250 Q352 250 331.5 258.5 Q311 267 283 284 Q256 299 238.5 306.5 Q221 314 200 314 Q174 314 160 296 Q146 278 146 251 L58 251 Q58 318 91.5 371.5 Q125 425 199 425 Q228 425 253 415 Q278 405 308 387 Z " />
<glyph glyph-name="divide" unicode="&#xf7;" horiz-adv-x="570" d="M512 381 L512 267 L58 267 L58 381 L512 381 Z M196 126 Q196 164 222 189 Q248 214 285 214 Q322 214 348 189 Q374 164 374 126 Q374 89 348 63 Q322 37 285 37 Q248 37 222 63 Q196 89 196 126 Z M196 515 Q196 553 222 578 Q248 603 285 603 Q322 603 348 578 Q374 553 374 515 Q374 478 348 452 Q322 426 285 426 Q248 426 222 452 Q196 478 196 515 Z " />
<glyph glyph-name="equal" unicode="&#x3d;" horiz-adv-x="570" d="M512 286 L512 172 L58 172 L58 286 L512 286 Z M512 476 L512 362 L58 362 L58 476 L512 476 Z " />
<glyph glyph-name="greater" unicode="&#x3e;" horiz-adv-x="570" d="M512 414 L512 292 L58 153 L58 276 L362 349 L58 424 L58 546 L512 414 Z " />
<glyph glyph-name="greaterequal" unicode="&#x2265;" horiz-adv-x="570" d="M512 414 L512 292 L58 153 L58 276 L362 349 L58 424 L58 546 L512 414 Z M512 17 L58 17 L58 131 L512 131 L512 17 Z " />
<glyph glyph-name="less" unicode="&#x3c;" horiz-adv-x="570" d="M512 424 L208 349 L512 276 L512 153 L58 292 L58 414 L512 546 L512 424 Z " />
<glyph glyph-name="lessequal" unicode="&#x2264;" horiz-adv-x="570" d="M512 131 L512 17 L58 17 L58 131 L512 131 Z M512 424 L208 349 L512 276 L512 153 L58 292 L58 414 L512 546 L512 424 Z " />
<glyph glyph-name="logicalnot" unicode="&#xac;" horiz-adv-x="570" d="M512 110 L392 110 L392 267 L58 267 L58 381 L512 381 L512 110 Z " />
<glyph glyph-name="minus" unicode="&#x2212;" horiz-adv-x="570" d="M512 381 L512 267 L58 267 L58 381 L512 381 Z " />
<glyph glyph-name="multiply" unicode="&#xd7;" horiz-adv-x="570" d="M365 324 L512 178 L431 97 L285 244 L139 97 L58 178 L205 324 L58 470 L139 551 L285 404 L431 551 L512 470 L365 324 Z " />
<glyph glyph-name="notequal" unicode="&#x2260;" horiz-adv-x="570" d="M352 357 L325 291 L512 291 L512 177 L278 177 L247 103 L138 103 L169 177 L58 177 L58 291 L216 291 L243 357 L58 357 L58 471 L290 471 L322 549 L432 549 L399 471 L512 471 L512 357 L352 357 Z " />
<glyph glyph-name="percent" unicode="&#x25;" horiz-adv-x="830" d="M26 513 Q26 571 50 610.5 Q74 650 112.5 669.5 Q151 689 196 689 Q241 689 280 669.5 Q319 650 343 610.5 Q367 571 367 513 Q367 455 343 415.5 Q319 376 280 356.5 Q241 337 196 337 Q151 337 112.5 356.5 Q74 376 50 415.5 Q26 455 26 513 Z M273 0 L163 0 L556 680 L666 680 L273 0 Z M265 513 Q265 554 246.5 577 Q228 600 196 600 Q164 600 145.5 577 Q127 554 127 513 Q127 472 145.5 449 Q164 426 196 426 Q228 426 246.5 449 Q265 472 265 513 Z M464 168 Q464 226 488 266 Q512 306 550.5 325.5 Q589 345 634 345 Q678 345 717.5 325.5 Q757 306 781 266 Q805 226 805 168 Q805 110 781 70.5 Q757 31 718 11.5 Q679 -8 634 -8 Q589 -8 550.5 11.5 Q512 31 488 70.5 Q464 110 464 168 Z M703 168 Q703 210 684.5 233 Q666 256 634 256 Q602 256 583.5 233 Q565 210 565 168 Q565 127 583.5 104 Q602 81 634 81 Q666 81 684.5 104 Q703 127 703 168 Z " />
<glyph glyph-name="perthousand" unicode="&#x2030;" horiz-adv-x="1200" d="M26 513 Q26 571 50 610.5 Q74 650 112.5 669.5 Q151 689 196 689 Q241 689 280 669.5 Q319 650 343 610.5 Q367 571 367 513 Q367 455 343 415.5 Q319 376 280 356.5 Q241 337 196 337 Q151 337 112.5 356.5 Q74 376 50 415.5 Q26 455 26 513 Z M273 0 L163 0 L556 680 L666 680 L273 0 Z M265 513 Q265 554 246.5 577 Q228 600 196 600 Q164 600 145.5 577 Q127 554 127 513 Q127 472 145.5 449 Q164 426 196 426 Q228 426 246.5 449 Q265 472 265 513 Z M464 168 Q464 226 488 266 Q512 306 550.5 325.5 Q589 345 634 345 Q678 345 717.5 325.5 Q757 306 781 266 Q805 226 805 168 Q805 110 781 70.5 Q757 31 718 11.5 Q679 -8 634 -8 Q589 -8 550.5 11.5 Q512 31 488 70.5 Q464 110 464 168 Z M834 168 Q834 226 858 266 Q882 306 920.5 325.5 Q959 345 1004 345 Q1048 345 1087.5 325.5 Q1127 306 1151 266 Q1175 226 1175 168 Q1175 110 1151 70.5 Q1127 31 1088 11.5 Q1049 -8 1004 -8 Q959 -8 920.5 11.5 Q882 31 858 70.5 Q834 110 834 168 Z M703 168 Q703 210 684.5 233 Q666 256 634 256 Q602 256 583.5 233 Q565 210 565 168 Q565 127 583.5 104 Q602 81 634 81 Q666 81 684.5 104 Q703 127 703 168 Z M1073 168 Q1073 210 1054.5 233 Q1036 256 1004 256 Q972 256 953.5 233 Q935 210 935 168 Q935 127 953.5 104 Q972 81 1004 81 Q1036 81 1054.5 104 Q1073 127 1073 168 Z " />
<glyph glyph-name="plus" unicode="&#x2b;" horiz-adv-x="570" d="M512 267 L343 267 L343 97 L227 97 L227 267 L58 267 L58 381 L227 381 L227 551 L343 551 L343 381 L512 381 L512 267 Z " />
<glyph glyph-name="plusminus" unicode="&#xb1;" horiz-adv-x="570" d="M512 460 L512 346 L343 346 L343 176 L227 176 L227 346 L58 346 L58 460 L227 460 L227 630 L343 630 L343 460 L512 460 Z M58 121 L512 121 L512 7 L58 7 L58 121 Z " />
<glyph glyph-name="bar" unicode="&#x7c;" horiz-adv-x="336" d="M228 -79 L108 -79 L108 736 L228 736 L228 -79 Z " />
<glyph glyph-name="brokenbar" unicode="&#xa6;" horiz-adv-x="336" d="M108 736 L228 736 L228 399 L108 399 L108 736 Z M228 -79 L108 -79 L108 258 L228 258 L228 -79 Z " />
<glyph glyph-name="at" unicode="&#x40;" horiz-adv-x="863" d="M607 445 L607 193 Q607 157 620 141 Q633 125 654 125 Q688 125 705.5 165 Q723 205 723 283 Q723 365 686 427.5 Q649 490 583 524 Q517 558 432 558 Q347 558 281.5 521 Q216 484 179.5 414.5 Q143 345 143 251 Q143 158 181.5 89.5 Q220 21 287.5 -15.5 Q355 -52 440 -52 Q493 -52 533.5 -42 Q574 -32 611 -9 L659 -82 Q609 -117 558 -130 Q507 -143 438 -143 Q326 -143 235.5 -93 Q145 -43 93 47 Q41 137 41 251 Q41 368 92 458.5 Q143 549 232 599 Q321 649 433 649 Q545 649 634 602 Q723 555 772.5 471.5 Q822 388 822 283 Q822 168 776.5 106 Q731 44 648 44 Q606 44 574.5 61.5 Q543 79 529 114 Q516 82 484 63 Q452 44 414 44 Q364 44 323 68 Q282 92 258 138.5 Q234 185 234 249 Q234 312 257 358.5 Q280 405 317.5 429.5 Q355 454 398 454 Q480 454 509 395 L509 445 L607 445 Z M502 249 Q502 305 481.5 335 Q461 365 424 365 Q386 365 363.5 335 Q341 305 341 249 Q341 192 363.5 162.5 Q386 133 423 133 Q460 133 481 164 Q502 195 502 249 Z " />
<glyph glyph-name="ampersand" unicode="&#x26;" horiz-adv-x="601" d="M457 0 L432 22 Q374 -11 294 -11 Q205 -11 146 18.5 Q87 48 59.5 97 Q32 146 32 205 Q32 270 58 318.5 Q84 367 137 403 Q108 466 108 509 Q108 595 155.5 643.5 Q203 692 289 692 Q379 692 422.5 643 Q466 594 470 527 L471 512 L345 512 Q339 574 290 574 Q268 574 256 558 Q244 542 244 515 Q244 470 296 387.5 Q348 305 428 210 Q440 248 440 297 L440 313 L569 313 L569 293 Q569 182 520 104 Q582 36 622 0 L457 0 Z M343 115 Q255 214 195 302 Q170 267 170 220 Q170 169 202.5 138 Q235 107 293 107 Q319 107 343 115 Z " />
<glyph glyph-name="paragraph" unicode="&#xb6;" horiz-adv-x="585" d="M518 -170 L451 -170 L451 614 L349 614 L349 -170 L283 -170 L283 274 L241 274 Q185 274 139.5 298.5 Q94 323 67.5 366.5 Q41 410 41 465 L41 490 Q41 545 67.5 588.5 Q94 632 139.5 656 Q185 680 241 680 L518 680 L518 -170 Z " />
<glyph glyph-name="copyright" unicode="&#xa9;" horiz-adv-x="791" d="M41 340 Q41 441 86 521 Q131 601 211.5 646 Q292 691 396 691 Q499 691 580 646 Q661 601 705.5 521 Q750 441 750 340 Q750 239 705.5 159 Q661 79 580 34 Q499 -11 396 -11 Q292 -11 211.5 34 Q131 79 86 159 Q41 239 41 340 Z M674 340 Q674 424 639 489.5 Q604 555 541 591 Q478 627 396 627 Q314 627 250.5 591 Q187 555 152 489.5 Q117 424 117 340 Q117 256 152 190.5 Q187 125 250.5 89 Q314 53 396 53 Q478 53 541 89 Q604 125 639 190.5 Q674 256 674 340 Z M215 325 L215 355 Q215 413 240 455.5 Q265 498 306 520 Q347 542 396 542 Q442 542 480 524 Q518 506 540.5 476.5 Q563 447 566 413 L567 399 L479 399 Q475 429 453.5 447 Q432 465 398 465 Q351 465 327 434.5 Q303 404 303 351 L303 330 Q303 277 327 246.5 Q351 216 398 216 Q433 216 454 234.5 Q475 253 479 287 L567 287 L566 273 Q563 238 542 207 Q521 176 483 157.5 Q445 139 395 139 Q346 139 305 161.5 Q264 184 239.5 226.5 Q215 269 215 325 Z " />
<glyph glyph-name="registered" unicode="&#xae;" horiz-adv-x="470" d="M436 558 Q436 501 410.5 455 Q385 409 339 383 Q293 357 235 357 Q177 357 131.5 383 Q86 409 60.5 455 Q35 501 35 558 Q35 615 60.5 661 Q86 707 131.5 733 Q177 759 235 759 Q293 759 339 733 Q385 707 410.5 661 Q436 615 436 558 Z M391 558 Q391 628 348 673.5 Q305 719 235 719 Q165 719 122.5 673.5 Q80 628 80 558 Q80 488 122.5 442.5 Q165 397 235 397 Q305 397 348 442.5 Q391 488 391 558 Z M277 544 Q309 496 326 454 L279 454 Q259 500 233 539 L206 539 L206 454 L163 454 L163 671 L246 671 Q277 671 298.5 654 Q320 637 320 604 Q320 559 277 544 Z M207 574 L239 574 Q259 574 268 581 Q277 588 277 604 Q277 620 268 627.5 Q259 635 239 635 L207 635 L207 574 Z " />
<glyph glyph-name="section" unicode="&#xa7;" horiz-adv-x="529" d="M413 121 Q451 81 451 20 Q451 -22 430 -57 Q409 -92 367.5 -113.5 Q326 -135 269 -135 Q208 -135 164.5 -115 Q121 -95 98 -62.5 Q75 -30 73 7 L72 25 L195 25 Q197 -5 215.5 -23 Q234 -41 270 -41 Q300 -41 317.5 -25.5 Q335 -10 335 14 Q335 44 312.5 60.5 Q290 77 241 98 L203 114 Q137 144 104.5 163.5 Q72 183 50.5 215 Q29 247 29 298 Q29 343 50.5 378 Q72 413 111 435 Q73 476 73 537 Q73 578 94 613.5 Q115 649 156 670.5 Q197 692 254 692 Q316 692 359.5 672 Q403 652 425.5 619.5 Q448 587 450 550 L451 532 L328 532 Q326 561 307.5 579.5 Q289 598 254 598 Q224 598 206 582.5 Q188 567 188 543 Q188 513 210.5 496.5 Q233 480 282 460 L321 443 Q387 413 419 393.5 Q451 374 472.5 342 Q494 310 494 259 Q494 215 472.5 179.5 Q451 144 413 121 Z M260 207 L290 195 Q297 192 306.5 188 Q316 184 327 178 Q349 190 361.5 207.5 Q374 225 374 247 Q374 286 346.5 307 Q319 328 264 350 L234 362 Q217 369 196 379 Q175 367 162 349.5 Q149 332 149 310 Q149 282 164 263 Q179 244 200.5 232.5 Q222 221 260 207 Z " />
<glyph glyph-name="trademark" unicode="&#x2122;" horiz-adv-x="741" d="M23 680 L288 680 L288 603 L198 603 L198 384 L113 384 L113 603 L23 603 L23 680 Z M709 680 L709 384 L631 384 L631 588 Q605 528 550 441 Q543 430 533 430 L510 430 Q504 430 501 432.5 Q498 435 494 441 Q444 519 412 587 L412 384 L334 384 L334 680 L444 680 Q482 600 523 532 Q568 614 597 680 L709 680 Z " />
<glyph glyph-name="degree" unicode="&#xb0;" horiz-adv-x="325" d="M23 556 Q23 615 62.5 653.5 Q102 692 162 692 Q222 692 262 653.5 Q302 615 302 556 Q302 497 262 458.5 Q222 420 162 420 Q102 420 62.5 458.5 Q23 497 23 556 Z M228 556 Q228 585 209.5 603.5 Q191 622 162 622 Q133 622 115 603.5 Q97 585 97 556 Q97 527 115 508.5 Q133 490 162 490 Q191 490 209.5 508.5 Q228 527 228 556 Z " />
<glyph glyph-name="asciicircum" unicode="&#x5e;" horiz-adv-x="570" d="M405 264 L285 532 L163 264 L30 264 L219 680 L351 680 L540 264 L405 264 Z " />
<glyph glyph-name="dagger" unicode="&#x2020;" horiz-adv-x="466" d="M423 380 L299 380 L299 -95 L165 -95 L165 380 L43 380 L43 493 L165 493 L165 680 L299 680 L299 493 L423 493 L423 380 Z " />
<glyph glyph-name="daggerdbl" unicode="&#x2021;" horiz-adv-x="466" d="M292 380 L292 239 L423 239 L423 126 L292 126 L292 -95 L172 -95 L172 126 L43 126 L43 239 L172 239 L172 380 L43 380 L43 493 L172 493 L172 680 L292 680 L292 493 L423 493 L423 380 L292 380 Z " />
<glyph glyph-name="uni0308" unicode="&#x308;" d="M-360 627 Q-360 658 -339 678 Q-318 698 -287 698 Q-255 698 -234.5 678 Q-214 658 -214 627 Q-214 596 -234.5 576.5 Q-255 557 -287 557 Q-318 557 -339 577 Q-360 597 -360 627 Z M-169 627 Q-169 658 -148 678 Q-127 698 -96 698 Q-65 698 -44 678 Q-23 658 -23 627 Q-23 597 -44 577 Q-65 557 -96 557 Q-127 557 -148 577 Q-169 597 -169 627 Z " />
<glyph glyph-name="uni0307" unicode="&#x307;" d="M-178 628 Q-178 660 -155.5 680.5 Q-133 701 -101 701 Q-68 701 -45.5 680.5 Q-23 660 -23 628 Q-23 596 -45.5 575 Q-68 554 -101 554 Q-133 554 -155.5 575 Q-178 596 -178 628 Z " />
<glyph glyph-name="gravecomb" unicode="&#x300;" d="M-90 684 Q-52 630 -23 560 L-132 560 Q-182 630 -231 684 L-90 684 Z " />
<glyph glyph-name="acutecomb" unicode="&#x301;" d="M-116 560 L-231 560 Q-202 630 -164 684 L-23 684 Q-65 636 -116 560 Z " />
<glyph glyph-name="uni030B" unicode="&#x30b;" d="M-273 560 L-372 560 Q-354 608 -316 680 L-195 680 Q-232 636 -273 560 Z M-112 560 L-211 560 Q-179 628 -144 680 L-23 680 Q-47 650 -112 560 Z " />
<glyph glyph-name="uni0302" unicode="&#x302;" d="M-129 560 Q-146 589 -184 632 Q-221 592 -240 560 L-346 560 Q-319 619 -271 680 L-98 680 Q-77 654 -56.5 622 Q-36 590 -23 560 L-129 560 Z " />
<glyph glyph-name="uni030C" unicode="&#x30c;" d="M-23 680 Q-36 650 -56.5 618 Q-77 586 -98 560 L-271 560 Q-319 621 -346 680 L-240 680 Q-221 648 -184 608 Q-146 651 -129 680 L-23 680 Z " />
<glyph glyph-name="uni0306" unicode="&#x306;" d="M-24 680 Q-24 619 -64.5 585.5 Q-105 552 -170 552 Q-235 552 -275.5 585.5 Q-316 619 -316 680 L-225 680 Q-225 658 -212 641 Q-199 624 -170 624 Q-141 624 -127.5 641 Q-114 658 -114 680 L-24 680 L-24 680 Z " />
<glyph glyph-name="uni030A" unicode="&#x30a;" d="M-257 643 Q-257 690 -224.5 720 Q-192 750 -140 750 Q-88 750 -56 720 Q-24 690 -24 643 Q-24 596 -56.5 566 Q-89 536 -140 536 Q-192 536 -224.5 566 Q-257 596 -257 643 Z M-88 643 Q-88 665 -101.5 679.5 Q-115 694 -140 694 Q-165 694 -178.5 679.5 Q-192 665 -192 643 Q-192 621 -178.5 606.5 Q-165 592 -140 592 Q-115 592 -101.5 606.5 Q-88 621 -88 643 Z " />
<glyph glyph-name="tildecomb" unicode="&#x303;" d="M-116 557 Q-138 557 -156 563 Q-174 569 -195 580 Q-199 582 -209.5 586.5 Q-220 591 -228.5 593.5 Q-237 596 -245 596 Q-276 596 -279 557 L-345 557 Q-343 614 -317.5 647 Q-292 680 -247 680 Q-228 680 -211.5 674 Q-195 668 -174 657 Q-143 639 -124 639 Q-107 639 -98.5 650 Q-90 661 -89 679 L-23 679 Q-25 621 -48.5 589 Q-72 557 -116 557 Z " />
<glyph glyph-name="uni0304" unicode="&#x304;" d="M-23 663 L-23 568 L-297 568 L-297 663 L-23 663 Z " />
<glyph glyph-name="uni0312" unicode="&#x312;" d="M-38 565 L-155 565 Q-154 612 -140.5 647.5 Q-127 683 -106 715 L-23 715 Q-38 634 -38 565 Z " />
<glyph glyph-name="uni0326" unicode="&#x326;" d="M-140 -50 L-23 -50 Q-24 -97 -37.5 -132.5 Q-51 -168 -72 -200 L-155 -200 Q-140 -128 -140 -50 Z " />
<glyph glyph-name="uni0327" unicode="&#x327;" d="M-24 -120 Q-24 -163 -54 -186 Q-84 -209 -132 -209 Q-162 -209 -189.5 -200 Q-217 -191 -235 -175 L-202 -123 Q-172 -145 -137 -145 Q-119 -145 -108 -138 Q-97 -131 -97 -118 Q-97 -104 -109.5 -97.5 Q-122 -91 -141 -91 Q-155 -91 -175 -96 L-194 -72 L-155 9 L-87 9 L-111 -38 Q-72 -42 -48 -63 Q-24 -84 -24 -120 Z " />
<glyph glyph-name="uni0328" unicode="&#x328;" d="M-23 0 Q-77 -28 -77 -64 Q-77 -78 -66.5 -87 Q-56 -96 -33 -96 L-26 -96 L-26 -181 Q-39 -184 -62 -184 Q-116 -184 -146.5 -161 Q-177 -138 -177 -95 Q-177 -53 -147 -22.5 Q-117 8 -69 25 L-23 0 Z " />
<glyph glyph-name="uni0335" unicode="&#x335;" d="M-24 280 L-24 189 L-338 189 L-338 280 L-24 280 Z " />
<glyph glyph-name="uni0336" unicode="&#x336;" d="M-24 274 L-24 194 L-479 194 L-479 274 L-24 274 Z " />
<glyph glyph-name="uni0337" unicode="&#x337;" d="M-279 300 L-279 414 L-45 557 L-45 442 L-279 300 Z " />
<glyph glyph-name="uni0338" unicode="&#x338;" d="M-377 -36 L-452 0 L-85 716 L-7 680 L-377 -36 Z " />
<glyph glyph-name="acute" unicode="&#xb4;" horiz-adv-x="254" d="M138 560 L23 560 Q52 630 90 684 L231 684 Q189 636 138 560 Z " />
<glyph glyph-name="breve" unicode="&#x2d8;" horiz-adv-x="339" d="M315 680 Q315 619 274.5 585.5 Q234 552 169 552 Q104 552 63.5 585.5 Q23 619 23 680 L114 680 Q114 658 127 641 Q140 624 169 624 Q198 624 211.5 641 Q225 658 225 680 L315 680 L315 680 Z " />
<glyph glyph-name="caron" unicode="&#x2c7;" horiz-adv-x="369" d="M346 680 Q333 650 312.5 618 Q292 586 271 560 L98 560 Q50 621 23 680 L129 680 Q148 648 185 608 Q223 651 240 680 L346 680 Z " />
<glyph glyph-name="cedilla" unicode="&#xb8;" horiz-adv-x="258" d="M234 -120 Q234 -163 204 -186 Q174 -209 126 -209 Q96 -209 68.5 -200 Q41 -191 23 -175 L56 -123 Q86 -145 121 -145 Q139 -145 150 -138 Q161 -131 161 -118 Q161 -104 148.5 -97.5 Q136 -91 117 -91 Q103 -91 83 -96 L64 -72 L103 9 L171 9 L147 -38 Q186 -42 210 -63 Q234 -84 234 -120 Z " />
<glyph glyph-name="circumflex" unicode="&#x2c6;" horiz-adv-x="369" d="M240 560 Q223 589 185 632 Q148 592 129 560 L23 560 Q50 619 98 680 L271 680 Q292 654 312.5 622 Q333 590 346 560 L240 560 Z " />
<glyph glyph-name="dieresis" unicode="&#xa8;" horiz-adv-x="383" d="M23 627 Q23 658 44 678 Q65 698 96 698 Q128 698 148.5 678 Q169 658 169 627 Q169 596 148.5 576.5 Q128 557 96 557 Q65 557 44 577 Q23 597 23 627 Z M214 627 Q214 658 235 678 Q256 698 287 698 Q318 698 339 678 Q360 658 360 627 Q360 597 339 577 Q318 557 287 557 Q256 557 235 577 Q214 597 214 627 Z " />
<glyph glyph-name="dotaccent" unicode="&#x2d9;" horiz-adv-x="201" d="M23 628 Q23 660 45.5 680.5 Q68 701 100 701 Q133 701 155.5 680.5 Q178 660 178 628 Q178 596 155.5 575 Q133 554 100 554 Q68 554 45.5 575 Q23 596 23 628 Z " />
<glyph glyph-name="grave" unicode="&#x60;" horiz-adv-x="254" d="M164 684 Q202 630 231 560 L122 560 Q72 630 23 684 L164 684 Z " />
<glyph glyph-name="hungarumlaut" unicode="&#x2dd;" horiz-adv-x="395" d="M122 560 L23 560 Q41 608 79 680 L200 680 Q163 636 122 560 Z M283 560 L184 560 Q216 628 251 680 L372 680 Q348 650 283 560 Z " />
<glyph glyph-name="overscore" unicode="&#xaf;" horiz-adv-x="320" d="M297 663 L297 568 L23 568 L23 663 L297 663 Z " />
<glyph glyph-name="ogonek" unicode="&#x2db;" horiz-adv-x="200" d="M177 0 Q123 -28 123 -64 Q123 -78 133.5 -87 Q144 -96 167 -96 L174 -96 L174 -181 Q161 -184 138 -184 Q84 -184 53.5 -161 Q23 -138 23 -95 Q23 -53 53 -22.5 Q83 8 131 25 L177 0 Z " />
<glyph glyph-name="ring" unicode="&#x2da;" horiz-adv-x="280" d="M23 643 Q23 690 55.5 720 Q88 750 140 750 Q192 750 224 720 Q256 690 256 643 Q256 596 223.5 566 Q191 536 140 536 Q88 536 55.5 566 Q23 596 23 643 Z M192 643 Q192 665 178.5 679.5 Q165 694 140 694 Q115 694 101.5 679.5 Q88 665 88 643 Q88 621 101.5 606.5 Q115 592 140 592 Q165 592 178.5 606.5 Q192 621 192 643 Z " />
<glyph glyph-name="tilde" unicode="&#x2dc;" horiz-adv-x="368" d="M252 557 Q230 557 212 563 Q194 569 173 580 Q169 582 158.5 586.5 Q148 591 139.5 593.5 Q131 596 123 596 Q92 596 89 557 L23 557 Q25 614 50.5 647 Q76 680 121 680 Q140 680 156.5 674 Q173 668 194 657 Q225 639 244 639 Q261 639 269.5 650 Q278 661 279 679 L345 679 Q343 621 319.5 589 Q296 557 252 557 Z " />
</font>
</svg>
