<?xml version="1.0" encoding="UTF-8"?>
<svg xmlns="http://www.w3.org/2000/svg" xmlns:xlink="http://www.w3.org/1999/xlink" version="1.2" >
<font id="AIAEverestCondensed">
<font-face  font-family="AIA Everest" units-per-em="1000" ascent="750" descent="-250" font-style="normal" font-weight="400" font-stretch="condensed" cap-height="680" x-height="486" underline-position="-100" underline-thickness="60" />
<missing-glyph  horiz-adv-x="579" d="M100 780 L479 780 L479 -100 L100 -100 L100 780 Z " />
<glyph glyph-name="space" unicode="&#x20;" horiz-adv-x="180" d="" />
<glyph glyph-name="A" unicode="A" horiz-adv-x="464" d="M330 168 L133 168 Q115 74 104 0 L27 0 Q55 165 96 348 Q137 531 175 659 Q178 671 185.5 675.5 Q193 680 210 680 L255 680 Q272 680 279 675.5 Q286 671 289 659 Q327 529 367.5 346 Q408 163 436 0 L359 0 Q348 74 330 168 Z M317 234 Q282 409 232 608 Q184 423 146 234 L317 234 Z " />
<glyph glyph-name="Aacute" unicode="&#xc1;" horiz-adv-x="464" d="M330 168 L133 168 Q115 74 104 0 L27 0 Q55 165 96 348 Q137 531 175 659 Q178 671 185.5 675.5 Q193 680 210 680 L255 680 Q272 680 279 675.5 Q286 671 289 659 Q327 529 367.5 346 Q408 163 436 0 L359 0 Q348 74 330 168 Z M317 234 Q282 409 232 608 Q184 423 146 234 L317 234 Z M263 744 L192 744 Q220 810 259 864 L353 864 Q303 804 263 744 Z " />
<glyph glyph-name="Abreve" unicode="&#x102;" horiz-adv-x="464" d="M330 168 L133 168 Q115 74 104 0 L27 0 Q55 165 96 348 Q137 531 175 659 Q178 671 185.5 675.5 Q193 680 210 680 L255 680 Q272 680 279 675.5 Q286 671 289 659 Q327 529 367.5 346 Q408 163 436 0 L359 0 Q348 74 330 168 Z M317 234 Q282 409 232 608 Q184 423 146 234 L317 234 Z M357 864 Q357 812 323 779.5 Q289 747 233 747 Q176 747 142.5 779.5 Q109 812 109 864 L171 864 Q171 836 185 816.5 Q199 797 233 797 Q267 797 281.5 817 Q296 837 296 864 L357 864 L357 864 Z " />
<glyph glyph-name="Acircumflex" unicode="&#xc2;" horiz-adv-x="464" d="M330 168 L133 168 Q115 74 104 0 L27 0 Q55 165 96 348 Q137 531 175 659 Q178 671 185.5 675.5 Q193 680 210 680 L255 680 Q272 680 279 675.5 Q286 671 289 659 Q327 529 367.5 346 Q408 163 436 0 L359 0 Q348 74 330 168 Z M317 234 Q282 409 232 608 Q184 423 146 234 L317 234 Z M294 744 Q266 790 232 827 Q193 785 170 744 L108 744 Q138 814 176 864 L287 864 Q328 811 356 744 L294 744 Z " />
<glyph glyph-name="Adieresis" unicode="&#xc4;" horiz-adv-x="464" d="M330 168 L133 168 Q115 74 104 0 L27 0 Q55 165 96 348 Q137 531 175 659 Q178 671 185.5 675.5 Q193 680 210 680 L255 680 Q272 680 279 675.5 Q286 671 289 659 Q327 529 367.5 346 Q408 163 436 0 L359 0 Q348 74 330 168 Z M317 234 Q282 409 232 608 Q184 423 146 234 L317 234 Z M108 801 Q108 822 123 836.5 Q138 851 159 851 Q180 851 194.5 837 Q209 823 209 801 Q209 780 194.5 766 Q180 752 159 752 Q138 752 123 766 Q108 780 108 801 Z M259 801 Q259 821 274 836 Q289 851 310 851 Q331 851 345.5 836 Q360 821 360 801 Q360 781 345.5 766.5 Q331 752 310 752 Q289 752 274 766.5 Q259 781 259 801 Z " />
<glyph glyph-name="Agrave" unicode="&#xc0;" horiz-adv-x="464" d="M330 168 L133 168 Q115 74 104 0 L27 0 Q55 165 96 348 Q137 531 175 659 Q178 671 185.5 675.5 Q193 680 210 680 L255 680 Q272 680 279 675.5 Q286 671 289 659 Q327 529 367.5 346 Q408 163 436 0 L359 0 Q348 74 330 168 Z M317 234 Q282 409 232 608 Q184 423 146 234 L317 234 Z M206 864 Q245 810 273 744 L202 744 Q162 804 112 864 L206 864 Z " />
<glyph glyph-name="Amacron" unicode="&#x100;" horiz-adv-x="464" d="M330 168 L133 168 Q115 74 104 0 L27 0 Q55 165 96 348 Q137 531 175 659 Q178 671 185.5 675.5 Q193 680 210 680 L255 680 Q272 680 279 675.5 Q286 671 289 659 Q327 529 367.5 346 Q408 163 436 0 L359 0 Q348 74 330 168 Z M317 234 Q282 409 232 608 Q184 423 146 234 L317 234 Z M347 831 L347 767 L117 767 L117 831 L347 831 Z " />
<glyph glyph-name="Aogonek" unicode="&#x104;" horiz-adv-x="464" d="M423 -116 L433 -116 L433 -164 Q420 -167 406 -167 Q363 -167 338.5 -148.5 Q314 -130 314 -95 Q314 -38 378 0 L359 0 Q348 74 330 168 L133 168 Q115 74 104 0 L27 0 Q55 165 96 348 Q137 531 175 659 Q178 671 185.5 675.5 Q193 680 210 680 L255 680 Q272 680 279 675.5 Q286 671 289 659 Q327 529 367.5 346 Q408 163 436 0 Q373 -43 373 -82 Q373 -116 423 -116 Z M317 234 Q282 409 232 608 Q184 423 146 234 L317 234 Z " />
<glyph glyph-name="Aring" unicode="&#xc5;" horiz-adv-x="464" d="M330 168 L133 168 Q115 74 104 0 L27 0 Q55 165 96 348 Q137 531 175 659 Q178 671 185.5 675.5 Q193 680 210 680 L255 680 Q272 680 279 675.5 Q286 671 289 659 Q327 529 367.5 346 Q408 163 436 0 L359 0 Q348 74 330 168 Z M317 234 Q282 409 232 608 Q184 423 146 234 L317 234 Z M136 815 Q136 854 164 879.5 Q192 905 233 905 Q274 905 302 879.5 Q330 854 330 815 Q330 776 302.5 751 Q275 726 233 726 Q191 726 163.5 751 Q136 776 136 815 Z M284 815 Q284 837 270 851.5 Q256 866 233 866 Q210 866 196 851.5 Q182 837 182 815 Q182 794 196 779 Q210 764 233 764 Q256 764 270 779 Q284 794 284 815 Z " />
<glyph glyph-name="Atilde" unicode="&#xc3;" horiz-adv-x="464" d="M330 168 L133 168 Q115 74 104 0 L27 0 Q55 165 96 348 Q137 531 175 659 Q178 671 185.5 675.5 Q193 680 210 680 L255 680 Q272 680 279 675.5 Q286 671 289 659 Q327 529 367.5 346 Q408 163 436 0 L359 0 Q348 74 330 168 Z M317 234 Q282 409 232 608 Q184 423 146 234 L317 234 Z M283 751 Q264 751 247.5 759 Q231 767 213 780 Q198 790 189.5 794.5 Q181 799 172 799 Q153 799 145 786 Q137 773 135 750 L93 750 Q95 805 115.5 829.5 Q136 854 176 854 Q193 854 208 846.5 Q223 839 243 825 Q246 823 255.5 817 Q265 811 272.5 808 Q280 805 286 805 Q303 805 310.5 819.5 Q318 834 319 854 L361 854 Q359 799 340.5 775 Q322 751 283 751 Z " />
<glyph glyph-name="AE" unicode="&#xc6;" horiz-adv-x="596" d="M566 66 L566 0 L276 0 L276 168 L143 168 Q127 107 105 0 L27 0 Q63 160 121 354 Q179 548 224 657 Q229 669 236.5 674.5 Q244 680 261 680 L557 680 L557 614 L356 614 L356 379 L535 379 L535 313 L356 313 L356 66 L566 66 Z M276 234 L276 620 Q222 475 159 234 L276 234 Z " />
<glyph glyph-name="B" unicode="B" horiz-adv-x="469" d="M429 196 Q429 99 378.5 49.5 Q328 0 234 0 L68 0 L68 680 L236 680 Q314 680 362.5 635.5 Q411 591 411 510 Q411 458 388 420.5 Q365 383 322 365 Q375 345 402 301.5 Q429 258 429 196 Z M148 394 L221 394 Q275 394 303 422 Q331 450 331 503 Q331 555 302.5 581 Q274 607 221 607 L148 607 L148 394 Z M348 196 Q348 257 316.5 288.5 Q285 320 223 320 L148 320 L148 73 L223 73 Q288 73 318 103 Q348 133 348 196 Z " />
<glyph glyph-name="C" unicode="C" horiz-adv-x="429" d="M53 300 L53 380 Q53 501 74 569 Q95 637 133.5 663.5 Q172 690 230 690 Q316 690 354 639 Q392 588 392 505 L392 490 L316 490 Q310 557 291 589 Q272 621 231 621 Q175 621 154 559 Q133 497 133 377 L133 303 Q133 183 154 121 Q175 59 231 59 Q274 59 293.5 96 Q313 133 316 207 L392 207 L392 176 Q392 97 353.5 43.5 Q315 -10 230 -10 Q172 -10 133.5 16.5 Q95 43 74 111 Q53 179 53 300 Z " />
<glyph glyph-name="Cacute" unicode="&#x106;" horiz-adv-x="429" d="M53 300 L53 380 Q53 501 74 569 Q95 637 133.5 663.5 Q172 690 230 690 Q316 690 354 639 Q392 588 392 505 L392 490 L316 490 Q310 557 291 589 Q272 621 231 621 Q175 621 154 559 Q133 497 133 377 L133 303 Q133 183 154 121 Q175 59 231 59 Q274 59 293.5 96 Q313 133 316 207 L392 207 L392 176 Q392 97 353.5 43.5 Q315 -10 230 -10 Q172 -10 133.5 16.5 Q95 43 74 111 Q53 179 53 300 Z M263 744 L192 744 Q220 810 259 864 L353 864 Q303 804 263 744 Z " />
<glyph glyph-name="Ccaron" unicode="&#x10c;" horiz-adv-x="429" d="M53 300 L53 380 Q53 501 74 569 Q95 637 133.5 663.5 Q172 690 230 690 Q316 690 354 639 Q392 588 392 505 L392 490 L316 490 Q310 557 291 589 Q272 621 231 621 Q175 621 154 559 Q133 497 133 377 L133 303 Q133 183 154 121 Q175 59 231 59 Q274 59 293.5 96 Q313 133 316 207 L392 207 L392 176 Q392 97 353.5 43.5 Q315 -10 230 -10 Q172 -10 133.5 16.5 Q95 43 74 111 Q53 179 53 300 Z M356 864 Q328 797 287 744 L176 744 Q138 794 108 864 L170 864 Q193 823 232 781 Q266 818 294 864 L356 864 Z " />
<glyph glyph-name="Ccedilla" unicode="&#xc7;" horiz-adv-x="429" d="M133 377 L133 303 Q133 183 154 121 Q175 59 231 59 Q274 59 293.5 96 Q313 133 316 207 L392 207 L392 176 Q392 97 354 44 Q316 -9 233 -10 L216 -41 Q258 -40 282 -59 Q306 -78 306 -111 Q306 -145 280.5 -167.5 Q255 -190 213 -190 Q162 -190 119 -160 L145 -120 Q175 -142 212 -142 Q255 -142 255 -111 Q255 -97 241.5 -89 Q228 -81 205 -81 Q192 -81 183.5 -83.5 Q175 -86 173 -87 L156 -65 L184 -6 Q119 8 86 78 Q53 148 53 300 L53 380 Q53 501 74 569 Q95 637 133.5 663.5 Q172 690 230 690 Q316 690 354 639 Q392 588 392 505 L392 490 L316 490 Q310 557 291 589 Q272 621 231 621 Q175 621 154 559 Q133 497 133 377 Z " />
<glyph glyph-name="Cdotaccent" unicode="&#x10a;" horiz-adv-x="429" d="M53 300 L53 380 Q53 501 74 569 Q95 637 133.5 663.5 Q172 690 230 690 Q316 690 354 639 Q392 588 392 505 L392 490 L316 490 Q310 557 291 589 Q272 621 231 621 Q175 621 154 559 Q133 497 133 377 L133 303 Q133 183 154 121 Q175 59 231 59 Q274 59 293.5 96 Q313 133 316 207 L392 207 L392 176 Q392 97 353.5 43.5 Q315 -10 230 -10 Q172 -10 133.5 16.5 Q95 43 74 111 Q53 179 53 300 Z M181 801 Q181 823 196.5 838 Q212 853 234 853 Q256 853 271 838 Q286 823 286 801 Q286 779 271 764.5 Q256 750 234 750 Q212 750 196.5 764.5 Q181 779 181 801 Z " />
<glyph glyph-name="D" unicode="D" horiz-adv-x="467" d="M68 680 L196 680 Q297 680 355.5 614 Q414 548 414 380 L414 300 Q414 132 355.5 66 Q297 0 196 0 L68 0 L68 680 Z M196 69 Q273 69 303.5 130 Q334 191 334 302 L334 378 Q334 489 303.5 550 Q273 611 196 611 L148 611 L148 69 L196 69 Z " />
<glyph glyph-name="Eth" unicode="&#xd0;" horiz-adv-x="473" d="M420 380 L420 300 Q420 132 361.5 66 Q303 0 202 0 L74 0 L74 313 L30 313 L30 371 L74 371 L74 680 L202 680 Q303 680 361.5 614 Q420 548 420 380 Z M340 378 Q340 489 309.5 550 Q279 611 202 611 L154 611 L154 371 L253 371 L253 313 L154 313 L154 69 L202 69 Q279 69 309.5 130 Q340 191 340 302 L340 378 Z " />
<glyph glyph-name="Dcaron" unicode="&#x10e;" horiz-adv-x="467" d="M68 680 L196 680 Q297 680 355.5 614 Q414 548 414 380 L414 300 Q414 132 355.5 66 Q297 0 196 0 L68 0 L68 680 Z M196 69 Q273 69 303.5 130 Q334 191 334 302 L334 378 Q334 489 303.5 550 Q273 611 196 611 L148 611 L148 69 L196 69 Z M353 864 Q325 797 284 744 L173 744 Q135 794 105 864 L167 864 Q190 823 229 781 Q263 818 291 864 L353 864 Z " />
<glyph glyph-name="Dcroat" unicode="&#x110;" horiz-adv-x="473" d="M420 380 L420 300 Q420 132 361.5 66 Q303 0 202 0 L74 0 L74 313 L30 313 L30 371 L74 371 L74 680 L202 680 Q303 680 361.5 614 Q420 548 420 380 Z M340 378 Q340 489 309.5 550 Q279 611 202 611 L154 611 L154 371 L253 371 L253 313 L154 313 L154 69 L202 69 Q279 69 309.5 130 Q340 191 340 302 L340 378 Z " />
<glyph glyph-name="E" unicode="E" horiz-adv-x="388" d="M358 66 L358 0 L68 0 L68 680 L349 680 L349 614 L148 614 L148 379 L327 379 L327 313 L148 313 L148 66 L358 66 Z " />
<glyph glyph-name="Eacute" unicode="&#xc9;" horiz-adv-x="388" d="M358 66 L358 0 L68 0 L68 680 L349 680 L349 614 L148 614 L148 379 L327 379 L327 313 L148 313 L148 66 L358 66 Z M254 744 L183 744 Q211 810 250 864 L344 864 Q294 804 254 744 Z " />
<glyph glyph-name="Ecaron" unicode="&#x11a;" horiz-adv-x="388" d="M358 66 L358 0 L68 0 L68 680 L349 680 L349 614 L148 614 L148 379 L327 379 L327 313 L148 313 L148 66 L358 66 Z M347 864 Q319 797 278 744 L167 744 Q129 794 99 864 L161 864 Q184 823 223 781 Q257 818 285 864 L347 864 Z " />
<glyph glyph-name="Ecircumflex" unicode="&#xca;" horiz-adv-x="388" d="M358 66 L358 0 L68 0 L68 680 L349 680 L349 614 L148 614 L148 379 L327 379 L327 313 L148 313 L148 66 L358 66 Z M285 744 Q257 790 223 827 Q184 785 161 744 L99 744 Q129 814 167 864 L278 864 Q319 811 347 744 L285 744 Z " />
<glyph glyph-name="Edieresis" unicode="&#xcb;" horiz-adv-x="388" d="M358 66 L358 0 L68 0 L68 680 L349 680 L349 614 L148 614 L148 379 L327 379 L327 313 L148 313 L148 66 L358 66 Z M99 801 Q99 822 114 836.5 Q129 851 150 851 Q171 851 185.5 837 Q200 823 200 801 Q200 780 185.5 766 Q171 752 150 752 Q129 752 114 766 Q99 780 99 801 Z M250 801 Q250 821 265 836 Q280 851 301 851 Q322 851 336.5 836 Q351 821 351 801 Q351 781 336.5 766.5 Q322 752 301 752 Q280 752 265 766.5 Q250 781 250 801 Z " />
<glyph glyph-name="Edotaccent" unicode="&#x116;" horiz-adv-x="388" d="M358 66 L358 0 L68 0 L68 680 L349 680 L349 614 L148 614 L148 379 L327 379 L327 313 L148 313 L148 66 L358 66 Z M172 801 Q172 823 187.5 838 Q203 853 225 853 Q247 853 262 838 Q277 823 277 801 Q277 779 262 764.5 Q247 750 225 750 Q203 750 187.5 764.5 Q172 779 172 801 Z " />
<glyph glyph-name="Egrave" unicode="&#xc8;" horiz-adv-x="388" d="M358 66 L358 0 L68 0 L68 680 L349 680 L349 614 L148 614 L148 379 L327 379 L327 313 L148 313 L148 66 L358 66 Z M197 864 Q236 810 264 744 L193 744 Q153 804 103 864 L197 864 Z " />
<glyph glyph-name="Emacron" unicode="&#x112;" horiz-adv-x="388" d="M358 66 L358 0 L68 0 L68 680 L349 680 L349 614 L148 614 L148 379 L327 379 L327 313 L148 313 L148 66 L358 66 Z M339 831 L339 767 L109 767 L109 831 L339 831 Z " />
<glyph glyph-name="Eogonek" unicode="&#x118;" horiz-adv-x="388" d="M295 -82 Q295 -116 344 -116 L355 -116 L355 -164 Q342 -167 328 -167 Q285 -167 260 -148.5 Q235 -130 235 -95 Q235 -39 300 0 L68 0 L68 680 L349 680 L349 614 L148 614 L148 379 L327 379 L327 313 L148 313 L148 66 L358 66 L358 0 Q295 -43 295 -82 Z " />
<glyph glyph-name="F" unicode="F" horiz-adv-x="379" d="M148 614 L148 379 L327 379 L327 313 L148 313 L148 0 L68 0 L68 680 L349 680 L349 614 L148 614 Z " />
<glyph glyph-name="G" unicode="G" horiz-adv-x="450" d="M53 291 L53 386 Q53 504 74.5 571 Q96 638 134.5 664 Q173 690 231 690 Q315 690 354 638 Q393 586 393 502 L393 490 L317 490 Q311 557 291.5 589 Q272 621 230 621 Q181 621 157 565.5 Q133 510 133 383 L133 297 Q133 169 157 114 Q181 59 229 59 Q326 59 326 258 L326 301 L224 301 L224 367 L401 367 L401 241 Q401 106 356.5 48 Q312 -10 228 -10 Q144 -10 98.5 56 Q53 122 53 291 Z " />
<glyph glyph-name="Gbreve" unicode="&#x11e;" horiz-adv-x="450" d="M53 291 L53 386 Q53 504 74.5 571 Q96 638 134.5 664 Q173 690 231 690 Q315 690 354 638 Q393 586 393 502 L393 490 L317 490 Q311 557 291.5 589 Q272 621 230 621 Q181 621 157 565.5 Q133 510 133 383 L133 297 Q133 169 157 114 Q181 59 229 59 Q326 59 326 258 L326 301 L224 301 L224 367 L401 367 L401 241 Q401 106 356.5 48 Q312 -10 228 -10 Q144 -10 98.5 56 Q53 122 53 291 Z M357 864 Q357 812 323 779.5 Q289 747 233 747 Q176 747 142.5 779.5 Q109 812 109 864 L171 864 Q171 836 185 816.5 Q199 797 233 797 Q267 797 281.5 817 Q296 837 296 864 L357 864 L357 864 Z " />
<glyph glyph-name="Gcommaaccent" unicode="&#x122;" horiz-adv-x="450" d="M53 291 L53 386 Q53 504 74.5 571 Q96 638 134.5 664 Q173 690 231 690 Q315 690 354 638 Q393 586 393 502 L393 490 L317 490 Q311 557 291.5 589 Q272 621 230 621 Q181 621 157 565.5 Q133 510 133 383 L133 297 Q133 169 157 114 Q181 59 229 59 Q326 59 326 258 L326 301 L224 301 L224 367 L401 367 L401 241 Q401 106 356.5 48 Q312 -10 228 -10 Q144 -10 98.5 56 Q53 122 53 291 Z M188 -54 L260 -54 Q259 -101 246.5 -135.5 Q234 -170 214 -200 L171 -200 Q188 -119 188 -54 Z " />
<glyph glyph-name="Gdotaccent" unicode="&#x120;" horiz-adv-x="450" d="M53 291 L53 386 Q53 504 74.5 571 Q96 638 134.5 664 Q173 690 231 690 Q315 690 354 638 Q393 586 393 502 L393 490 L317 490 Q311 557 291.5 589 Q272 621 230 621 Q181 621 157 565.5 Q133 510 133 383 L133 297 Q133 169 157 114 Q181 59 229 59 Q326 59 326 258 L326 301 L224 301 L224 367 L401 367 L401 241 Q401 106 356.5 48 Q312 -10 228 -10 Q144 -10 98.5 56 Q53 122 53 291 Z M182 801 Q182 823 197.5 838 Q213 853 235 853 Q257 853 272 838 Q287 823 287 801 Q287 779 272 764.5 Q257 750 235 750 Q213 750 197.5 764.5 Q182 779 182 801 Z " />
<glyph glyph-name="H" unicode="H" horiz-adv-x="513" d="M445 680 L445 0 L365 0 L365 313 L148 313 L148 0 L68 0 L68 680 L148 680 L148 379 L365 379 L365 680 L445 680 Z " />
<glyph glyph-name="Hbar" unicode="&#x126;" horiz-adv-x="501" d="M480 506 L439 506 L439 0 L359 0 L359 313 L142 313 L142 0 L62 0 L62 506 L21 506 L21 568 L62 568 L62 680 L142 680 L142 568 L359 568 L359 680 L439 680 L439 568 L480 568 L480 506 Z M359 506 L142 506 L142 379 L359 379 L359 506 Z " />
<glyph glyph-name="I" unicode="I" horiz-adv-x="221" d="M151 0 L70 0 L70 680 L151 680 L151 0 Z " />
<glyph glyph-name="Iacute" unicode="&#xcd;" horiz-adv-x="221" d="M151 0 L70 0 L70 680 L151 680 L151 0 Z M141 744 L70 744 Q98 810 137 864 L231 864 Q181 804 141 744 Z " />
<glyph glyph-name="Icircumflex" unicode="&#xce;" horiz-adv-x="221" d="M151 0 L70 0 L70 680 L151 680 L151 0 Z M172 744 Q144 790 110 827 Q71 785 48 744 L-14 744 Q16 814 54 864 L165 864 Q206 811 234 744 L172 744 Z " />
<glyph glyph-name="Idieresis" unicode="&#xcf;" horiz-adv-x="221" d="M151 0 L70 0 L70 680 L151 680 L151 0 Z M-14 801 Q-14 822 1 836.5 Q16 851 37 851 Q58 851 72.5 837 Q87 823 87 801 Q87 780 72.5 766 Q58 752 37 752 Q16 752 1 766 Q-14 780 -14 801 Z M137 801 Q137 821 152 836 Q167 851 188 851 Q209 851 223.5 836 Q238 821 238 801 Q238 781 223.5 766.5 Q209 752 188 752 Q167 752 152 766.5 Q137 781 137 801 Z " />
<glyph glyph-name="Idot" unicode="&#x130;" horiz-adv-x="221" d="M151 0 L70 0 L70 680 L151 680 L151 0 Z M59 801 Q59 823 74.5 838 Q90 853 112 853 Q134 853 149 838 Q164 823 164 801 Q164 779 149 764.5 Q134 750 112 750 Q90 750 74.5 764.5 Q59 779 59 801 Z " />
<glyph glyph-name="Igrave" unicode="&#xcc;" horiz-adv-x="221" d="M151 0 L70 0 L70 680 L151 680 L151 0 Z M84 864 Q123 810 151 744 L80 744 Q40 804 -10 864 L84 864 Z " />
<glyph glyph-name="Imacron" unicode="&#x12a;" horiz-adv-x="221" d="M151 0 L70 0 L70 680 L151 680 L151 0 Z M225 831 L225 767 L-5 767 L-5 831 L225 831 Z " />
<glyph glyph-name="Iogonek" unicode="&#x12e;" horiz-adv-x="221" d="M88 -82 Q88 -116 137 -116 L148 -116 L148 -164 Q135 -167 120 -167 Q78 -167 53 -148.5 Q28 -130 28 -95 Q28 -39 92 0 L70 0 L70 680 L151 680 L151 0 Q88 -43 88 -82 Z " />
<glyph glyph-name="J" unicode="J" horiz-adv-x="302" d="M74 62 Q118 62 137 83 Q156 104 156 151 L156 680 L237 680 L237 149 Q237 69 198 31.5 Q159 -6 90 -6 Q40 -6 16 6 L16 71 Q39 62 74 62 Z " />
<glyph glyph-name="K" unicode="K" horiz-adv-x="476" d="M234 323 Q191 260 149 206 L149 0 L68 0 L68 680 L149 680 L149 319 Q291 528 351 680 L431 680 Q383 553 288 404 Q335 305 381 187.5 Q427 70 446 0 L360 0 Q341 63 305.5 157 Q270 251 234 323 Z " />
<glyph glyph-name="Kcommaaccent" unicode="&#x136;" horiz-adv-x="476" d="M234 323 Q191 260 149 206 L149 0 L68 0 L68 680 L149 680 L149 319 Q291 528 351 680 L431 680 Q383 553 288 404 Q335 305 381 187.5 Q427 70 446 0 L360 0 Q341 63 305.5 157 Q270 251 234 323 Z M202 -54 L274 -54 Q273 -101 260.5 -135.5 Q248 -170 228 -200 L185 -200 Q202 -119 202 -54 Z " />
<glyph glyph-name="L" unicode="L" horiz-adv-x="356" d="M336 66 L336 0 L68 0 L68 680 L148 680 L148 66 L336 66 Z " />
<glyph glyph-name="Lacute" unicode="&#x139;" horiz-adv-x="356" d="M336 66 L336 0 L68 0 L68 680 L148 680 L148 66 L336 66 Z M162 744 L91 744 Q119 810 158 864 L252 864 Q202 804 162 744 Z " />
<glyph glyph-name="Lcaron" unicode="&#x13d;" horiz-adv-x="356" d="M336 66 L336 0 L68 0 L68 680 L148 680 L148 66 L336 66 Z M223 503 L189 503 Q196 539 202 588.5 Q208 638 208 680 L274 680 Q272 618 256.5 574 Q241 530 223 503 Z " />
<glyph glyph-name="Lcommaaccent" unicode="&#x13b;" horiz-adv-x="356" d="M336 66 L336 0 L68 0 L68 680 L148 680 L148 66 L336 66 Z M171 -54 L243 -54 Q242 -101 229.5 -135.5 Q217 -170 197 -200 L154 -200 Q171 -119 171 -54 Z " />
<glyph glyph-name="Lslash" unicode="&#x141;" horiz-adv-x="362" d="M342 66 L342 0 L74 0 L74 243 L25 214 L25 286 L74 315 L74 680 L154 680 L154 365 L256 427 L256 354 L154 292 L154 66 L342 66 Z " />
<glyph glyph-name="M" unicode="M" horiz-adv-x="611" d="M543 680 L543 0 L469 0 L469 571 Q418 396 337 194 Q329 175 308 175 L303 175 Q292 175 285.5 179.5 Q279 184 275 194 L263 223 Q214 350 188.5 419.5 Q163 489 142 570 L142 0 L68 0 L68 680 L177 680 Q245 451 307 293 Q341 379 375 486 Q409 593 431 680 L543 680 Z " />
<glyph glyph-name="N" unicode="N" horiz-adv-x="513" d="M445 680 L445 0 L371 0 L142 535 L142 0 L68 0 L68 680 L152 680 L371 170 L371 680 L445 680 Z " />
<glyph glyph-name="Nacute" unicode="&#x143;" horiz-adv-x="513" d="M445 680 L445 0 L371 0 L142 535 L142 0 L68 0 L68 680 L152 680 L371 170 L371 680 L445 680 Z M287 744 L216 744 Q244 810 283 864 L377 864 Q327 804 287 744 Z " />
<glyph glyph-name="Ncaron" unicode="&#x147;" horiz-adv-x="513" d="M445 680 L445 0 L371 0 L142 535 L142 0 L68 0 L68 680 L152 680 L371 170 L371 680 L445 680 Z M380 864 Q352 797 311 744 L200 744 Q162 794 132 864 L194 864 Q217 823 256 781 Q290 818 318 864 L380 864 Z " />
<glyph glyph-name="Ncommaaccent" unicode="&#x145;" horiz-adv-x="513" d="M445 680 L445 0 L371 0 L142 535 L142 0 L68 0 L68 680 L152 680 L371 170 L371 680 L445 680 Z M223 -54 L295 -54 Q294 -101 281.5 -135.5 Q269 -170 249 -200 L206 -200 Q223 -119 223 -54 Z " />
<glyph glyph-name="Eng" unicode="&#x14a;" horiz-adv-x="513" d="M445 680 L445 -4 Q445 -90 410 -128.5 Q375 -167 315 -167 Q275 -167 249 -158 L249 -99 Q272 -105 302 -105 Q340 -105 355.5 -80.5 Q371 -56 371 -4 L371 -1 L142 529 L142 0 L68 0 L68 680 L152 680 L371 176 L371 680 L445 680 Z " />
<glyph glyph-name="Ntilde" unicode="&#xd1;" horiz-adv-x="513" d="M445 680 L445 0 L371 0 L142 535 L142 0 L68 0 L68 680 L152 680 L371 170 L371 680 L445 680 Z M308 751 Q289 751 272.5 759 Q256 767 238 780 Q223 790 214.5 794.5 Q206 799 197 799 Q178 799 170 786 Q162 773 160 750 L118 750 Q120 805 140.5 829.5 Q161 854 201 854 Q218 854 233 846.5 Q248 839 268 825 Q271 823 280.5 817 Q290 811 297.5 808 Q305 805 311 805 Q328 805 335.5 819.5 Q343 834 344 854 L386 854 Q384 799 365.5 775 Q347 751 308 751 Z " />
<glyph glyph-name="O" unicode="O" horiz-adv-x="460" d="M53 300 L53 380 Q53 501 74 569 Q95 637 133.5 663.5 Q172 690 230 690 Q288 690 326.5 663.5 Q365 637 386.5 569 Q408 501 408 380 L408 300 Q408 179 386.5 111 Q365 43 326.5 16.5 Q288 -10 230 -10 Q172 -10 133.5 16.5 Q95 43 74 111 Q53 179 53 300 Z M327 303 L327 377 Q327 497 306 559 Q285 621 230 621 Q175 621 154 559 Q133 497 133 377 L133 303 Q133 183 154 121 Q175 59 230 59 Q285 59 306 121 Q327 183 327 303 Z " />
<glyph glyph-name="Oacute" unicode="&#xd3;" horiz-adv-x="460" d="M53 300 L53 380 Q53 501 74 569 Q95 637 133.5 663.5 Q172 690 230 690 Q288 690 326.5 663.5 Q365 637 386.5 569 Q408 501 408 380 L408 300 Q408 179 386.5 111 Q365 43 326.5 16.5 Q288 -10 230 -10 Q172 -10 133.5 16.5 Q95 43 74 111 Q53 179 53 300 Z M327 303 L327 377 Q327 497 306 559 Q285 621 230 621 Q175 621 154 559 Q133 497 133 377 L133 303 Q133 183 154 121 Q175 59 230 59 Q285 59 306 121 Q327 183 327 303 Z M261 744 L190 744 Q218 810 257 864 L351 864 Q301 804 261 744 Z " />
<glyph glyph-name="Ocircumflex" unicode="&#xd4;" horiz-adv-x="460" d="M53 300 L53 380 Q53 501 74 569 Q95 637 133.5 663.5 Q172 690 230 690 Q288 690 326.5 663.5 Q365 637 386.5 569 Q408 501 408 380 L408 300 Q408 179 386.5 111 Q365 43 326.5 16.5 Q288 -10 230 -10 Q172 -10 133.5 16.5 Q95 43 74 111 Q53 179 53 300 Z M327 303 L327 377 Q327 497 306 559 Q285 621 230 621 Q175 621 154 559 Q133 497 133 377 L133 303 Q133 183 154 121 Q175 59 230 59 Q285 59 306 121 Q327 183 327 303 Z M292 744 Q264 790 230 827 Q191 785 168 744 L106 744 Q136 814 174 864 L285 864 Q326 811 354 744 L292 744 Z " />
<glyph glyph-name="Odieresis" unicode="&#xd6;" horiz-adv-x="460" d="M53 300 L53 380 Q53 501 74 569 Q95 637 133.5 663.5 Q172 690 230 690 Q288 690 326.5 663.5 Q365 637 386.5 569 Q408 501 408 380 L408 300 Q408 179 386.5 111 Q365 43 326.5 16.5 Q288 -10 230 -10 Q172 -10 133.5 16.5 Q95 43 74 111 Q53 179 53 300 Z M327 303 L327 377 Q327 497 306 559 Q285 621 230 621 Q175 621 154 559 Q133 497 133 377 L133 303 Q133 183 154 121 Q175 59 230 59 Q285 59 306 121 Q327 183 327 303 Z M105 801 Q105 822 120 836.5 Q135 851 156 851 Q177 851 191.5 837 Q206 823 206 801 Q206 780 191.5 766 Q177 752 156 752 Q135 752 120 766 Q105 780 105 801 Z M256 801 Q256 821 271 836 Q286 851 307 851 Q328 851 342.5 836 Q357 821 357 801 Q357 781 342.5 766.5 Q328 752 307 752 Q286 752 271 766.5 Q256 781 256 801 Z " />
<glyph glyph-name="Ograve" unicode="&#xd2;" horiz-adv-x="460" d="M53 300 L53 380 Q53 501 74 569 Q95 637 133.5 663.5 Q172 690 230 690 Q288 690 326.5 663.5 Q365 637 386.5 569 Q408 501 408 380 L408 300 Q408 179 386.5 111 Q365 43 326.5 16.5 Q288 -10 230 -10 Q172 -10 133.5 16.5 Q95 43 74 111 Q53 179 53 300 Z M327 303 L327 377 Q327 497 306 559 Q285 621 230 621 Q175 621 154 559 Q133 497 133 377 L133 303 Q133 183 154 121 Q175 59 230 59 Q285 59 306 121 Q327 183 327 303 Z M204 864 Q243 810 271 744 L200 744 Q160 804 110 864 L204 864 Z " />
<glyph glyph-name="Ohungarumlaut" unicode="&#x150;" horiz-adv-x="460" d="M53 300 L53 380 Q53 501 74 569 Q95 637 133.5 663.5 Q172 690 230 690 Q288 690 326.5 663.5 Q365 637 386.5 569 Q408 501 408 380 L408 300 Q408 179 386.5 111 Q365 43 326.5 16.5 Q288 -10 230 -10 Q172 -10 133.5 16.5 Q95 43 74 111 Q53 179 53 300 Z M327 303 L327 377 Q327 497 306 559 Q285 621 230 621 Q175 621 154 559 Q133 497 133 377 L133 303 Q133 183 154 121 Q175 59 230 59 Q285 59 306 121 Q327 183 327 303 Z M201 744 L139 744 Q157 792 195 864 L279 864 Q242 820 201 744 Z M318 744 L256 744 Q288 812 323 864 L407 864 Q383 834 318 744 Z " />
<glyph glyph-name="Omacron" unicode="&#x14c;" horiz-adv-x="460" d="M53 300 L53 380 Q53 501 74 569 Q95 637 133.5 663.5 Q172 690 230 690 Q288 690 326.5 663.5 Q365 637 386.5 569 Q408 501 408 380 L408 300 Q408 179 386.5 111 Q365 43 326.5 16.5 Q288 -10 230 -10 Q172 -10 133.5 16.5 Q95 43 74 111 Q53 179 53 300 Z M327 303 L327 377 Q327 497 306 559 Q285 621 230 621 Q175 621 154 559 Q133 497 133 377 L133 303 Q133 183 154 121 Q175 59 230 59 Q285 59 306 121 Q327 183 327 303 Z M345 831 L345 767 L115 767 L115 831 L345 831 Z " />
<glyph glyph-name="Oslash" unicode="&#xd8;" horiz-adv-x="502" d="M404 580 Q429 508 429 380 L429 300 Q429 179 408 111 Q387 43 348.5 16.5 Q310 -10 252 -10 Q211 -10 180.5 2 Q150 14 129 43 L102 -9 L53 13 L98 102 Q74 177 74 300 L74 380 Q74 501 95.5 569 Q117 637 155.5 663.5 Q194 690 252 690 Q291 690 321.5 678 Q352 666 374 639 L401 692 L450 669 L404 580 Z M158 218 L330 553 Q306 621 252 621 Q197 621 176 559 Q155 497 155 377 L155 303 Q155 257 158 218 Z M346 466 L173 130 Q195 59 252 59 Q307 59 328 121 Q349 183 349 303 L349 377 Q349 426 346 466 Z " />
<glyph glyph-name="Otilde" unicode="&#xd5;" horiz-adv-x="460" d="M53 300 L53 380 Q53 501 74 569 Q95 637 133.5 663.5 Q172 690 230 690 Q288 690 326.5 663.5 Q365 637 386.5 569 Q408 501 408 380 L408 300 Q408 179 386.5 111 Q365 43 326.5 16.5 Q288 -10 230 -10 Q172 -10 133.5 16.5 Q95 43 74 111 Q53 179 53 300 Z M327 303 L327 377 Q327 497 306 559 Q285 621 230 621 Q175 621 154 559 Q133 497 133 377 L133 303 Q133 183 154 121 Q175 59 230 59 Q285 59 306 121 Q327 183 327 303 Z M281 751 Q262 751 245.5 759 Q229 767 211 780 Q196 790 187.5 794.5 Q179 799 170 799 Q151 799 143 786 Q135 773 133 750 L91 750 Q93 805 113.5 829.5 Q134 854 174 854 Q191 854 206 846.5 Q221 839 241 825 Q244 823 253.5 817 Q263 811 270.5 808 Q278 805 284 805 Q301 805 308.5 819.5 Q316 834 317 854 L359 854 Q357 799 338.5 775 Q320 751 281 751 Z " />
<glyph glyph-name="OE" unicode="&#x152;" horiz-adv-x="625" d="M595 66 L595 0 L305 0 L305 33 Q271 -10 208 -10 Q132 -10 92.5 60 Q53 130 53 300 L53 380 Q53 550 92.5 620 Q132 690 208 690 Q272 690 305 642 L305 680 L586 680 L586 614 L385 614 L385 379 L564 379 L564 313 L385 313 L385 66 L595 66 Z M305 132 L305 547 Q285 621 228 621 Q174 621 153.5 558 Q133 495 133 377 L133 303 Q133 185 153.5 122 Q174 59 228 59 Q257 59 275.5 77.5 Q294 96 305 132 Z " />
<glyph glyph-name="P" unicode="P" horiz-adv-x="432" d="M398 476 Q398 382 349 326.5 Q300 271 211 271 L148 271 L148 0 L68 0 L68 680 L211 680 Q300 680 349 625 Q398 570 398 476 Z M317 476 Q317 539 289.5 576.5 Q262 614 202 614 L148 614 L148 338 L202 338 Q262 338 289.5 375 Q317 412 317 476 Z " />
<glyph glyph-name="Thorn" unicode="&#xde;" horiz-adv-x="419" d="M384 358 Q384 264 335 209.5 Q286 155 198 155 L148 155 L148 0 L68 0 L68 680 L148 680 L148 561 L198 561 Q286 561 335 506.5 Q384 452 384 358 Z M304 358 Q304 421 276.5 458 Q249 495 189 495 L148 495 L148 221 L189 221 Q249 221 276.5 258 Q304 295 304 358 Z " />
<glyph glyph-name="Q" unicode="Q" horiz-adv-x="460" d="M298 1 Q324 -18 374 -18 Q391 -18 404 -16 L404 -80 Q384 -85 359 -85 Q319 -85 281.5 -66.5 Q244 -48 222 -10 Q167 -8 130 19.5 Q93 47 73 114.5 Q53 182 53 300 L53 380 Q53 501 74 569 Q95 637 133.5 663.5 Q172 690 230 690 Q288 690 326.5 663.5 Q365 637 386.5 569 Q408 501 408 380 L408 300 Q408 162 380 92 Q352 22 298 1 Z M327 377 Q327 497 306 559 Q285 621 230 621 Q175 621 154 559 Q133 497 133 377 L133 303 Q133 183 154 121 Q175 59 230 59 Q285 59 306 121 Q327 183 327 303 L327 377 Z " />
<glyph glyph-name="R" unicode="R" horiz-adv-x="439" d="M328 0 Q308 65 278.5 146 Q249 227 220 284 L148 284 L148 0 L68 0 L68 680 L204 680 Q296 680 342.5 628 Q389 576 389 484 Q389 420 363 373 Q337 326 290 306 Q323 243 356.5 151 Q390 59 406 0 L328 0 Z M148 357 L200 357 Q254 357 281 390.5 Q308 424 308 483 Q308 546 281.5 581 Q255 616 200 616 L148 616 L148 357 Z " />
<glyph glyph-name="Racute" unicode="&#x154;" horiz-adv-x="439" d="M328 0 Q308 65 278.5 146 Q249 227 220 284 L148 284 L148 0 L68 0 L68 680 L204 680 Q296 680 342.5 628 Q389 576 389 484 Q389 420 363 373 Q337 326 290 306 Q323 243 356.5 151 Q390 59 406 0 L328 0 Z M148 357 L200 357 Q254 357 281 390.5 Q308 424 308 483 Q308 546 281.5 581 Q255 616 200 616 L148 616 L148 357 Z M238 744 L167 744 Q195 810 234 864 L328 864 Q278 804 238 744 Z " />
<glyph glyph-name="Rcaron" unicode="&#x158;" horiz-adv-x="439" d="M328 0 Q308 65 278.5 146 Q249 227 220 284 L148 284 L148 0 L68 0 L68 680 L204 680 Q296 680 342.5 628 Q389 576 389 484 Q389 420 363 373 Q337 326 290 306 Q323 243 356.5 151 Q390 59 406 0 L328 0 Z M148 357 L200 357 Q254 357 281 390.5 Q308 424 308 483 Q308 546 281.5 581 Q255 616 200 616 L148 616 L148 357 Z M332 864 Q304 797 263 744 L152 744 Q114 794 84 864 L146 864 Q169 823 208 781 Q242 818 270 864 L332 864 Z " />
<glyph glyph-name="Rcommaaccent" unicode="&#x156;" horiz-adv-x="439" d="M328 0 Q308 65 278.5 146 Q249 227 220 284 L148 284 L148 0 L68 0 L68 680 L204 680 Q296 680 342.5 628 Q389 576 389 484 Q389 420 363 373 Q337 326 290 306 Q323 243 356.5 151 Q390 59 406 0 L328 0 Z M148 357 L200 357 Q254 357 281 390.5 Q308 424 308 483 Q308 546 281.5 581 Q255 616 200 616 L148 616 L148 357 Z M174 -54 L246 -54 Q245 -101 232.5 -135.5 Q220 -170 200 -200 L157 -200 Q174 -119 174 -54 Z " />
<glyph glyph-name="S" unicode="S" horiz-adv-x="423" d="M296 523 Q289 619 208 619 Q169 619 149 596 Q129 573 129 532 Q129 497 147 470 Q165 443 199 414 L235 385 Q290 341 320.5 309.5 Q351 278 367.5 243.5 Q384 209 384 165 Q384 88 339 39.5 Q294 -9 213 -9 Q130 -9 85 37.5 Q40 84 40 152 L40 173 L118 173 Q123 61 215 61 Q259 61 281 89 Q303 117 303 164 Q303 203 279 233.5 Q255 264 207 304 L171 333 Q109 384 78.5 427 Q48 470 48 526 Q48 600 92.5 644.5 Q137 689 211 689 Q290 689 332 646 Q374 603 374 540 L374 523 L296 523 Z " />
<glyph glyph-name="Sacute" unicode="&#x15a;" horiz-adv-x="423" d="M296 523 Q289 619 208 619 Q169 619 149 596 Q129 573 129 532 Q129 497 147 470 Q165 443 199 414 L235 385 Q290 341 320.5 309.5 Q351 278 367.5 243.5 Q384 209 384 165 Q384 88 339 39.5 Q294 -9 213 -9 Q130 -9 85 37.5 Q40 84 40 152 L40 173 L118 173 Q123 61 215 61 Q259 61 281 89 Q303 117 303 164 Q303 203 279 233.5 Q255 264 207 304 L171 333 Q109 384 78.5 427 Q48 470 48 526 Q48 600 92.5 644.5 Q137 689 211 689 Q290 689 332 646 Q374 603 374 540 L374 523 L296 523 Z M244 744 L173 744 Q201 810 240 864 L334 864 Q284 804 244 744 Z " />
<glyph glyph-name="Scaron" unicode="&#x160;" horiz-adv-x="423" d="M296 523 Q289 619 208 619 Q169 619 149 596 Q129 573 129 532 Q129 497 147 470 Q165 443 199 414 L235 385 Q290 341 320.5 309.5 Q351 278 367.5 243.5 Q384 209 384 165 Q384 88 339 39.5 Q294 -9 213 -9 Q130 -9 85 37.5 Q40 84 40 152 L40 173 L118 173 Q123 61 215 61 Q259 61 281 89 Q303 117 303 164 Q303 203 279 233.5 Q255 264 207 304 L171 333 Q109 384 78.5 427 Q48 470 48 526 Q48 600 92.5 644.5 Q137 689 211 689 Q290 689 332 646 Q374 603 374 540 L374 523 L296 523 Z M337 864 Q309 797 268 744 L157 744 Q119 794 89 864 L151 864 Q174 823 213 781 Q247 818 275 864 L337 864 Z " />
<glyph glyph-name="Scedilla" unicode="&#x15e;" horiz-adv-x="423" d="M232 -8 L214 -41 Q256 -40 280 -59 Q304 -78 304 -111 Q304 -145 278.5 -167.5 Q253 -190 211 -190 Q160 -190 117 -160 L143 -120 Q173 -142 210 -142 Q253 -142 253 -111 Q253 -97 239.5 -89 Q226 -81 203 -81 Q190 -81 181.5 -83.5 Q173 -86 171 -87 L154 -65 L181 -7 Q113 2 76.5 46.5 Q40 91 40 152 L40 173 L118 173 Q123 61 215 61 Q259 61 281 89 Q303 117 303 164 Q303 203 279 233.5 Q255 264 207 304 L171 333 Q109 384 78.5 427 Q48 470 48 526 Q48 600 92.5 644.5 Q137 689 211 689 Q290 689 332 646 Q374 603 374 540 L374 523 L296 523 Q289 619 208 619 Q169 619 149 596 Q129 573 129 532 Q129 497 147 470 Q165 443 199 414 L235 385 Q290 341 320.5 309.5 Q351 278 367.5 243.5 Q384 209 384 165 Q384 93 344 45.5 Q304 -2 232 -8 Z " />
<glyph glyph-name="Scommaaccent" unicode="&#x218;" horiz-adv-x="423" d="M296 523 Q289 619 208 619 Q169 619 149 596 Q129 573 129 532 Q129 497 147 470 Q165 443 199 414 L235 385 Q290 341 320.5 309.5 Q351 278 367.5 243.5 Q384 209 384 165 Q384 88 339 39.5 Q294 -9 213 -9 Q130 -9 85 37.5 Q40 84 40 152 L40 173 L118 173 Q123 61 215 61 Q259 61 281 89 Q303 117 303 164 Q303 203 279 233.5 Q255 264 207 304 L171 333 Q109 384 78.5 427 Q48 470 48 526 Q48 600 92.5 644.5 Q137 689 211 689 Q290 689 332 646 Q374 603 374 540 L374 523 L296 523 Z M178 -54 L250 -54 Q249 -101 236.5 -135.5 Q224 -170 204 -200 L161 -200 Q178 -119 178 -54 Z " />
<glyph glyph-name="T" unicode="T" horiz-adv-x="422" d="M400 614 L251 614 L251 0 L171 0 L171 614 L22 614 L22 680 L400 680 L400 614 Z " />
<glyph glyph-name="Tbar" unicode="&#x166;" horiz-adv-x="422" d="M251 614 L251 369 L322 369 L322 311 L251 311 L251 0 L171 0 L171 311 L99 311 L99 369 L171 369 L171 614 L22 614 L22 680 L400 680 L400 614 L251 614 Z " />
<glyph glyph-name="Tcaron" unicode="&#x164;" horiz-adv-x="422" d="M400 614 L251 614 L251 0 L171 0 L171 614 L22 614 L22 680 L400 680 L400 614 Z M334 864 Q306 797 265 744 L154 744 Q116 794 86 864 L148 864 Q171 823 210 781 Q244 818 272 864 L334 864 Z " />
<glyph glyph-name="uni0162" unicode="&#x162;" horiz-adv-x="422" d="M237 0 L215 -41 Q257 -40 281 -59 Q305 -78 305 -111 Q305 -145 279.5 -167.5 Q254 -190 212 -190 Q161 -190 118 -160 L144 -120 Q174 -142 211 -142 Q254 -142 254 -111 Q254 -97 240.5 -89 Q227 -81 204 -81 Q190 -81 182 -83.5 Q174 -86 172 -87 L155 -65 L186 0 L171 0 L171 614 L22 614 L22 680 L400 680 L400 614 L251 614 L251 0 L237 0 Z " />
<glyph glyph-name="uni021A" unicode="&#x21a;" horiz-adv-x="422" d="M400 614 L251 614 L251 0 L171 0 L171 614 L22 614 L22 680 L400 680 L400 614 Z M179 -54 L251 -54 Q250 -101 237.5 -135.5 Q225 -170 205 -200 L162 -200 Q179 -119 179 -54 Z " />
<glyph glyph-name="U" unicode="U" horiz-adv-x="475" d="M409 680 L409 175 Q409 81 364 36 Q319 -9 237 -9 Q157 -9 111.5 37.5 Q66 84 66 183 L66 680 L146 680 L146 182 Q146 60 237 60 Q329 60 329 182 L329 680 L409 680 Z " />
<glyph glyph-name="Uacute" unicode="&#xda;" horiz-adv-x="475" d="M409 680 L409 175 Q409 81 364 36 Q319 -9 237 -9 Q157 -9 111.5 37.5 Q66 84 66 183 L66 680 L146 680 L146 182 Q146 60 237 60 Q329 60 329 182 L329 680 L409 680 Z M268 744 L197 744 Q225 810 264 864 L358 864 Q308 804 268 744 Z " />
<glyph glyph-name="Ucircumflex" unicode="&#xdb;" horiz-adv-x="475" d="M409 680 L409 175 Q409 81 364 36 Q319 -9 237 -9 Q157 -9 111.5 37.5 Q66 84 66 183 L66 680 L146 680 L146 182 Q146 60 237 60 Q329 60 329 182 L329 680 L409 680 Z M299 744 Q271 790 237 827 Q198 785 175 744 L113 744 Q143 814 181 864 L292 864 Q333 811 361 744 L299 744 Z " />
<glyph glyph-name="Udieresis" unicode="&#xdc;" horiz-adv-x="475" d="M409 680 L409 175 Q409 81 364 36 Q319 -9 237 -9 Q157 -9 111.5 37.5 Q66 84 66 183 L66 680 L146 680 L146 182 Q146 60 237 60 Q329 60 329 182 L329 680 L409 680 Z M112 801 Q112 822 127 836.5 Q142 851 163 851 Q184 851 198.5 837 Q213 823 213 801 Q213 780 198.5 766 Q184 752 163 752 Q142 752 127 766 Q112 780 112 801 Z M263 801 Q263 821 278 836 Q293 851 314 851 Q335 851 349.5 836 Q364 821 364 801 Q364 781 349.5 766.5 Q335 752 314 752 Q293 752 278 766.5 Q263 781 263 801 Z " />
<glyph glyph-name="Ugrave" unicode="&#xd9;" horiz-adv-x="475" d="M409 680 L409 175 Q409 81 364 36 Q319 -9 237 -9 Q157 -9 111.5 37.5 Q66 84 66 183 L66 680 L146 680 L146 182 Q146 60 237 60 Q329 60 329 182 L329 680 L409 680 Z M211 864 Q250 810 278 744 L207 744 Q167 804 117 864 L211 864 Z " />
<glyph glyph-name="Uhungarumlaut" unicode="&#x170;" horiz-adv-x="475" d="M409 680 L409 175 Q409 81 364 36 Q319 -9 237 -9 Q157 -9 111.5 37.5 Q66 84 66 183 L66 680 L146 680 L146 182 Q146 60 237 60 Q329 60 329 182 L329 680 L409 680 Z M208 744 L146 744 Q164 792 202 864 L286 864 Q249 820 208 744 Z M325 744 L263 744 Q295 812 330 864 L414 864 Q390 834 325 744 Z " />
<glyph glyph-name="Umacron" unicode="&#x16a;" horiz-adv-x="475" d="M409 680 L409 175 Q409 81 364 36 Q319 -9 237 -9 Q157 -9 111.5 37.5 Q66 84 66 183 L66 680 L146 680 L146 182 Q146 60 237 60 Q329 60 329 182 L329 680 L409 680 Z M352 831 L352 767 L122 767 L122 831 L352 831 Z " />
<glyph glyph-name="Uogonek" unicode="&#x172;" horiz-adv-x="475" d="M233 -89 Q233 -44 268 -7 Q258 -9 237 -9 Q157 -9 111.5 37.5 Q66 84 66 183 L66 680 L146 680 L146 182 Q146 60 237 60 Q329 60 329 182 L329 680 L409 680 L409 175 Q409 129 400.5 100 Q392 71 378 54 Q364 37 340 15 Q315 -7 303 -25 Q291 -43 291 -69 Q291 -92 302 -104 Q313 -116 340 -116 L351 -116 L351 -164 Q338 -167 325 -167 Q282 -167 257.5 -147 Q233 -127 233 -89 Z " />
<glyph glyph-name="Uring" unicode="&#x16e;" horiz-adv-x="475" d="M409 680 L409 175 Q409 81 364 36 Q319 -9 237 -9 Q157 -9 111.5 37.5 Q66 84 66 183 L66 680 L146 680 L146 182 Q146 60 237 60 Q329 60 329 182 L329 680 L409 680 Z M140 815 Q140 854 168 879.5 Q196 905 237 905 Q278 905 306 879.5 Q334 854 334 815 Q334 776 306.5 751 Q279 726 237 726 Q195 726 167.5 751 Q140 776 140 815 Z M288 815 Q288 837 274 851.5 Q260 866 237 866 Q214 866 200 851.5 Q186 837 186 815 Q186 794 200 779 Q214 764 237 764 Q260 764 274 779 Q288 794 288 815 Z " />
<glyph glyph-name="V" unicode="V" horiz-adv-x="451" d="M423 680 Q395 502 358 323.5 Q321 145 285 26 Q280 11 272.5 5.5 Q265 0 247 0 L202 0 Q185 0 177.5 5.5 Q170 11 166 24 Q130 144 93 323.5 Q56 503 28 680 L110 680 Q129 542 161.5 380 Q194 218 227 86 Q259 209 291 372 Q323 535 345 680 L423 680 Z " />
<glyph glyph-name="W" unicode="W" horiz-adv-x="706" d="M669 680 Q650 498 621 321.5 Q592 145 558 26 Q553 11 546.5 5.5 Q540 0 523 0 L480 0 Q463 0 455 5.5 Q447 11 445 24 L353 507 L261 26 Q258 11 250.5 5.5 Q243 0 226 0 L182 0 Q166 0 159 5.5 Q152 11 148 24 Q113 143 85 318.5 Q57 494 37 680 L123 680 Q136 534 158.5 377.5 Q181 221 206 103 L315 680 L394 680 L502 98 Q528 215 550.5 372 Q573 529 587 680 L669 680 Z " />
<glyph glyph-name="Wacute" unicode="&#x1e82;" horiz-adv-x="706" d="M669 680 Q650 498 621 321.5 Q592 145 558 26 Q553 11 546.5 5.5 Q540 0 523 0 L480 0 Q463 0 455 5.5 Q447 11 445 24 L353 507 L261 26 Q258 11 250.5 5.5 Q243 0 226 0 L182 0 Q166 0 159 5.5 Q152 11 148 24 Q113 143 85 318.5 Q57 494 37 680 L123 680 Q136 534 158.5 377.5 Q181 221 206 103 L315 680 L394 680 L502 98 Q528 215 550.5 372 Q573 529 587 680 L669 680 Z M383 744 L312 744 Q340 810 379 864 L473 864 Q423 804 383 744 Z " />
<glyph glyph-name="Wcircumflex" unicode="&#x174;" horiz-adv-x="706" d="M669 680 Q650 498 621 321.5 Q592 145 558 26 Q553 11 546.5 5.5 Q540 0 523 0 L480 0 Q463 0 455 5.5 Q447 11 445 24 L353 507 L261 26 Q258 11 250.5 5.5 Q243 0 226 0 L182 0 Q166 0 159 5.5 Q152 11 148 24 Q113 143 85 318.5 Q57 494 37 680 L123 680 Q136 534 158.5 377.5 Q181 221 206 103 L315 680 L394 680 L502 98 Q528 215 550.5 372 Q573 529 587 680 L669 680 Z M414 744 Q386 790 352 827 Q313 785 290 744 L228 744 Q258 814 296 864 L407 864 Q448 811 476 744 L414 744 Z " />
<glyph glyph-name="Wdieresis" unicode="&#x1e84;" horiz-adv-x="706" d="M669 680 Q650 498 621 321.5 Q592 145 558 26 Q553 11 546.5 5.5 Q540 0 523 0 L480 0 Q463 0 455 5.5 Q447 11 445 24 L353 507 L261 26 Q258 11 250.5 5.5 Q243 0 226 0 L182 0 Q166 0 159 5.5 Q152 11 148 24 Q113 143 85 318.5 Q57 494 37 680 L123 680 Q136 534 158.5 377.5 Q181 221 206 103 L315 680 L394 680 L502 98 Q528 215 550.5 372 Q573 529 587 680 L669 680 Z M228 801 Q228 822 243 836.5 Q258 851 279 851 Q300 851 314.5 837 Q329 823 329 801 Q329 780 314.5 766 Q300 752 279 752 Q258 752 243 766 Q228 780 228 801 Z M379 801 Q379 821 394 836 Q409 851 430 851 Q451 851 465.5 836 Q480 821 480 801 Q480 781 465.5 766.5 Q451 752 430 752 Q409 752 394 766.5 Q379 781 379 801 Z " />
<glyph glyph-name="Wgrave" unicode="&#x1e80;" horiz-adv-x="706" d="M669 680 Q650 498 621 321.5 Q592 145 558 26 Q553 11 546.5 5.5 Q540 0 523 0 L480 0 Q463 0 455 5.5 Q447 11 445 24 L353 507 L261 26 Q258 11 250.5 5.5 Q243 0 226 0 L182 0 Q166 0 159 5.5 Q152 11 148 24 Q113 143 85 318.5 Q57 494 37 680 L123 680 Q136 534 158.5 377.5 Q181 221 206 103 L315 680 L394 680 L502 98 Q528 215 550.5 372 Q573 529 587 680 L669 680 Z M326 864 Q365 810 393 744 L322 744 Q282 804 232 864 L326 864 Z " />
<glyph glyph-name="X" unicode="X" horiz-adv-x="413" d="M304 0 Q267 128 206 288 Q153 155 106 0 L23 0 Q79 176 150 359 Q86 516 33 680 L117 680 Q150 567 206 419 Q263 564 295 680 L377 680 Q333 537 262 360 Q339 159 389 0 L304 0 Z " />
<glyph glyph-name="Y" unicode="Y" horiz-adv-x="418" d="M249 268 L249 0 L169 0 L169 268 Q67 502 10 680 L93 680 Q139 527 210 359 L211 359 Q249 453 276 527 Q303 601 326 680 L408 680 Q376 579 337.5 482 Q299 385 249 268 Z " />
<glyph glyph-name="Yacute" unicode="&#xdd;" horiz-adv-x="418" d="M249 268 L249 0 L169 0 L169 268 Q67 502 10 680 L93 680 Q139 527 210 359 L211 359 Q249 453 276 527 Q303 601 326 680 L408 680 Q376 579 337.5 482 Q299 385 249 268 Z M238 744 L167 744 Q195 810 234 864 L328 864 Q278 804 238 744 Z " />
<glyph glyph-name="Ycircumflex" unicode="&#x176;" horiz-adv-x="418" d="M249 268 L249 0 L169 0 L169 268 Q67 502 10 680 L93 680 Q139 527 210 359 L211 359 Q249 453 276 527 Q303 601 326 680 L408 680 Q376 579 337.5 482 Q299 385 249 268 Z M269 744 Q241 790 207 827 Q168 785 145 744 L83 744 Q113 814 151 864 L262 864 Q303 811 331 744 L269 744 Z " />
<glyph glyph-name="Ydieresis" unicode="&#x178;" horiz-adv-x="418" d="M249 268 L249 0 L169 0 L169 268 Q67 502 10 680 L93 680 Q139 527 210 359 L211 359 Q249 453 276 527 Q303 601 326 680 L408 680 Q376 579 337.5 482 Q299 385 249 268 Z M83 801 Q83 822 98 836.5 Q113 851 134 851 Q155 851 169.5 837 Q184 823 184 801 Q184 780 169.5 766 Q155 752 134 752 Q113 752 98 766 Q83 780 83 801 Z M234 801 Q234 821 249 836 Q264 851 285 851 Q306 851 320.5 836 Q335 821 335 801 Q335 781 320.5 766.5 Q306 752 285 752 Q264 752 249 766.5 Q234 781 234 801 Z " />
<glyph glyph-name="Ygrave" unicode="&#x1ef2;" horiz-adv-x="418" d="M249 268 L249 0 L169 0 L169 268 Q67 502 10 680 L93 680 Q139 527 210 359 L211 359 Q249 453 276 527 Q303 601 326 680 L408 680 Q376 579 337.5 482 Q299 385 249 268 Z M181 864 Q220 810 248 744 L177 744 Q137 804 87 864 L181 864 Z " />
<glyph glyph-name="Z" unicode="Z" horiz-adv-x="411" d="M383 628 L117 66 L381 66 L381 0 L28 0 L28 53 L295 614 L42 614 L42 680 L383 680 L383 628 Z " />
<glyph glyph-name="Zacute" unicode="&#x179;" horiz-adv-x="411" d="M383 628 L117 66 L381 66 L381 0 L28 0 L28 53 L295 614 L42 614 L42 680 L383 680 L383 628 Z M242 744 L171 744 Q199 810 238 864 L332 864 Q282 804 242 744 Z " />
<glyph glyph-name="Zcaron" unicode="&#x17d;" horiz-adv-x="411" d="M383 628 L117 66 L381 66 L381 0 L28 0 L28 53 L295 614 L42 614 L42 680 L383 680 L383 628 Z M335 864 Q307 797 266 744 L155 744 Q117 794 87 864 L149 864 Q172 823 211 781 Q245 818 273 864 L335 864 Z " />
<glyph glyph-name="Zdotaccent" unicode="&#x17b;" horiz-adv-x="411" d="M383 628 L117 66 L381 66 L381 0 L28 0 L28 53 L295 614 L42 614 L42 680 L383 680 L383 628 Z M160 801 Q160 823 175.5 838 Q191 853 213 853 Q235 853 250 838 Q265 823 265 801 Q265 779 250 764.5 Q235 750 213 750 Q191 750 175.5 764.5 Q160 779 160 801 Z " />
<glyph glyph-name="a" unicode="a" horiz-adv-x="428" d="M398 56 L398 0 Q383 -4 371 -4 Q343 -4 324 11.5 Q305 27 299 60 Q265 -8 181 -8 Q117 -8 79 28 Q41 64 41 124 Q41 200 99.5 244.5 Q158 289 289 312 L289 338 Q289 430 208 430 Q172 430 151.5 411 Q131 392 125 360 L52 360 Q57 418 98.5 456.5 Q140 495 208 495 Q281 495 322.5 454.5 Q364 414 364 336 L364 98 Q364 75 371.5 65.5 Q379 56 398 56 Z M289 155 L289 255 Q198 235 155.5 205 Q113 175 113 127 Q113 93 134.5 73 Q156 53 193 53 Q240 53 264.5 81 Q289 109 289 155 Z " />
<glyph glyph-name="aacute" unicode="&#xe1;" horiz-adv-x="428" d="M398 56 L398 0 Q383 -4 371 -4 Q343 -4 324 11.5 Q305 27 299 60 Q265 -8 181 -8 Q117 -8 79 28 Q41 64 41 124 Q41 200 99.5 244.5 Q158 289 289 312 L289 338 Q289 430 208 430 Q172 430 151.5 411 Q131 392 125 360 L52 360 Q57 418 98.5 456.5 Q140 495 208 495 Q281 495 322.5 454.5 Q364 414 364 336 L364 98 Q364 75 371.5 65.5 Q379 56 398 56 Z M289 155 L289 255 Q198 235 155.5 205 Q113 175 113 127 Q113 93 134.5 73 Q156 53 193 53 Q240 53 264.5 81 Q289 109 289 155 Z M240 560 L169 560 Q197 626 236 680 L330 680 Q280 620 240 560 Z " />
<glyph glyph-name="abreve" unicode="&#x103;" horiz-adv-x="428" d="M398 56 L398 0 Q383 -4 371 -4 Q343 -4 324 11.5 Q305 27 299 60 Q265 -8 181 -8 Q117 -8 79 28 Q41 64 41 124 Q41 200 99.5 244.5 Q158 289 289 312 L289 338 Q289 430 208 430 Q172 430 151.5 411 Q131 392 125 360 L52 360 Q57 418 98.5 456.5 Q140 495 208 495 Q281 495 322.5 454.5 Q364 414 364 336 L364 98 Q364 75 371.5 65.5 Q379 56 398 56 Z M289 155 L289 255 Q198 235 155.5 205 Q113 175 113 127 Q113 93 134.5 73 Q156 53 193 53 Q240 53 264.5 81 Q289 109 289 155 Z M334 680 Q334 628 300 595.5 Q266 563 210 563 Q153 563 119.5 595.5 Q86 628 86 680 L148 680 Q148 652 162 632.5 Q176 613 210 613 Q244 613 258.5 633 Q273 653 273 680 L334 680 L334 680 Z " />
<glyph glyph-name="acircumflex" unicode="&#xe2;" horiz-adv-x="428" d="M398 56 L398 0 Q383 -4 371 -4 Q343 -4 324 11.5 Q305 27 299 60 Q265 -8 181 -8 Q117 -8 79 28 Q41 64 41 124 Q41 200 99.5 244.5 Q158 289 289 312 L289 338 Q289 430 208 430 Q172 430 151.5 411 Q131 392 125 360 L52 360 Q57 418 98.5 456.5 Q140 495 208 495 Q281 495 322.5 454.5 Q364 414 364 336 L364 98 Q364 75 371.5 65.5 Q379 56 398 56 Z M289 155 L289 255 Q198 235 155.5 205 Q113 175 113 127 Q113 93 134.5 73 Q156 53 193 53 Q240 53 264.5 81 Q289 109 289 155 Z M271 560 Q243 606 209 643 Q170 601 147 560 L85 560 Q115 630 153 680 L264 680 Q305 627 333 560 L271 560 Z " />
<glyph glyph-name="adieresis" unicode="&#xe4;" horiz-adv-x="428" d="M398 56 L398 0 Q383 -4 371 -4 Q343 -4 324 11.5 Q305 27 299 60 Q265 -8 181 -8 Q117 -8 79 28 Q41 64 41 124 Q41 200 99.5 244.5 Q158 289 289 312 L289 338 Q289 430 208 430 Q172 430 151.5 411 Q131 392 125 360 L52 360 Q57 418 98.5 456.5 Q140 495 208 495 Q281 495 322.5 454.5 Q364 414 364 336 L364 98 Q364 75 371.5 65.5 Q379 56 398 56 Z M289 155 L289 255 Q198 235 155.5 205 Q113 175 113 127 Q113 93 134.5 73 Q156 53 193 53 Q240 53 264.5 81 Q289 109 289 155 Z M85 617 Q85 638 100 652.5 Q115 667 136 667 Q157 667 171.5 653 Q186 639 186 617 Q186 596 171.5 582 Q157 568 136 568 Q115 568 100 582 Q85 596 85 617 Z M236 617 Q236 637 251 652 Q266 667 287 667 Q308 667 322.5 652 Q337 637 337 617 Q337 597 322.5 582.5 Q308 568 287 568 Q266 568 251 582.5 Q236 597 236 617 Z " />
<glyph glyph-name="agrave" unicode="&#xe0;" horiz-adv-x="428" d="M398 56 L398 0 Q383 -4 371 -4 Q343 -4 324 11.5 Q305 27 299 60 Q265 -8 181 -8 Q117 -8 79 28 Q41 64 41 124 Q41 200 99.5 244.5 Q158 289 289 312 L289 338 Q289 430 208 430 Q172 430 151.5 411 Q131 392 125 360 L52 360 Q57 418 98.5 456.5 Q140 495 208 495 Q281 495 322.5 454.5 Q364 414 364 336 L364 98 Q364 75 371.5 65.5 Q379 56 398 56 Z M289 155 L289 255 Q198 235 155.5 205 Q113 175 113 127 Q113 93 134.5 73 Q156 53 193 53 Q240 53 264.5 81 Q289 109 289 155 Z M183 680 Q222 626 250 560 L179 560 Q139 620 89 680 L183 680 Z " />
<glyph glyph-name="amacron" unicode="&#x101;" horiz-adv-x="428" d="M398 56 L398 0 Q383 -4 371 -4 Q343 -4 324 11.5 Q305 27 299 60 Q265 -8 181 -8 Q117 -8 79 28 Q41 64 41 124 Q41 200 99.5 244.5 Q158 289 289 312 L289 338 Q289 430 208 430 Q172 430 151.5 411 Q131 392 125 360 L52 360 Q57 418 98.5 456.5 Q140 495 208 495 Q281 495 322.5 454.5 Q364 414 364 336 L364 98 Q364 75 371.5 65.5 Q379 56 398 56 Z M289 155 L289 255 Q198 235 155.5 205 Q113 175 113 127 Q113 93 134.5 73 Q156 53 193 53 Q240 53 264.5 81 Q289 109 289 155 Z M324 647 L324 583 L94 583 L94 647 L324 647 Z " />
<glyph glyph-name="aogonek" unicode="&#x105;" horiz-adv-x="428" d="M276 -95 Q276 -63 295 -39 Q314 -15 341 1 Q306 14 299 60 Q284 28 254 10 Q224 -8 181 -8 Q117 -8 79 27.5 Q41 63 41 123 Q41 200 100 245.5 Q159 291 289 314 L289 338 Q289 430 210 430 Q174 430 154 411 Q134 392 128 360 L55 360 Q59 418 100 456.5 Q141 495 209 495 Q282 495 323 455 Q364 415 364 336 L364 98 Q364 75 371.5 65.5 Q379 56 398 56 L398 0 Q335 -44 335 -82 Q335 -116 385 -116 L396 -116 L396 -164 Q383 -167 368 -167 Q326 -167 301 -148.5 Q276 -130 276 -95 Z M289 155 L289 258 Q197 236 155 206 Q113 176 113 127 Q113 93 134.5 73 Q156 53 193 53 Q240 53 264.5 81 Q289 109 289 155 Z " />
<glyph glyph-name="aring" unicode="&#xe5;" horiz-adv-x="428" d="M398 56 L398 0 Q383 -4 371 -4 Q343 -4 324 11.5 Q305 27 299 60 Q265 -8 181 -8 Q117 -8 79 28 Q41 64 41 124 Q41 200 99.5 244.5 Q158 289 289 312 L289 338 Q289 430 208 430 Q172 430 151.5 411 Q131 392 125 360 L52 360 Q57 418 98.5 456.5 Q140 495 208 495 Q281 495 322.5 454.5 Q364 414 364 336 L364 98 Q364 75 371.5 65.5 Q379 56 398 56 Z M289 155 L289 255 Q198 235 155.5 205 Q113 175 113 127 Q113 93 134.5 73 Q156 53 193 53 Q240 53 264.5 81 Q289 109 289 155 Z M113 631 Q113 670 141 695.5 Q169 721 210 721 Q251 721 279 695.5 Q307 670 307 631 Q307 592 279.5 567 Q252 542 210 542 Q168 542 140.5 567 Q113 592 113 631 Z M261 631 Q261 653 247 667.5 Q233 682 210 682 Q187 682 173 667.5 Q159 653 159 631 Q159 610 173 595 Q187 580 210 580 Q233 580 247 595 Q261 610 261 631 Z " />
<glyph glyph-name="atilde" unicode="&#xe3;" horiz-adv-x="428" d="M398 56 L398 0 Q383 -4 371 -4 Q343 -4 324 11.5 Q305 27 299 60 Q265 -8 181 -8 Q117 -8 79 28 Q41 64 41 124 Q41 200 99.5 244.5 Q158 289 289 312 L289 338 Q289 430 208 430 Q172 430 151.5 411 Q131 392 125 360 L52 360 Q57 418 98.5 456.5 Q140 495 208 495 Q281 495 322.5 454.5 Q364 414 364 336 L364 98 Q364 75 371.5 65.5 Q379 56 398 56 Z M289 155 L289 255 Q198 235 155.5 205 Q113 175 113 127 Q113 93 134.5 73 Q156 53 193 53 Q240 53 264.5 81 Q289 109 289 155 Z M260 567 Q241 567 224.5 575 Q208 583 190 596 Q175 606 166.5 610.5 Q158 615 149 615 Q130 615 122 602 Q114 589 112 566 L70 566 Q72 621 92.5 645.5 Q113 670 153 670 Q170 670 185 662.5 Q200 655 220 641 Q223 639 232.5 633 Q242 627 249.5 624 Q257 621 263 621 Q280 621 287.5 635.5 Q295 650 296 670 L338 670 Q336 615 317.5 591 Q299 567 260 567 Z " />
<glyph glyph-name="ae" unicode="&#xe6;" horiz-adv-x="656" d="M610 224 L365 224 L365 215 Q365 146 381.5 101.5 Q398 57 449 57 Q516 57 529 147 L607 147 Q595 67 556 29 Q517 -9 450 -9 Q353 -9 317 71 Q299 34 263 13 Q227 -8 178 -8 Q115 -8 78 26.5 Q41 61 41 122 Q41 188 98 229.5 Q155 271 288 283 L288 339 Q288 430 209 430 Q174 430 154 410 Q134 390 128 358 L54 358 Q59 416 100.5 455.5 Q142 495 209 495 Q296 495 330 438 Q368 495 450 495 Q529 495 568 444.5 Q607 394 610 287 L610 224 Z M365 287 L534 287 Q532 351 514.5 390 Q497 429 449 429 Q402 429 384 389.5 Q366 350 365 287 Z M288 154 L288 223 Q192 213 152.5 186.5 Q113 160 113 119 Q113 89 134 71 Q155 53 192 53 Q239 53 263.5 80.5 Q288 108 288 154 Z " />
<glyph glyph-name="b" unicode="b" horiz-adv-x="426" d="M378 277 L378 209 Q378 98 341.5 44.5 Q305 -9 237 -9 Q165 -9 132 51 L132 0 L63 0 L63 700 L139 700 L139 445 Q172 494 237 494 Q305 494 341.5 441 Q378 388 378 277 Z M303 266 Q303 349 284 389.5 Q265 430 218 430 Q178 430 159 395.5 Q140 361 139 302 L139 183 Q140 124 159.5 90 Q179 56 218 56 Q264 56 283.5 96 Q303 136 303 219 L303 266 Z " />
<glyph glyph-name="c" unicode="c" horiz-adv-x="393" d="M354 140 Q354 65 313.5 28 Q273 -9 209 -9 Q128 -9 87.5 43.5 Q47 96 47 211 L47 275 Q47 390 87.5 442.5 Q128 495 210 495 Q275 495 314.5 457.5 Q354 420 354 348 L354 336 L287 336 Q278 430 209 430 Q162 430 142.5 390 Q123 350 123 264 L123 222 Q123 136 142.5 96 Q162 56 209 56 Q280 56 286 149 L354 149 L354 140 Z " />
<glyph glyph-name="cacute" unicode="&#x107;" horiz-adv-x="393" d="M354 140 Q354 65 313.5 28 Q273 -9 209 -9 Q128 -9 87.5 43.5 Q47 96 47 211 L47 275 Q47 390 87.5 442.5 Q128 495 210 495 Q275 495 314.5 457.5 Q354 420 354 348 L354 336 L287 336 Q278 430 209 430 Q162 430 142.5 390 Q123 350 123 264 L123 222 Q123 136 142.5 96 Q162 56 209 56 Q280 56 286 149 L354 149 L354 140 Z M254 560 L183 560 Q211 626 250 680 L344 680 Q294 620 254 560 Z " />
<glyph glyph-name="ccaron" unicode="&#x10d;" horiz-adv-x="393" d="M354 140 Q354 65 313.5 28 Q273 -9 209 -9 Q128 -9 87.5 43.5 Q47 96 47 211 L47 275 Q47 390 87.5 442.5 Q128 495 210 495 Q275 495 314.5 457.5 Q354 420 354 348 L354 336 L287 336 Q278 430 209 430 Q162 430 142.5 390 Q123 350 123 264 L123 222 Q123 136 142.5 96 Q162 56 209 56 Q280 56 286 149 L354 149 L354 140 Z M347 680 Q319 613 278 560 L167 560 Q129 610 99 680 L161 680 Q184 639 223 597 Q257 634 285 680 L347 680 Z " />
<glyph glyph-name="ccedilla" unicode="&#xe7;" horiz-adv-x="393" d="M123 264 L123 222 Q123 136 142.5 96 Q162 56 209 56 Q280 56 286 149 L354 149 L354 140 Q354 72 320.5 35 Q287 -2 231 -8 L213 -41 Q255 -40 279.5 -59.5 Q304 -79 304 -111 Q304 -145 278.5 -167.5 Q253 -190 210 -190 Q159 -190 116 -160 L142 -120 Q172 -142 210 -142 Q230 -142 241.5 -134 Q253 -126 253 -111 Q253 -97 239 -89 Q225 -81 202 -81 Q189 -81 180.5 -83.5 Q172 -86 170 -87 L153 -65 L181 -7 Q114 1 80.5 54 Q47 107 47 211 L47 275 Q47 390 87.5 442.5 Q128 495 210 495 Q275 495 314.5 457.5 Q354 420 354 348 L354 336 L287 336 Q278 430 209 430 Q162 430 142.5 390 Q123 350 123 264 Z " />
<glyph glyph-name="cdotaccent" unicode="&#x10b;" horiz-adv-x="393" d="M354 140 Q354 65 313.5 28 Q273 -9 209 -9 Q128 -9 87.5 43.5 Q47 96 47 211 L47 275 Q47 390 87.5 442.5 Q128 495 210 495 Q275 495 314.5 457.5 Q354 420 354 348 L354 336 L287 336 Q278 430 209 430 Q162 430 142.5 390 Q123 350 123 264 L123 222 Q123 136 142.5 96 Q162 56 209 56 Q280 56 286 149 L354 149 L354 140 Z M172 617 Q172 639 187.5 654 Q203 669 225 669 Q247 669 262 654 Q277 639 277 617 Q277 595 262 580.5 Q247 566 225 566 Q203 566 187.5 580.5 Q172 595 172 617 Z " />
<glyph glyph-name="d" unicode="d" horiz-adv-x="426" d="M362 700 L362 0 L294 0 L294 51 Q261 -9 189 -9 Q121 -9 84 44.5 Q47 98 47 209 L47 277 Q47 388 84 441 Q121 494 189 494 Q254 494 287 445 L287 700 L362 700 Z M287 183 L287 302 Q286 361 267 395.5 Q248 430 208 430 Q161 430 142 389.5 Q123 349 123 266 L123 219 Q123 136 142.5 96 Q162 56 208 56 Q247 56 266.5 90 Q286 124 287 183 Z " />
<glyph glyph-name="eth" unicode="&#xf0;" horiz-adv-x="415" d="M367 297 L367 209 Q367 98 327 44.5 Q287 -9 207 -9 Q47 -9 47 209 L47 277 Q47 386 87.5 440.5 Q128 495 198 495 Q244 495 267 474 Q256 518 231 569 L123 539 L111 587 L206 614 Q175 667 139 700 L225 700 Q250 676 276 634 L350 655 L362 607 L300 589 Q330 527 348.5 452 Q367 377 367 297 Z M292 263 Q292 343 276 386.5 Q260 430 207 430 Q156 430 139.5 386 Q123 342 123 263 L123 223 Q123 145 139.5 100.5 Q156 56 207 56 Q260 56 276 100 Q292 144 292 223 L292 263 Z " />
<glyph glyph-name="dcaron" unicode="&#x10f;" horiz-adv-x="495" d="M362 700 L362 0 L294 0 L294 51 Q261 -9 189 -9 Q121 -9 84 44.5 Q47 98 47 209 L47 277 Q47 388 84 441 Q121 494 189 494 Q254 494 287 445 L287 700 L362 700 Z M287 183 L287 302 Q286 361 267 395.5 Q248 430 208 430 Q161 430 142 389.5 Q123 349 123 266 L123 219 Q123 136 142.5 96 Q162 56 208 56 Q247 56 266.5 90 Q286 124 287 183 Z M450 523 L416 523 Q423 559 429 608.5 Q435 658 435 700 L501 700 Q499 638 483.5 594 Q468 550 450 523 Z " />
<glyph glyph-name="dslash" unicode="&#x111;" horiz-adv-x="427" d="M414 555 L362 555 L362 0 L294 0 L294 51 Q261 -9 189 -9 Q121 -9 84 44.5 Q47 98 47 209 L47 277 Q47 388 84 441 Q121 494 189 494 Q254 494 287 445 L287 555 L191 555 L191 613 L287 613 L287 700 L362 700 L362 613 L414 613 L414 555 Z M287 183 L287 302 Q286 361 267 395.5 Q248 430 208 430 Q161 430 142 389.5 Q123 349 123 266 L123 219 Q123 136 142.5 96 Q162 56 208 56 Q247 56 266.5 90 Q286 124 287 183 Z " />
<glyph glyph-name="e" unicode="e" horiz-adv-x="414" d="M123 215 Q123 146 139.5 101.5 Q156 57 207 57 Q274 57 287 147 L365 147 Q353 67 314 29 Q275 -9 208 -9 Q126 -9 86.5 45.5 Q47 100 47 215 L47 271 Q47 386 86.5 440.5 Q126 495 208 495 Q290 495 329 440 Q368 385 368 267 L368 224 L123 224 L123 215 Z M123 287 L292 287 Q290 351 272.5 390 Q255 429 207 429 Q160 429 142 389.5 Q124 350 123 287 Z " />
<glyph glyph-name="eacute" unicode="&#xe9;" horiz-adv-x="414" d="M123 215 Q123 146 139.5 101.5 Q156 57 207 57 Q274 57 287 147 L365 147 Q353 67 314 29 Q275 -9 208 -9 Q126 -9 86.5 45.5 Q47 100 47 215 L47 271 Q47 386 86.5 440.5 Q126 495 208 495 Q290 495 329 440 Q368 385 368 267 L368 224 L123 224 L123 215 Z M123 287 L292 287 Q290 351 272.5 390 Q255 429 207 429 Q160 429 142 389.5 Q124 350 123 287 Z M245 560 L174 560 Q202 626 241 680 L335 680 Q285 620 245 560 Z " />
<glyph glyph-name="ecaron" unicode="&#x11b;" horiz-adv-x="414" d="M123 215 Q123 146 139.5 101.5 Q156 57 207 57 Q274 57 287 147 L365 147 Q353 67 314 29 Q275 -9 208 -9 Q126 -9 86.5 45.5 Q47 100 47 215 L47 271 Q47 386 86.5 440.5 Q126 495 208 495 Q290 495 329 440 Q368 385 368 267 L368 224 L123 224 L123 215 Z M123 287 L292 287 Q290 351 272.5 390 Q255 429 207 429 Q160 429 142 389.5 Q124 350 123 287 Z M338 680 Q310 613 269 560 L158 560 Q120 610 90 680 L152 680 Q175 639 214 597 Q248 634 276 680 L338 680 Z " />
<glyph glyph-name="ecircumflex" unicode="&#xea;" horiz-adv-x="414" d="M123 215 Q123 146 139.5 101.5 Q156 57 207 57 Q274 57 287 147 L365 147 Q353 67 314 29 Q275 -9 208 -9 Q126 -9 86.5 45.5 Q47 100 47 215 L47 271 Q47 386 86.5 440.5 Q126 495 208 495 Q290 495 329 440 Q368 385 368 267 L368 224 L123 224 L123 215 Z M123 287 L292 287 Q290 351 272.5 390 Q255 429 207 429 Q160 429 142 389.5 Q124 350 123 287 Z M276 560 Q248 606 214 643 Q175 601 152 560 L90 560 Q120 630 158 680 L269 680 Q310 627 338 560 L276 560 Z " />
<glyph glyph-name="edieresis" unicode="&#xeb;" horiz-adv-x="414" d="M123 215 Q123 146 139.5 101.5 Q156 57 207 57 Q274 57 287 147 L365 147 Q353 67 314 29 Q275 -9 208 -9 Q126 -9 86.5 45.5 Q47 100 47 215 L47 271 Q47 386 86.5 440.5 Q126 495 208 495 Q290 495 329 440 Q368 385 368 267 L368 224 L123 224 L123 215 Z M123 287 L292 287 Q290 351 272.5 390 Q255 429 207 429 Q160 429 142 389.5 Q124 350 123 287 Z M90 617 Q90 638 105 652.5 Q120 667 141 667 Q162 667 176.5 653 Q191 639 191 617 Q191 596 176.5 582 Q162 568 141 568 Q120 568 105 582 Q90 596 90 617 Z M241 617 Q241 637 256 652 Q271 667 292 667 Q313 667 327.5 652 Q342 637 342 617 Q342 597 327.5 582.5 Q313 568 292 568 Q271 568 256 582.5 Q241 597 241 617 Z " />
<glyph glyph-name="edotaccent" unicode="&#x117;" horiz-adv-x="414" d="M123 215 Q123 146 139.5 101.5 Q156 57 207 57 Q274 57 287 147 L365 147 Q353 67 314 29 Q275 -9 208 -9 Q126 -9 86.5 45.5 Q47 100 47 215 L47 271 Q47 386 86.5 440.5 Q126 495 208 495 Q290 495 329 440 Q368 385 368 267 L368 224 L123 224 L123 215 Z M123 287 L292 287 Q290 351 272.5 390 Q255 429 207 429 Q160 429 142 389.5 Q124 350 123 287 Z M163 617 Q163 639 178.5 654 Q194 669 216 669 Q238 669 253 654 Q268 639 268 617 Q268 595 253 580.5 Q238 566 216 566 Q194 566 178.5 580.5 Q163 595 163 617 Z " />
<glyph glyph-name="egrave" unicode="&#xe8;" horiz-adv-x="414" d="M123 215 Q123 146 139.5 101.5 Q156 57 207 57 Q274 57 287 147 L365 147 Q353 67 314 29 Q275 -9 208 -9 Q126 -9 86.5 45.5 Q47 100 47 215 L47 271 Q47 386 86.5 440.5 Q126 495 208 495 Q290 495 329 440 Q368 385 368 267 L368 224 L123 224 L123 215 Z M123 287 L292 287 Q290 351 272.5 390 Q255 429 207 429 Q160 429 142 389.5 Q124 350 123 287 Z M188 680 Q227 626 255 560 L184 560 Q144 620 94 680 L188 680 Z " />
<glyph glyph-name="emacron" unicode="&#x113;" horiz-adv-x="414" d="M123 215 Q123 146 139.5 101.5 Q156 57 207 57 Q274 57 287 147 L365 147 Q353 67 314 29 Q275 -9 208 -9 Q126 -9 86.5 45.5 Q47 100 47 215 L47 271 Q47 386 86.5 440.5 Q126 495 208 495 Q290 495 329 440 Q368 385 368 267 L368 224 L123 224 L123 215 Z M123 287 L292 287 Q290 351 272.5 390 Q255 429 207 429 Q160 429 142 389.5 Q124 350 123 287 Z M330 647 L330 583 L100 583 L100 647 L330 647 Z " />
<glyph glyph-name="eogonek" unicode="&#x119;" horiz-adv-x="414" d="M193 -87 Q193 -46 228 -8 Q221 -9 208 -9 Q126 -9 86.5 45.5 Q47 100 47 215 L47 271 Q47 386 86.5 440.5 Q126 495 208 495 Q286 495 325 444.5 Q364 394 368 287 L368 224 L123 224 Q122 137 142 97 Q162 57 207 57 Q274 57 287 147 L365 147 Q358 100 343.5 69 Q329 38 303 16 Q276 -7 264 -27.5 Q252 -48 252 -73 Q252 -95 264 -105.5 Q276 -116 302 -116 L313 -116 L313 -164 Q299 -167 285 -167 Q242 -167 217.5 -146 Q193 -125 193 -87 Z M292 287 Q290 351 272.5 390 Q255 429 207 429 Q160 429 142 389.5 Q124 350 122 287 L292 287 Z " />
<glyph glyph-name="f" unicode="f" horiz-adv-x="277" d="M244 641 Q201 641 184 620.5 Q167 600 167 550 L167 486 L254 486 L254 426 L167 426 L167 0 L92 0 L92 426 L27 426 L27 486 L92 486 L92 563 Q92 630 123 667 Q154 704 215 704 Q244 704 263 700 L263 640 L244 641 Z " />
<glyph glyph-name="g" unicode="g" horiz-adv-x="421" d="M359 486 L359 -7 Q359 -83 322 -126 Q285 -169 211 -169 Q136 -169 98.5 -133.5 Q61 -98 61 -46 L61 -34 L138 -34 Q140 -62 157.5 -84 Q175 -106 210 -106 Q284 -106 284 -6 L284 68 Q254 21 190 21 Q123 21 86.5 74 Q50 127 50 239 L50 277 Q50 494 190 494 Q260 494 290 436 L290 486 L359 486 Z M284 213 L284 302 Q282 430 208 430 Q161 430 143 390 Q125 350 125 266 L125 249 Q125 165 143.5 125.5 Q162 86 208 86 Q282 86 284 213 Z " />
<glyph glyph-name="gbreve" unicode="&#x11f;" horiz-adv-x="421" d="M359 486 L359 -7 Q359 -83 322 -126 Q285 -169 211 -169 Q136 -169 98.5 -133.5 Q61 -98 61 -46 L61 -34 L138 -34 Q140 -62 157.5 -84 Q175 -106 210 -106 Q284 -106 284 -6 L284 68 Q254 21 190 21 Q123 21 86.5 74 Q50 127 50 239 L50 277 Q50 494 190 494 Q260 494 290 436 L290 486 L359 486 Z M284 213 L284 302 Q282 430 208 430 Q161 430 143 390 Q125 350 125 266 L125 249 Q125 165 143.5 125.5 Q162 86 208 86 Q282 86 284 213 Z M342 680 Q342 628 308 595.5 Q274 563 218 563 Q161 563 127.5 595.5 Q94 628 94 680 L156 680 Q156 652 170 632.5 Q184 613 218 613 Q252 613 266.5 633 Q281 653 281 680 L342 680 L342 680 Z " />
<glyph glyph-name="gcommaaccent" unicode="&#x123;" horiz-adv-x="421" d="M359 486 L359 -7 Q359 -83 322 -126 Q285 -169 211 -169 Q136 -169 98.5 -133.5 Q61 -98 61 -46 L61 -34 L138 -34 Q140 -62 157.5 -84 Q175 -106 210 -106 Q284 -106 284 -6 L284 68 Q254 21 190 21 Q123 21 86.5 74 Q50 127 50 239 L50 277 Q50 494 190 494 Q260 494 290 436 L290 486 L359 486 Z M284 213 L284 302 Q282 430 208 430 Q161 430 143 390 Q125 350 125 266 L125 249 Q125 165 143.5 125.5 Q162 86 208 86 Q282 86 284 213 Z M251 549 L178 549 Q179 596 192 630 Q205 664 225 695 L267 695 Q251 619 251 549 Z " />
<glyph glyph-name="gdotaccent" unicode="&#x121;" horiz-adv-x="421" d="M359 486 L359 -7 Q359 -83 322 -126 Q285 -169 211 -169 Q136 -169 98.5 -133.5 Q61 -98 61 -46 L61 -34 L138 -34 Q140 -62 157.5 -84 Q175 -106 210 -106 Q284 -106 284 -6 L284 68 Q254 21 190 21 Q123 21 86.5 74 Q50 127 50 239 L50 277 Q50 494 190 494 Q260 494 290 436 L290 486 L359 486 Z M284 213 L284 302 Q282 430 208 430 Q161 430 143 390 Q125 350 125 266 L125 249 Q125 165 143.5 125.5 Q162 86 208 86 Q282 86 284 213 Z M166 617 Q166 639 181.5 654 Q197 669 219 669 Q241 669 256 654 Q271 639 271 617 Q271 595 256 580.5 Q241 566 219 566 Q197 566 181.5 580.5 Q166 595 166 617 Z " />
<glyph glyph-name="h" unicode="h" horiz-adv-x="430" d="M368 343 L368 0 L293 0 L293 331 Q293 380 275.5 405 Q258 430 219 430 Q139 430 139 330 L139 0 L63 0 L63 700 L139 700 L139 439 Q154 463 179.5 479 Q205 495 242 495 Q368 495 368 343 Z " />
<glyph glyph-name="hbar" unicode="&#x127;" horiz-adv-x="431" d="M370 343 L370 0 L294 0 L294 331 Q294 380 277 405 Q260 430 220 430 Q180 430 160 404 Q140 378 140 330 L140 0 L65 0 L65 555 L26 555 L26 612 L65 612 L65 700 L140 700 L140 612 L249 612 L249 555 L140 555 L140 439 Q155 463 180.5 479 Q206 495 243 495 Q370 495 370 343 Z " />
<glyph glyph-name="i" unicode="i" horiz-adv-x="202" d="M139 0 L63 0 L63 486 L139 486 L139 0 Z M50 617 Q50 639 65.5 654 Q81 669 103 669 Q125 669 140 654 Q155 639 155 617 Q155 595 140 580.5 Q125 566 103 566 Q81 566 65.5 580.5 Q50 595 50 617 Z " />
<glyph glyph-name="dotlessi" unicode="&#x131;" horiz-adv-x="202" d="M139 0 L63 0 L63 486 L139 486 L139 0 Z " />
<glyph glyph-name="iacute" unicode="&#xed;" horiz-adv-x="202" d="M139 0 L63 0 L63 486 L139 486 L139 0 Z M131 560 L60 560 Q88 626 127 680 L221 680 Q171 620 131 560 Z " />
<glyph glyph-name="icircumflex" unicode="&#xee;" horiz-adv-x="202" d="M139 0 L63 0 L63 486 L139 486 L139 0 Z M163 560 Q135 606 101 643 Q62 601 39 560 L-23 560 Q7 630 45 680 L156 680 Q197 627 225 560 L163 560 Z " />
<glyph glyph-name="idieresis" unicode="&#xef;" horiz-adv-x="202" d="M139 0 L63 0 L63 486 L139 486 L139 0 Z M-24 617 Q-24 638 -9 652.5 Q6 667 27 667 Q48 667 62.5 653 Q77 639 77 617 Q77 596 62.5 582 Q48 568 27 568 Q6 568 -9 582 Q-24 596 -24 617 Z M127 617 Q127 637 142 652 Q157 667 178 667 Q199 667 213.5 652 Q228 637 228 617 Q228 597 213.5 582.5 Q199 568 178 568 Q157 568 142 582.5 Q127 597 127 617 Z " />
<glyph glyph-name="igrave" unicode="&#xec;" horiz-adv-x="202" d="M139 0 L63 0 L63 486 L139 486 L139 0 Z M74 680 Q113 626 141 560 L70 560 Q30 620 -20 680 L74 680 Z " />
<glyph glyph-name="imacron" unicode="&#x12b;" horiz-adv-x="202" d="M139 0 L63 0 L63 486 L139 486 L139 0 Z M216 647 L216 583 L-14 583 L-14 647 L216 647 Z " />
<glyph glyph-name="iogonek" unicode="&#x12f;" horiz-adv-x="205" d="M51 617 Q51 639 66.5 654 Q82 669 104 669 Q126 669 141 654 Q156 639 156 617 Q156 595 141 580.5 Q126 566 104 566 Q82 566 66.5 580.5 Q51 595 51 617 Z M91 -82 Q91 -116 141 -116 L151 -116 L151 -164 Q137 -167 124 -167 Q81 -167 56.5 -148.5 Q32 -130 32 -95 Q32 -39 96 0 L65 0 L65 486 L140 486 L140 8 L154 0 Q91 -43 91 -82 Z " />
<glyph glyph-name="j" unicode="j" horiz-adv-x="202" d="M50 617 Q50 639 65 654 Q80 669 102 669 Q124 669 139.5 654 Q155 639 155 617 Q155 595 139.5 580.5 Q124 566 102 566 Q80 566 65 580.5 Q50 595 50 617 Z M-1 -95 Q30 -91 46.5 -70 Q63 -49 63 5 L63 486 L139 486 L139 10 Q139 -80 104 -119.5 Q69 -159 -1 -162 L-1 -95 Z " />
<glyph glyph-name="k" unicode="k" horiz-adv-x="413" d="M217 232 Q174 179 139 140 L139 0 L63 0 L63 700 L139 700 L139 234 Q183 291 225.5 358 Q268 425 298 486 L379 486 Q329 387 265 298 Q304 226 340 143.5 Q376 61 397 0 L319 0 Q301 52 273 116 Q245 180 217 232 Z " />
<glyph glyph-name="kcommaaccent" unicode="&#x137;" horiz-adv-x="413" d="M217 232 Q174 179 139 140 L139 0 L63 0 L63 700 L139 700 L139 234 Q183 291 225.5 358 Q268 425 298 486 L379 486 Q329 387 265 298 Q304 226 340 143.5 Q376 61 397 0 L319 0 Q301 52 273 116 Q245 180 217 232 Z M171 -54 L243 -54 Q242 -101 229.5 -135.5 Q217 -170 197 -200 L154 -200 Q171 -119 171 -54 Z " />
<glyph glyph-name="l" unicode="l" horiz-adv-x="211" d="M138 101 Q138 72 150 63 Q162 54 190 54 L190 0 Q173 -7 152 -7 Q107 -7 85 16.5 Q63 40 63 98 L63 700 L138 700 L138 101 Z " />
<glyph glyph-name="lacute" unicode="&#x13a;" horiz-adv-x="211" d="M138 101 Q138 72 150 63 Q162 54 190 54 L190 0 Q173 -7 152 -7 Q107 -7 85 16.5 Q63 40 63 98 L63 700 L138 700 L138 101 Z M133 754 L62 754 Q90 820 129 874 L223 874 Q173 814 133 754 Z " />
<glyph glyph-name="lcaron" unicode="&#x13e;" horiz-adv-x="263" d="M138 101 Q138 72 150 63 Q162 54 190 54 L190 0 Q173 -7 152 -7 Q107 -7 85 16.5 Q63 40 63 98 L63 700 L138 700 L138 101 Z M217 523 L183 523 Q190 559 196 608.5 Q202 658 202 700 L268 700 Q266 638 250.5 594 Q235 550 217 523 Z " />
<glyph glyph-name="lcommaaccent" unicode="&#x13c;" horiz-adv-x="211" d="M138 101 Q138 72 150 63 Q162 54 190 54 L190 0 Q173 -7 152 -7 Q107 -7 85 16.5 Q63 40 63 98 L63 700 L138 700 L138 101 Z M88 -54 L160 -54 Q159 -101 146.5 -135.5 Q134 -170 114 -200 L71 -200 Q88 -119 88 -54 Z " />
<glyph glyph-name="lslash" unicode="&#x142;" horiz-adv-x="264" d="M164 373 L164 110 Q164 77 176 67 Q188 57 216 57 L216 2 Q200 -4 181 -4 Q135 -4 112 19.5 Q89 43 89 101 L89 325 L19 281 L19 345 L89 389 L89 700 L164 700 L164 437 L239 485 L239 420 L164 373 Z " />
<glyph glyph-name="m" unicode="m" horiz-adv-x="642" d="M581 343 L581 0 L505 0 L505 331 Q505 380 488.5 405 Q472 430 435 430 Q398 430 379 404 Q360 378 360 330 L360 0 L284 0 L284 331 Q284 380 267.5 405 Q251 430 214 430 Q177 430 158 404 Q139 378 139 330 L139 0 L63 0 L63 486 L135 486 L135 434 Q148 460 175 477.5 Q202 495 237 495 Q314 495 344 432 Q360 459 387 477 Q414 495 453 495 Q581 495 581 343 Z " />
<glyph glyph-name="n" unicode="n" horiz-adv-x="430" d="M368 343 L368 0 L293 0 L293 331 Q293 380 275.5 405 Q258 430 219 430 Q139 430 139 330 L139 0 L63 0 L63 486 L132 486 L132 427 Q145 455 173 475 Q201 495 242 495 Q368 495 368 343 Z " />
<glyph glyph-name="nacute" unicode="&#x144;" horiz-adv-x="430" d="M368 343 L368 0 L293 0 L293 331 Q293 380 275.5 405 Q258 430 219 430 Q139 430 139 330 L139 0 L63 0 L63 486 L132 486 L132 427 Q145 455 173 475 Q201 495 242 495 Q368 495 368 343 Z M253 560 L182 560 Q210 626 249 680 L343 680 Q293 620 253 560 Z " />
<glyph glyph-name="ncaron" unicode="&#x148;" horiz-adv-x="430" d="M368 343 L368 0 L293 0 L293 331 Q293 380 275.5 405 Q258 430 219 430 Q139 430 139 330 L139 0 L63 0 L63 486 L132 486 L132 427 Q145 455 173 475 Q201 495 242 495 Q368 495 368 343 Z M346 680 Q318 613 277 560 L166 560 Q128 610 98 680 L160 680 Q183 639 222 597 Q256 634 284 680 L346 680 Z " />
<glyph glyph-name="ncommaaccent" unicode="&#x146;" horiz-adv-x="430" d="M368 343 L368 0 L293 0 L293 331 Q293 380 275.5 405 Q258 430 219 430 Q139 430 139 330 L139 0 L63 0 L63 486 L132 486 L132 427 Q145 455 173 475 Q201 495 242 495 Q368 495 368 343 Z M181 -54 L253 -54 Q252 -101 239.5 -135.5 Q227 -170 207 -200 L164 -200 Q181 -119 181 -54 Z " />
<glyph glyph-name="eng" unicode="&#x14b;" horiz-adv-x="430" d="M368 343 L368 0 L293 0 L293 331 Q293 380 275.5 405 Q258 430 219 430 Q139 430 139 330 L139 0 L63 0 L63 486 L132 486 L132 427 Q145 455 173 475 Q201 495 242 495 Q368 495 368 343 Z " />
<glyph glyph-name="ntilde" unicode="&#xf1;" horiz-adv-x="430" d="M368 343 L368 0 L293 0 L293 331 Q293 380 275.5 405 Q258 430 219 430 Q139 430 139 330 L139 0 L63 0 L63 486 L132 486 L132 427 Q145 455 173 475 Q201 495 242 495 Q368 495 368 343 Z M273 567 Q254 567 237.5 575 Q221 583 203 596 Q188 606 179.5 610.5 Q171 615 162 615 Q143 615 135 602 Q127 589 125 566 L83 566 Q85 621 105.5 645.5 Q126 670 166 670 Q183 670 198 662.5 Q213 655 233 641 Q236 639 245.5 633 Q255 627 262.5 624 Q270 621 276 621 Q293 621 300.5 635.5 Q308 650 309 670 L351 670 Q349 615 330.5 591 Q312 567 273 567 Z " />
<glyph glyph-name="o" unicode="o" horiz-adv-x="415" d="M47 215 L47 271 Q47 387 86 441 Q125 495 207 495 Q289 495 328 441 Q367 387 367 271 L367 215 Q367 99 328 45 Q289 -9 207 -9 Q125 -9 86 45 Q47 99 47 215 Z M292 217 L292 269 Q292 342 275 386 Q258 430 207 430 Q157 430 140 386 Q123 342 123 269 L123 217 Q123 145 140 100.5 Q157 56 207 56 Q258 56 275 100 Q292 144 292 217 Z " />
<glyph glyph-name="oacute" unicode="&#xf3;" horiz-adv-x="415" d="M47 215 L47 271 Q47 387 86 441 Q125 495 207 495 Q289 495 328 441 Q367 387 367 271 L367 215 Q367 99 328 45 Q289 -9 207 -9 Q125 -9 86 45 Q47 99 47 215 Z M292 217 L292 269 Q292 342 275 386 Q258 430 207 430 Q157 430 140 386 Q123 342 123 269 L123 217 Q123 145 140 100.5 Q157 56 207 56 Q258 56 275 100 Q292 144 292 217 Z M238 560 L167 560 Q195 626 234 680 L328 680 Q278 620 238 560 Z " />
<glyph glyph-name="ocircumflex" unicode="&#xf4;" horiz-adv-x="415" d="M47 215 L47 271 Q47 387 86 441 Q125 495 207 495 Q289 495 328 441 Q367 387 367 271 L367 215 Q367 99 328 45 Q289 -9 207 -9 Q125 -9 86 45 Q47 99 47 215 Z M292 217 L292 269 Q292 342 275 386 Q258 430 207 430 Q157 430 140 386 Q123 342 123 269 L123 217 Q123 145 140 100.5 Q157 56 207 56 Q258 56 275 100 Q292 144 292 217 Z M269 560 Q241 606 207 643 Q168 601 145 560 L83 560 Q113 630 151 680 L262 680 Q303 627 331 560 L269 560 Z " />
<glyph glyph-name="odieresis" unicode="&#xf6;" horiz-adv-x="415" d="M47 215 L47 271 Q47 387 86 441 Q125 495 207 495 Q289 495 328 441 Q367 387 367 271 L367 215 Q367 99 328 45 Q289 -9 207 -9 Q125 -9 86 45 Q47 99 47 215 Z M292 217 L292 269 Q292 342 275 386 Q258 430 207 430 Q157 430 140 386 Q123 342 123 269 L123 217 Q123 145 140 100.5 Q157 56 207 56 Q258 56 275 100 Q292 144 292 217 Z M82 617 Q82 638 97 652.5 Q112 667 133 667 Q154 667 168.5 653 Q183 639 183 617 Q183 596 168.5 582 Q154 568 133 568 Q112 568 97 582 Q82 596 82 617 Z M233 617 Q233 637 248 652 Q263 667 284 667 Q305 667 319.5 652 Q334 637 334 617 Q334 597 319.5 582.5 Q305 568 284 568 Q263 568 248 582.5 Q233 597 233 617 Z " />
<glyph glyph-name="ograve" unicode="&#xf2;" horiz-adv-x="415" d="M47 215 L47 271 Q47 387 86 441 Q125 495 207 495 Q289 495 328 441 Q367 387 367 271 L367 215 Q367 99 328 45 Q289 -9 207 -9 Q125 -9 86 45 Q47 99 47 215 Z M292 217 L292 269 Q292 342 275 386 Q258 430 207 430 Q157 430 140 386 Q123 342 123 269 L123 217 Q123 145 140 100.5 Q157 56 207 56 Q258 56 275 100 Q292 144 292 217 Z M181 680 Q220 626 248 560 L177 560 Q137 620 87 680 L181 680 Z " />
<glyph glyph-name="ohungarumlaut" unicode="&#x151;" horiz-adv-x="415" d="M47 215 L47 271 Q47 387 86 441 Q125 495 207 495 Q289 495 328 441 Q367 387 367 271 L367 215 Q367 99 328 45 Q289 -9 207 -9 Q125 -9 86 45 Q47 99 47 215 Z M292 217 L292 269 Q292 342 275 386 Q258 430 207 430 Q157 430 140 386 Q123 342 123 269 L123 217 Q123 145 140 100.5 Q157 56 207 56 Q258 56 275 100 Q292 144 292 217 Z M178 560 L116 560 Q134 608 172 680 L256 680 Q219 636 178 560 Z M295 560 L233 560 Q265 628 300 680 L384 680 Q360 650 295 560 Z " />
<glyph glyph-name="omacron" unicode="&#x14d;" horiz-adv-x="415" d="M47 215 L47 271 Q47 387 86 441 Q125 495 207 495 Q289 495 328 441 Q367 387 367 271 L367 215 Q367 99 328 45 Q289 -9 207 -9 Q125 -9 86 45 Q47 99 47 215 Z M292 217 L292 269 Q292 342 275 386 Q258 430 207 430 Q157 430 140 386 Q123 342 123 269 L123 217 Q123 145 140 100.5 Q157 56 207 56 Q258 56 275 100 Q292 144 292 217 Z M322 647 L322 583 L92 583 L92 647 L322 647 Z " />
<glyph glyph-name="oslash" unicode="&#xf8;" horiz-adv-x="420" d="M373 271 L373 215 Q373 99 333.5 45 Q294 -9 210 -9 Q157 -9 120 14 L102 -20 L58 1 L84 51 Q47 104 47 215 L47 271 Q47 387 87 441 Q127 495 210 495 Q266 495 300 472 L317 505 L361 486 L336 437 Q373 382 373 271 Z M129 139 L266 407 Q245 430 210 430 Q158 430 140.5 386 Q123 342 123 269 L123 217 Q123 168 129 139 Z M298 269 Q298 320 292 350 L154 80 Q175 56 210 56 Q263 56 280.5 100.5 Q298 145 298 217 L298 269 Z " />
<glyph glyph-name="otilde" unicode="&#xf5;" horiz-adv-x="415" d="M47 215 L47 271 Q47 387 86 441 Q125 495 207 495 Q289 495 328 441 Q367 387 367 271 L367 215 Q367 99 328 45 Q289 -9 207 -9 Q125 -9 86 45 Q47 99 47 215 Z M292 217 L292 269 Q292 342 275 386 Q258 430 207 430 Q157 430 140 386 Q123 342 123 269 L123 217 Q123 145 140 100.5 Q157 56 207 56 Q258 56 275 100 Q292 144 292 217 Z M258 567 Q239 567 222.5 575 Q206 583 188 596 Q173 606 164.5 610.5 Q156 615 147 615 Q128 615 120 602 Q112 589 110 566 L68 566 Q70 621 90.5 645.5 Q111 670 151 670 Q168 670 183 662.5 Q198 655 218 641 Q221 639 230.5 633 Q240 627 247.5 624 Q255 621 261 621 Q278 621 285.5 635.5 Q293 650 294 670 L336 670 Q334 615 315.5 591 Q297 567 258 567 Z " />
<glyph glyph-name="oe" unicode="&#x153;" horiz-adv-x="657" d="M366 215 Q366 146 383 101.5 Q400 57 451 57 Q517 57 530 147 L608 147 Q596 67 557 29 Q518 -9 451 -9 Q368 -9 329 52 Q292 -9 207 -9 Q125 -9 86 45 Q47 99 47 215 L47 271 Q47 387 86 441 Q125 495 207 495 Q292 495 329 434 Q368 495 451 495 Q533 495 572 440 Q611 385 611 267 L611 224 L366 224 L366 215 Z M292 269 Q292 342 275 386 Q258 430 207 430 Q157 430 140 386 Q123 342 123 269 L123 217 Q123 145 140 100.5 Q157 56 207 56 Q258 56 275 100 Q292 144 292 217 L292 269 Z M366 287 L535 287 Q533 351 515.5 390 Q498 429 451 429 Q404 429 386 389.5 Q368 350 366 287 Z " />
<glyph glyph-name="p" unicode="p" horiz-adv-x="425" d="M377 277 L377 209 Q377 98 340.5 44.5 Q304 -9 236 -9 Q172 -9 139 39 L139 -160 L63 -160 L63 486 L132 486 L132 436 Q165 494 236 494 Q304 494 340.5 441 Q377 388 377 277 Z M302 266 Q302 349 283 389.5 Q264 430 217 430 Q182 430 162.5 402.5 Q143 375 139 327 L139 159 Q143 111 162.5 83.5 Q182 56 217 56 Q263 56 282.5 96 Q302 136 302 219 L302 266 Z " />
<glyph glyph-name="thorn" unicode="&#xfe;" horiz-adv-x="425" d="M377 277 L377 209 Q377 98 340.5 44.5 Q304 -9 236 -9 Q172 -9 139 39 L139 -160 L63 -160 L63 700 L139 700 L139 446 Q172 494 236 494 Q304 494 340.5 441 Q377 388 377 277 Z M302 266 Q302 349 283 389.5 Q264 430 217 430 Q182 430 162.5 402.5 Q143 375 139 327 L139 159 Q143 111 162.5 83.5 Q182 56 217 56 Q263 56 282.5 96 Q302 136 302 219 L302 266 Z " />
<glyph glyph-name="q" unicode="q" horiz-adv-x="425" d="M361 486 L361 -160 L286 -160 L286 39 Q253 -9 189 -9 Q121 -9 84 44.5 Q47 98 47 209 L47 277 Q47 388 84 441 Q121 494 189 494 Q259 494 292 436 L292 486 L361 486 Z M286 159 L286 327 Q282 375 262.5 402.5 Q243 430 208 430 Q161 430 142 389.5 Q123 349 123 266 L123 219 Q123 136 142.5 96 Q162 56 208 56 Q243 56 262.5 83.5 Q282 111 286 159 Z " />
<glyph glyph-name="r" unicode="r" horiz-adv-x="289" d="M281 486 L281 411 Q263 415 246 415 Q139 415 139 266 L139 0 L63 0 L63 486 L132 486 L132 400 Q142 435 170 463 Q198 491 244 491 Q268 491 281 486 Z " />
<glyph glyph-name="racute" unicode="&#x155;" horiz-adv-x="289" d="M281 486 L281 411 Q263 415 246 415 Q139 415 139 266 L139 0 L63 0 L63 486 L132 486 L132 400 Q142 435 170 463 Q198 491 244 491 Q268 491 281 486 Z M208 559 L137 559 Q165 625 204 679 L298 679 Q248 619 208 559 Z " />
<glyph glyph-name="rcaron" unicode="&#x159;" horiz-adv-x="289" d="M281 486 L281 411 Q263 415 246 415 Q139 415 139 266 L139 0 L63 0 L63 486 L132 486 L132 400 Q142 435 170 463 Q198 491 244 491 Q268 491 281 486 Z M301 679 Q273 612 232 559 L121 559 Q83 609 53 679 L115 679 Q138 638 177 596 Q211 633 239 679 L301 679 Z " />
<glyph glyph-name="rcommaaccent" unicode="&#x157;" horiz-adv-x="289" d="M281 486 L281 411 Q263 415 246 415 Q139 415 139 266 L139 0 L63 0 L63 486 L132 486 L132 400 Q142 435 170 463 Q198 491 244 491 Q268 491 281 486 Z M67 -54 L139 -54 Q138 -101 125.5 -135.5 Q113 -170 93 -200 L50 -200 Q67 -119 67 -54 Z " />
<glyph glyph-name="s" unicode="s" horiz-adv-x="372" d="M323 369 L323 350 L260 350 Q257 389 240.5 411 Q224 433 186 433 Q155 433 137.5 416 Q120 399 120 366 Q120 340 137.5 320.5 Q155 301 194 283 L233 264 Q283 239 307 208.5 Q331 178 331 130 Q331 66 293.5 28.5 Q256 -9 188 -9 Q115 -9 77.5 27 Q40 63 40 123 L40 142 L103 142 Q104 101 124.5 77 Q145 53 185 53 Q222 53 241 71.5 Q260 90 260 124 Q260 173 187 210 L143 231 Q49 273 49 361 Q49 422 85.5 458.5 Q122 495 188 495 Q252 495 287.5 459.5 Q323 424 323 369 Z " />
<glyph glyph-name="sacute" unicode="&#x15b;" horiz-adv-x="372" d="M323 369 L323 350 L260 350 Q257 389 240.5 411 Q224 433 186 433 Q155 433 137.5 416 Q120 399 120 366 Q120 340 137.5 320.5 Q155 301 194 283 L233 264 Q283 239 307 208.5 Q331 178 331 130 Q331 66 293.5 28.5 Q256 -9 188 -9 Q115 -9 77.5 27 Q40 63 40 123 L40 142 L103 142 Q104 101 124.5 77 Q145 53 185 53 Q222 53 241 71.5 Q260 90 260 124 Q260 173 187 210 L143 231 Q49 273 49 361 Q49 422 85.5 458.5 Q122 495 188 495 Q252 495 287.5 459.5 Q323 424 323 369 Z M219 560 L148 560 Q176 626 215 680 L309 680 Q259 620 219 560 Z " />
<glyph glyph-name="scaron" unicode="&#x161;" horiz-adv-x="372" d="M323 369 L323 350 L260 350 Q257 389 240.5 411 Q224 433 186 433 Q155 433 137.5 416 Q120 399 120 366 Q120 340 137.5 320.5 Q155 301 194 283 L233 264 Q283 239 307 208.5 Q331 178 331 130 Q331 66 293.5 28.5 Q256 -9 188 -9 Q115 -9 77.5 27 Q40 63 40 123 L40 142 L103 142 Q104 101 124.5 77 Q145 53 185 53 Q222 53 241 71.5 Q260 90 260 124 Q260 173 187 210 L143 231 Q49 273 49 361 Q49 422 85.5 458.5 Q122 495 188 495 Q252 495 287.5 459.5 Q323 424 323 369 Z M312 680 Q284 613 243 560 L132 560 Q94 610 64 680 L126 680 Q149 639 188 597 Q222 634 250 680 L312 680 Z " />
<glyph glyph-name="scedilla" unicode="&#x15f;" horiz-adv-x="372" d="M197 -9 L180 -41 Q221 -40 245.5 -59.5 Q270 -79 270 -111 Q270 -145 244.5 -167.5 Q219 -190 176 -190 Q125 -190 82 -160 L108 -120 Q138 -142 176 -142 Q196 -142 207.5 -134 Q219 -126 219 -111 Q219 -97 205.5 -89 Q192 -81 168 -81 Q155 -81 146.5 -83.5 Q138 -86 136 -87 L119 -65 L147 -6 Q94 4 67 38 Q40 72 40 123 L40 142 L103 142 Q104 101 124.5 77 Q145 53 185 53 Q222 53 241 71.5 Q260 90 260 124 Q260 173 187 210 L143 231 Q49 273 49 361 Q49 422 85.5 458.5 Q122 495 188 495 Q252 495 287.5 459.5 Q323 424 323 369 L323 350 L260 350 Q257 389 240.5 411 Q224 433 186 433 Q155 433 137.5 416 Q120 399 120 366 Q120 340 137.5 320.5 Q155 301 194 283 L233 264 Q283 239 307 208.5 Q331 178 331 130 Q331 67 296 30.5 Q261 -6 197 -9 Z " />
<glyph glyph-name="scommaaccent" unicode="&#x219;" horiz-adv-x="372" d="M323 369 L323 350 L260 350 Q257 389 240.5 411 Q224 433 186 433 Q155 433 137.5 416 Q120 399 120 366 Q120 340 137.5 320.5 Q155 301 194 283 L233 264 Q283 239 307 208.5 Q331 178 331 130 Q331 66 293.5 28.5 Q256 -9 188 -9 Q115 -9 77.5 27 Q40 63 40 123 L40 142 L103 142 Q104 101 124.5 77 Q145 53 185 53 Q222 53 241 71.5 Q260 90 260 124 Q260 173 187 210 L143 231 Q49 273 49 361 Q49 422 85.5 458.5 Q122 495 188 495 Q252 495 287.5 459.5 Q323 424 323 369 Z M143 -54 L215 -54 Q214 -101 201.5 -135.5 Q189 -170 169 -200 L126 -200 Q143 -119 143 -54 Z " />
<glyph glyph-name="germandbls" unicode="&#xdf;" horiz-adv-x="437" d="M393 206 Q393 106 352 51.5 Q311 -3 235 -3 Q216 -3 192 0 L192 64 Q208 61 223 61 Q273 61 296 96 Q319 131 319 204 Q319 280 290 307.5 Q261 335 199 335 L199 401 Q249 401 272 431 Q295 461 295 522 Q295 577 274.5 607 Q254 637 217 637 Q180 637 159.5 606.5 Q139 576 139 522 L139 0 L63 0 L63 516 Q63 606 106 654.5 Q149 703 218 703 Q287 703 328.5 655.5 Q370 608 370 528 Q370 470 351 431.5 Q332 393 301 377 Q342 361 367.5 317 Q393 273 393 206 Z " />
<glyph glyph-name="t" unicode="t" horiz-adv-x="282" d="M92 123 L92 426 L27 426 L27 486 L92 486 L92 603 L167 603 L167 486 L255 486 L255 426 L167 426 L167 146 Q167 100 179 81.5 Q191 63 224 63 Q243 63 255 65 L255 4 Q233 -5 200 -5 Q141 -5 116.5 28.5 Q92 62 92 123 Z " />
<glyph glyph-name="tbar" unicode="&#x167;" horiz-adv-x="282" d="M167 426 L167 286 L255 286 L255 226 L167 226 L167 147 Q167 101 179 82.5 Q191 64 224 64 Q243 64 255 66 L255 5 Q233 -4 199 -4 Q140 -4 116 29.5 Q92 63 92 124 L92 226 L27 226 L27 286 L92 286 L92 426 L27 426 L27 486 L92 486 L92 603 L167 603 L167 486 L255 486 L255 426 L167 426 Z " />
<glyph glyph-name="tcaron" unicode="&#x165;" horiz-adv-x="282" d="M92 123 L92 426 L27 426 L27 486 L92 486 L92 603 L167 603 L167 486 L255 486 L255 426 L167 426 L167 146 Q167 100 179 81.5 Q191 63 224 63 Q243 63 255 65 L255 4 Q233 -5 200 -5 Q141 -5 116.5 28.5 Q92 62 92 123 Z M258 542 L224 542 Q231 578 237 627.5 Q243 677 243 719 L309 719 Q307 657 291.5 613 Q276 569 258 542 Z " />
<glyph glyph-name="uni0163" unicode="&#x163;" horiz-adv-x="286" d="M259 -111 Q259 -145 233.5 -167.5 Q208 -190 165 -190 Q114 -190 71 -160 L97 -120 Q127 -142 165 -142 Q185 -142 196.5 -134 Q208 -126 208 -111 Q208 -97 194 -89 Q180 -81 157 -81 Q144 -81 135.5 -83.5 Q127 -86 125 -87 L108 -65 L143 8 Q92 34 92 124 L92 426 L27 426 L27 486 L92 486 L92 603 L167 603 L167 486 L255 486 L255 426 L167 426 L167 147 Q167 101 179 82.5 Q191 64 224 64 Q243 64 255 66 L255 5 Q233 -4 199 -4 L189 -4 L168 -41 Q210 -40 234.5 -59.5 Q259 -79 259 -111 Z " />
<glyph glyph-name="uni021B" unicode="&#x21b;" horiz-adv-x="282" d="M92 123 L92 426 L27 426 L27 486 L92 486 L92 603 L167 603 L167 486 L255 486 L255 426 L167 426 L167 146 Q167 100 179 81.5 Q191 63 224 63 Q243 63 255 65 L255 4 Q233 -5 200 -5 Q141 -5 116.5 28.5 Q92 62 92 123 Z M132 -54 L204 -54 Q203 -101 190.5 -135.5 Q178 -170 158 -200 L115 -200 Q132 -119 132 -54 Z " />
<glyph glyph-name="u" unicode="u" horiz-adv-x="430" d="M367 486 L367 0 L298 0 L298 56 Q284 29 257 10 Q230 -9 188 -9 Q128 -9 94.5 26 Q61 61 61 136 L61 486 L137 486 L137 155 Q137 106 154.5 81 Q172 56 211 56 Q252 56 272 82 Q292 108 292 156 L292 486 L367 486 Z " />
<glyph glyph-name="uacute" unicode="&#xfa;" horiz-adv-x="430" d="M367 486 L367 0 L298 0 L298 56 Q284 29 257 10 Q230 -9 188 -9 Q128 -9 94.5 26 Q61 61 61 136 L61 486 L137 486 L137 155 Q137 106 154.5 81 Q172 56 211 56 Q252 56 272 82 Q292 108 292 156 L292 486 L367 486 Z M246 560 L175 560 Q203 626 242 680 L336 680 Q286 620 246 560 Z " />
<glyph glyph-name="ucircumflex" unicode="&#xfb;" horiz-adv-x="430" d="M367 486 L367 0 L298 0 L298 56 Q284 29 257 10 Q230 -9 188 -9 Q128 -9 94.5 26 Q61 61 61 136 L61 486 L137 486 L137 155 Q137 106 154.5 81 Q172 56 211 56 Q252 56 272 82 Q292 108 292 156 L292 486 L367 486 Z M277 560 Q249 606 215 643 Q176 601 153 560 L91 560 Q121 630 159 680 L270 680 Q311 627 339 560 L277 560 Z " />
<glyph glyph-name="udieresis" unicode="&#xfc;" horiz-adv-x="430" d="M367 486 L367 0 L298 0 L298 56 Q284 29 257 10 Q230 -9 188 -9 Q128 -9 94.5 26 Q61 61 61 136 L61 486 L137 486 L137 155 Q137 106 154.5 81 Q172 56 211 56 Q252 56 272 82 Q292 108 292 156 L292 486 L367 486 Z M91 617 Q91 638 106 652.5 Q121 667 142 667 Q163 667 177.5 653 Q192 639 192 617 Q192 596 177.5 582 Q163 568 142 568 Q121 568 106 582 Q91 596 91 617 Z M242 617 Q242 637 257 652 Q272 667 293 667 Q314 667 328.5 652 Q343 637 343 617 Q343 597 328.5 582.5 Q314 568 293 568 Q272 568 257 582.5 Q242 597 242 617 Z " />
<glyph glyph-name="ugrave" unicode="&#xf9;" horiz-adv-x="430" d="M367 486 L367 0 L298 0 L298 56 Q284 29 257 10 Q230 -9 188 -9 Q128 -9 94.5 26 Q61 61 61 136 L61 486 L137 486 L137 155 Q137 106 154.5 81 Q172 56 211 56 Q252 56 272 82 Q292 108 292 156 L292 486 L367 486 Z M189 680 Q228 626 256 560 L185 560 Q145 620 95 680 L189 680 Z " />
<glyph glyph-name="uhungarumlaut" unicode="&#x171;" horiz-adv-x="430" d="M367 486 L367 0 L298 0 L298 56 Q284 29 257 10 Q230 -9 188 -9 Q128 -9 94.5 26 Q61 61 61 136 L61 486 L137 486 L137 155 Q137 106 154.5 81 Q172 56 211 56 Q252 56 272 82 Q292 108 292 156 L292 486 L367 486 Z M186 560 L124 560 Q142 608 180 680 L264 680 Q227 636 186 560 Z M303 560 L241 560 Q273 628 308 680 L392 680 Q368 650 303 560 Z " />
<glyph glyph-name="umacron" unicode="&#x16b;" horiz-adv-x="430" d="M367 486 L367 0 L298 0 L298 56 Q284 29 257 10 Q230 -9 188 -9 Q128 -9 94.5 26 Q61 61 61 136 L61 486 L137 486 L137 155 Q137 106 154.5 81 Q172 56 211 56 Q252 56 272 82 Q292 108 292 156 L292 486 L367 486 Z M330 647 L330 583 L100 583 L100 647 L330 647 Z " />
<glyph glyph-name="uogonek" unicode="&#x173;" horiz-adv-x="430" d="M304 -82 Q304 -116 353 -116 L364 -116 L364 -164 Q351 -167 336 -167 Q294 -167 269 -148.5 Q244 -130 244 -95 Q244 -39 308 0 L298 0 L298 56 Q284 29 257 10 Q230 -9 188 -9 Q128 -9 94.5 26 Q61 61 61 136 L61 486 L137 486 L137 155 Q137 106 154.5 81 Q172 56 211 56 Q252 56 272 82 Q292 108 292 156 L292 486 L367 486 L367 0 Q304 -43 304 -82 Z " />
<glyph glyph-name="uring" unicode="&#x16f;" horiz-adv-x="430" d="M367 486 L367 0 L298 0 L298 56 Q284 29 257 10 Q230 -9 188 -9 Q128 -9 94.5 26 Q61 61 61 136 L61 486 L137 486 L137 155 Q137 106 154.5 81 Q172 56 211 56 Q252 56 272 82 Q292 108 292 156 L292 486 L367 486 Z M119 631 Q119 670 147 695.5 Q175 721 216 721 Q257 721 285 695.5 Q313 670 313 631 Q313 592 285.5 567 Q258 542 216 542 Q174 542 146.5 567 Q119 592 119 631 Z M267 631 Q267 653 253 667.5 Q239 682 216 682 Q193 682 179 667.5 Q165 653 165 631 Q165 610 179 595 Q193 580 216 580 Q239 580 253 595 Q267 610 267 631 Z " />
<glyph glyph-name="v" unicode="v" horiz-adv-x="400" d="M382 486 Q312 180 256 19 Q252 8 247 4 Q242 0 230 0 L171 0 Q159 0 154 4 Q149 8 145 19 Q111 115 78 241 Q45 367 19 486 L98 486 Q116 393 144.5 277 Q173 161 202 66 Q230 158 258.5 273 Q287 388 306 486 L382 486 Z " />
<glyph glyph-name="w" unicode="w" horiz-adv-x="575" d="M546 486 Q528 355 505 236.5 Q482 118 448 19 Q444 8 439 4 Q434 0 422 0 L395 0 Q371 0 367 19 L288 360 L209 19 Q207 9 200.5 4.5 Q194 0 182 0 L154 0 Q142 0 136.5 4.5 Q131 9 127 19 Q93 117 71.5 231 Q50 345 29 486 L105 486 Q129 256 169 99 L254 486 L325 486 L410 99 Q450 256 474 486 L546 486 Z " />
<glyph glyph-name="wacute" unicode="&#x1e83;" horiz-adv-x="575" d="M546 486 Q528 355 505 236.5 Q482 118 448 19 Q444 8 439 4 Q434 0 422 0 L395 0 Q371 0 367 19 L288 360 L209 19 Q207 9 200.5 4.5 Q194 0 182 0 L154 0 Q142 0 136.5 4.5 Q131 9 127 19 Q93 117 71.5 231 Q50 345 29 486 L105 486 Q129 256 169 99 L254 486 L325 486 L410 99 Q450 256 474 486 L546 486 Z M330 560 L259 560 Q287 626 326 680 L420 680 Q370 620 330 560 Z " />
<glyph glyph-name="wcircumflex" unicode="&#x175;" horiz-adv-x="575" d="M546 486 Q528 355 505 236.5 Q482 118 448 19 Q444 8 439 4 Q434 0 422 0 L395 0 Q371 0 367 19 L288 360 L209 19 Q207 9 200.5 4.5 Q194 0 182 0 L154 0 Q142 0 136.5 4.5 Q131 9 127 19 Q93 117 71.5 231 Q50 345 29 486 L105 486 Q129 256 169 99 L254 486 L325 486 L410 99 Q450 256 474 486 L546 486 Z M362 560 Q334 606 300 643 Q261 601 238 560 L176 560 Q206 630 244 680 L355 680 Q396 627 424 560 L362 560 Z " />
<glyph glyph-name="wdieresis" unicode="&#x1e85;" horiz-adv-x="575" d="M546 486 Q528 355 505 236.5 Q482 118 448 19 Q444 8 439 4 Q434 0 422 0 L395 0 Q371 0 367 19 L288 360 L209 19 Q207 9 200.5 4.5 Q194 0 182 0 L154 0 Q142 0 136.5 4.5 Q131 9 127 19 Q93 117 71.5 231 Q50 345 29 486 L105 486 Q129 256 169 99 L254 486 L325 486 L410 99 Q450 256 474 486 L546 486 Z M175 617 Q175 638 190 652.5 Q205 667 226 667 Q247 667 261.5 653 Q276 639 276 617 Q276 596 261.5 582 Q247 568 226 568 Q205 568 190 582 Q175 596 175 617 Z M326 617 Q326 637 341 652 Q356 667 377 667 Q398 667 412.5 652 Q427 637 427 617 Q427 597 412.5 582.5 Q398 568 377 568 Q356 568 341 582.5 Q326 597 326 617 Z " />
<glyph glyph-name="wgrave" unicode="&#x1e81;" horiz-adv-x="575" d="M546 486 Q528 355 505 236.5 Q482 118 448 19 Q444 8 439 4 Q434 0 422 0 L395 0 Q371 0 367 19 L288 360 L209 19 Q207 9 200.5 4.5 Q194 0 182 0 L154 0 Q142 0 136.5 4.5 Q131 9 127 19 Q93 117 71.5 231 Q50 345 29 486 L105 486 Q129 256 169 99 L254 486 L325 486 L410 99 Q450 256 474 486 L546 486 Z M273 680 Q312 626 340 560 L269 560 Q229 620 179 680 L273 680 Z " />
<glyph glyph-name="x" unicode="x" horiz-adv-x="398" d="M292 0 Q267 72 198 203 Q133 80 104 0 L28 0 Q68 100 145 251 Q68 400 34 486 L113 486 Q127 449 151 397 Q175 345 200 300 Q260 419 285 486 L362 486 Q344 437 319 384.5 Q294 332 254 253 Q332 98 370 0 L292 0 Z " />
<glyph glyph-name="y" unicode="y" horiz-adv-x="392" d="M374 486 Q357 393 318 266.5 Q279 140 233.5 22.5 Q188 -95 154 -160 L78 -160 Q121 -76 154 10 Q113 116 75.5 248 Q38 380 19 486 L97 486 Q125 320 193 108 Q227 202 256.5 302.5 Q286 403 304 486 L374 486 Z " />
<glyph glyph-name="yacute" unicode="&#xfd;" horiz-adv-x="392" d="M374 486 Q357 393 318 266.5 Q279 140 233.5 22.5 Q188 -95 154 -160 L78 -160 Q121 -76 154 10 Q113 116 75.5 248 Q38 380 19 486 L97 486 Q125 320 193 108 Q227 202 256.5 302.5 Q286 403 304 486 L374 486 Z M228 560 L157 560 Q185 626 224 680 L318 680 Q268 620 228 560 Z " />
<glyph glyph-name="ycircumflex" unicode="&#x177;" horiz-adv-x="392" d="M374 486 Q357 393 318 266.5 Q279 140 233.5 22.5 Q188 -95 154 -160 L78 -160 Q121 -76 154 10 Q113 116 75.5 248 Q38 380 19 486 L97 486 Q125 320 193 108 Q227 202 256.5 302.5 Q286 403 304 486 L374 486 Z M259 560 Q231 606 197 643 Q158 601 135 560 L73 560 Q103 630 141 680 L252 680 Q293 627 321 560 L259 560 Z " />
<glyph glyph-name="ydieresis" unicode="&#xff;" horiz-adv-x="392" d="M374 486 Q357 393 318 266.5 Q279 140 233.5 22.5 Q188 -95 154 -160 L78 -160 Q121 -76 154 10 Q113 116 75.5 248 Q38 380 19 486 L97 486 Q125 320 193 108 Q227 202 256.5 302.5 Q286 403 304 486 L374 486 Z M73 617 Q73 638 88 652.5 Q103 667 124 667 Q145 667 159.5 653 Q174 639 174 617 Q174 596 159.5 582 Q145 568 124 568 Q103 568 88 582 Q73 596 73 617 Z M224 617 Q224 637 239 652 Q254 667 275 667 Q296 667 310.5 652 Q325 637 325 617 Q325 597 310.5 582.5 Q296 568 275 568 Q254 568 239 582.5 Q224 597 224 617 Z " />
<glyph glyph-name="ygrave" unicode="&#x1ef3;" horiz-adv-x="392" d="M374 486 Q357 393 318 266.5 Q279 140 233.5 22.5 Q188 -95 154 -160 L78 -160 Q121 -76 154 10 Q113 116 75.5 248 Q38 380 19 486 L97 486 Q125 320 193 108 Q227 202 256.5 302.5 Q286 403 304 486 L374 486 Z M171 680 Q210 626 238 560 L167 560 Q127 620 77 680 L171 680 Z " />
<glyph glyph-name="z" unicode="z" horiz-adv-x="370" d="M337 65 L337 0 L33 0 L33 51 L245 421 L44 421 L44 486 L333 486 L333 434 L119 65 L337 65 Z " />
<glyph glyph-name="zacute" unicode="&#x17a;" horiz-adv-x="370" d="M337 65 L337 0 L33 0 L33 51 L245 421 L44 421 L44 486 L333 486 L333 434 L119 65 L337 65 Z M222 560 L151 560 Q179 626 218 680 L312 680 Q262 620 222 560 Z " />
<glyph glyph-name="zcaron" unicode="&#x17e;" horiz-adv-x="370" d="M337 65 L337 0 L33 0 L33 51 L245 421 L44 421 L44 486 L333 486 L333 434 L119 65 L337 65 Z M315 680 Q287 613 246 560 L135 560 Q97 610 67 680 L129 680 Q152 639 191 597 Q225 634 253 680 L315 680 Z " />
<glyph glyph-name="zdotaccent" unicode="&#x17c;" horiz-adv-x="370" d="M337 65 L337 0 L33 0 L33 51 L245 421 L44 421 L44 486 L333 486 L333 434 L119 65 L337 65 Z M140 617 Q140 639 155.5 654 Q171 669 193 669 Q215 669 230 654 Q245 639 245 617 Q245 595 230 580.5 Q215 566 193 566 Q171 566 155.5 580.5 Q140 595 140 617 Z " />
<glyph glyph-name="zero" unicode="0" horiz-adv-x="420" d="M42 301 L42 379 Q42 500 62.5 568 Q83 636 119.5 662.5 Q156 689 210 689 Q264 689 300.5 662.5 Q337 636 357.5 568 Q378 500 378 379 L378 301 Q378 180 357.5 112 Q337 44 300.5 17.5 Q264 -9 210 -9 Q156 -9 119.5 17.5 Q83 44 62.5 112 Q42 180 42 301 Z M300 304 L300 376 Q300 498 281 560 Q262 622 210 622 Q158 622 139 560 Q120 498 120 376 L120 304 Q120 182 139 120 Q158 58 210 58 Q262 58 281 120 Q300 182 300 304 Z " />
<glyph glyph-name="one" unicode="1" horiz-adv-x="420" d="M261 680 L261 0 L184 0 L184 558 Q159 534 128 514 Q97 494 69 482 L69 554 Q106 575 145.5 609.5 Q185 644 213 680 L261 680 Z " />
<glyph glyph-name="two" unicode="2" horiz-adv-x="420" d="M385 67 L385 0 L32 0 L32 56 Q137 154 218 269.5 Q299 385 299 504 Q299 564 278 593 Q257 622 211 622 Q121 622 112 492 L36 492 Q37 582 83 635.5 Q129 689 211 689 Q293 689 334.5 638.5 Q376 588 376 504 Q376 423 337 338 Q298 253 243 183 Q188 113 136 67 L385 67 Z " />
<glyph glyph-name="three" unicode="3" horiz-adv-x="420" d="M385 194 Q385 98 340 44.5 Q295 -9 212 -9 Q127 -9 81 40 Q35 89 35 172 L35 191 L111 191 Q115 58 212 58 Q307 58 307 192 Q307 260 275 290 Q243 320 182 320 L182 386 Q293 386 293 516 Q293 568 270.5 595 Q248 622 205 622 Q117 622 111 502 L35 502 Q36 590 82 639.5 Q128 689 204 689 Q281 689 325 643 Q369 597 369 516 Q369 461 347 419 Q325 377 289 359 Q332 341 358.5 297 Q385 253 385 194 Z " />
<glyph glyph-name="four" unicode="4" horiz-adv-x="420" d="M408 158 L344 158 L344 0 L266 0 L266 158 L29 158 L29 183 Q29 220 37 255 Q59 333 122.5 465.5 Q186 598 239 680 L324 680 Q263 583 199.5 456 Q136 329 104 224 L266 224 L266 403 L344 403 L344 224 L408 224 L408 158 Z " />
<glyph glyph-name="five" unicode="5" horiz-adv-x="420" d="M388 225 Q388 113 344 52 Q300 -9 208 -9 Q124 -9 79 41 Q34 91 34 170 L34 191 L110 191 Q113 126 137 92 Q161 58 210 58 Q311 58 311 225 Q311 304 288.5 342.5 Q266 381 212 381 Q176 381 150 361 Q124 341 116 311 L47 320 Q50 384 62 493.5 Q74 603 87 680 L360 680 L360 613 L148 613 Q132 521 123 400 Q138 422 164 435 Q190 448 224 448 Q305 448 346.5 391 Q388 334 388 225 Z " />
<glyph glyph-name="six" unicode="6" horiz-adv-x="420" d="M389 225 Q389 114 343 52.5 Q297 -9 210 -9 Q126 -9 80 51.5 Q34 112 34 221 L34 249 Q34 362 84.5 482.5 Q135 603 209 680 L304 680 Q251 627 206 556.5 Q161 486 139 416 Q171 448 224 448 Q389 448 389 225 Z M311 219 Q311 302 287 341.5 Q263 381 211 381 Q158 381 135 342.5 Q112 304 112 219 Q112 58 211 58 Q261 58 286 100.5 Q311 143 311 219 Z " />
<glyph glyph-name="seven" unicode="7" horiz-adv-x="420" d="M377 680 L377 618 Q349 492 281.5 292 Q214 92 172 0 L92 0 Q149 137 208.5 311 Q268 485 299 613 L26 613 L26 680 L377 680 Z " />
<glyph glyph-name="eight" unicode="8" horiz-adv-x="420" d="M393 175 Q393 121 370 79 Q347 37 305.5 14 Q264 -9 211 -9 Q128 -9 76 40.5 Q24 90 24 172 Q24 286 139 360 Q42 434 42 522 Q42 598 89.5 643.5 Q137 689 211 689 Q285 689 332.5 645 Q380 601 380 526 Q380 473 352.5 429.5 Q325 386 276 357 Q328 323 360.5 279.5 Q393 236 393 175 Z M118 527 Q118 491 142 459.5 Q166 428 215 395 Q306 437 306 523 Q306 572 282.5 599.5 Q259 627 213 627 Q168 627 143 599.5 Q118 572 118 527 Z M316 172 Q316 215 287 249.5 Q258 284 199 321 Q155 298 128.5 262 Q102 226 102 178 Q102 123 132 90 Q162 57 212 57 Q260 57 288 87.5 Q316 118 316 172 Z " />
<glyph glyph-name="nine" unicode="9" horiz-adv-x="420" d="M386 466 L386 437 Q386 362 362 279.5 Q338 197 298 123.5 Q258 50 211 0 L115 0 Q165 51 210.5 126.5 Q256 202 277 275 Q245 246 195 246 Q31 246 31 461 Q31 569 77 629 Q123 689 210 689 Q294 689 340 630.5 Q386 572 386 466 Z M308 468 Q308 622 209 622 Q159 622 134 581 Q109 540 109 468 Q109 388 133 350.5 Q157 313 209 313 Q262 313 285 350 Q308 387 308 468 Z " />
<glyph glyph-name="fraction" unicode="&#x2044;" horiz-adv-x="251" d="M-38 0 L-102 0 L290 680 L354 680 L-38 0 Z " />
<glyph glyph-name="onehalf" unicode="&#xbd;" horiz-adv-x="888" d="M189 680 L189 266 L131 266 L131 591 Q112 573 85 557.5 Q58 542 36 533 L36 585 Q114 629 140 680 L189 680 Z M237 0 L173 0 L565 680 L629 680 L237 0 Z M837 48 L837 0 L574 0 L574 37 L593 53 Q672 117 722 174 Q772 231 772 294 Q772 370 704 370 Q635 370 630 278 L572 278 Q573 347 607.5 384 Q642 421 705 421 Q763 421 797 387 Q831 353 831 300 Q831 226 776.5 160 Q722 94 657 48 L837 48 Z " />
<glyph glyph-name="onequarter" unicode="&#xbc;" horiz-adv-x="828" d="M189 680 L189 266 L131 266 L131 591 Q112 573 85 557.5 Q58 542 36 533 L36 585 Q114 629 140 680 L189 680 Z M237 0 L173 0 L565 680 L629 680 L237 0 Z M794 88 L753 88 L753 0 L696 0 L696 88 L501 88 L501 111 Q501 141 509 161 Q545 253 646 414 L713 414 Q603 247 560 137 L696 137 L696 247 L753 247 L753 137 L794 137 L794 88 Z " />
<glyph glyph-name="threequarters" unicode="&#xbe;" horiz-adv-x="868" d="M298 387 Q298 329 263.5 294 Q229 259 165 259 Q105 259 68.5 292.5 Q32 326 33 380 L89 380 Q91 348 110.5 328 Q130 308 165 308 Q201 308 220 327.5 Q239 347 239 383 Q239 426 214 442.5 Q189 459 145 459 L145 500 Q186 500 210.5 518.5 Q235 537 235 577 Q235 609 216.5 626.5 Q198 644 164 644 Q129 644 111.5 622.5 Q94 601 91 570 L39 570 Q39 623 73 656 Q107 689 164 689 Q224 689 257 658 Q290 627 290 577 Q290 542 273.5 518.5 Q257 495 231 483 Q261 472 279.5 446 Q298 420 298 387 Z M277 0 L213 0 L605 680 L669 680 L277 0 Z M834 88 L793 88 L793 0 L736 0 L736 88 L541 88 L541 111 Q541 141 549 161 Q585 253 686 414 L753 414 Q643 247 600 137 L736 137 L736 247 L793 247 L793 137 L834 137 L834 88 Z " />
<glyph glyph-name="uni00B9" unicode="&#xb9;" horiz-adv-x="292" d="M189 720 L189 306 L131 306 L131 631 Q112 613 85 597.5 Q58 582 36 573 L36 625 Q114 669 140 720 L189 720 Z " />
<glyph glyph-name="uni00B2" unicode="&#xb2;" horiz-adv-x="372" d="M321 356 L321 308 L58 308 L58 345 L77 361 Q156 425 206 482 Q256 539 256 602 Q256 678 188 678 Q119 678 114 586 L56 586 Q57 655 91.5 692 Q126 729 189 729 Q247 729 281 695 Q315 661 315 608 Q315 534 260.5 468 Q206 402 140 356 L321 356 Z " />
<glyph glyph-name="uni00B3" unicode="&#xb3;" horiz-adv-x="335" d="M298 427 Q298 369 263.5 334 Q229 299 165 299 Q105 299 68.5 332.5 Q32 366 33 420 L89 420 Q91 388 110.5 368 Q130 348 165 348 Q201 348 220 367.5 Q239 387 239 423 Q239 466 214 482.5 Q189 499 145 499 L145 540 Q186 540 210.5 558.5 Q235 577 235 617 Q235 649 216.5 666.5 Q198 684 164 684 Q129 684 111.5 662.5 Q94 641 91 610 L39 610 Q39 663 73 696 Q107 729 164 729 Q224 729 257 698 Q290 667 290 617 Q290 582 273.5 558.5 Q257 535 231 523 Q261 512 279.5 486 Q298 460 298 427 Z " />
<glyph glyph-name="asterisk" unicode="&#x2a;" horiz-adv-x="355" d="M204 558 Q256 535 316 514 Q306 483 285 461 Q243 499 191 536 Q195 478 208 417 Q190 413 178 413 Q167 413 147 417 Q152 439 157 473 Q162 507 164 535 Q113 499 70 461 Q49 483 39 514 Q61 521 92.5 533.5 Q124 546 151 558 Q96 584 39 603 Q49 634 70 656 Q84 642 112 619.5 Q140 597 164 581 Q162 609 157 643 Q152 677 147 700 Q160 704 178 704 Q196 704 208 700 Q195 640 191 582 Q247 622 285 656 Q306 634 316 603 Q250 581 204 558 Z " />
<glyph glyph-name="backslash" unicode="&#x5c;" horiz-adv-x="309" d="M94 700 L278 -20 L216 -20 L31 700 L94 700 Z " />
<glyph glyph-name="middot" unicode="&#xb7;" horiz-adv-x="264" d="M78 318 Q78 341 93.5 356.5 Q109 372 132 372 Q155 372 170.5 356.5 Q186 341 186 318 Q186 295 170.5 279.5 Q155 264 132 264 Q109 264 93.5 279.5 Q78 295 78 318 Z " />
<glyph glyph-name="bullet" unicode="&#x2022;" horiz-adv-x="340" d="M40 327 Q40 382 77.5 419.5 Q115 457 170 457 Q225 457 262.5 419.5 Q300 382 300 327 Q300 272 262.5 234.5 Q225 197 170 197 Q115 197 77.5 234.5 Q40 272 40 327 Z " />
<glyph glyph-name="colon" unicode="&#x3a;" horiz-adv-x="216" d="M54 48 Q54 71 69.5 86.5 Q85 102 108 102 Q131 102 146.5 86.5 Q162 71 162 48 Q162 25 146.5 9.5 Q131 -6 108 -6 Q85 -6 69.5 9.5 Q54 25 54 48 Z M54 438 Q54 461 69.5 476.5 Q85 492 108 492 Q131 492 146.5 476.5 Q162 461 162 438 Q162 415 146.5 399.5 Q131 384 108 384 Q85 384 69.5 399.5 Q54 415 54 438 Z " />
<glyph glyph-name="comma" unicode="&#x2c;" horiz-adv-x="186" d="M137 67 Q137 -20 72 -114 L31 -114 Q53 -23 53 70 L53 98 L137 98 L137 67 Z " />
<glyph glyph-name="ellipsis" unicode="&#x2026;" horiz-adv-x="554" d="M407 48 Q407 71 422.5 86.5 Q438 102 461 102 Q484 102 499.5 86.5 Q515 71 515 48 Q515 25 499.5 9.5 Q484 -6 461 -6 Q438 -6 422.5 9.5 Q407 25 407 48 Z M223 48 Q223 71 238.5 86.5 Q254 102 277 102 Q300 102 315.5 86.5 Q331 71 331 48 Q331 25 315.5 9.5 Q300 -6 277 -6 Q254 -6 238.5 9.5 Q223 25 223 48 Z M39 48 Q39 71 54.5 86.5 Q70 102 93 102 Q116 102 131.5 86.5 Q147 71 147 48 Q147 25 131.5 9.5 Q116 -6 93 -6 Q70 -6 54.5 9.5 Q39 25 39 48 Z " />
<glyph glyph-name="exclam" unicode="&#x21;" horiz-adv-x="243" d="M149 179 L93 179 Q81 422 78 680 L165 680 Q161 406 149 179 Z M68 48 Q68 71 83 86.5 Q98 102 121 102 Q144 102 159.5 86.5 Q175 71 175 48 Q175 25 159.5 9.5 Q144 -6 121 -6 Q98 -6 83 9.5 Q68 25 68 48 Z " />
<glyph glyph-name="exclamdown" unicode="&#xa1;" horiz-adv-x="243" d="M175 441 Q175 418 159.5 402.5 Q144 387 121 387 Q98 387 83 402.5 Q68 418 68 441 Q68 464 83 479.5 Q98 495 121 495 Q144 495 159.5 479.5 Q175 464 175 441 Z M93 310 L149 310 Q161 83 165 -191 L78 -191 Q81 67 93 310 Z " />
<glyph glyph-name="numbersign" unicode="&#x23;" horiz-adv-x="422" d="M344 437 L317 245 L375 245 L375 191 L309 191 L282 0 L222 0 L249 191 L134 191 L107 0 L46 0 L73 191 L15 191 L15 245 L81 245 L108 437 L47 437 L47 492 L115 492 L142 680 L202 680 L176 492 L291 492 L318 680 L378 680 L351 492 L408 492 L408 437 L344 437 Z M284 437 L168 437 L141 245 L257 245 L284 437 Z " />
<glyph glyph-name="period" unicode="&#x2e;" horiz-adv-x="186" d="M39 48 Q39 71 54.5 86.5 Q70 102 93 102 Q116 102 131.5 86.5 Q147 71 147 48 Q147 25 131.5 9.5 Q116 -6 93 -6 Q70 -6 54.5 9.5 Q39 25 39 48 Z " />
<glyph glyph-name="question" unicode="&#x3f;" horiz-adv-x="353" d="M245 520 Q245 567 229 589 Q213 611 177 611 Q139 611 121.5 582.5 Q104 554 101 497 L32 497 L32 510 Q32 591 67.5 640 Q103 689 180 689 Q251 689 286 644.5 Q321 600 321 526 Q321 452 291 373 Q261 294 218 210 L203 179 L130 179 Q245 409 245 520 Z M111 48 Q111 71 126.5 86.5 Q142 102 165 102 Q188 102 203.5 86.5 Q219 71 219 48 Q219 25 203.5 9.5 Q188 -6 165 -6 Q142 -6 126.5 9.5 Q111 25 111 48 Z " />
<glyph glyph-name="questiondown" unicode="&#xbf;" horiz-adv-x="323" d="M239 443 Q239 420 223.5 404.5 Q208 389 185 389 Q162 389 147 404.5 Q132 420 132 443 Q132 466 147 481.5 Q162 497 185 497 Q208 497 223.5 481.5 Q239 466 239 443 Z M108 -29 Q108 -76 124 -98 Q140 -120 176 -120 Q214 -120 231.5 -91.5 Q249 -63 252 -6 L321 -6 L321 -19 Q321 -100 285.5 -149 Q250 -198 173 -198 Q102 -198 67 -153.5 Q32 -109 32 -35 Q32 39 62 118 Q92 197 135 281 L150 312 L223 312 Q108 82 108 -29 Z " />
<glyph glyph-name="quotedbl" unicode="&#x22;" horiz-adv-x="336" d="M125 680 Q125 612 117.5 546.5 Q110 481 102 448 L63 448 Q55 482 47 547.5 Q39 613 39 680 L125 680 Z M297 680 Q297 612 289.5 546.5 Q282 481 274 448 L235 448 Q227 482 219 547.5 Q211 613 211 680 L297 680 Z " />
<glyph glyph-name="quotesingle" unicode="&#x27;" horiz-adv-x="164" d="M125 680 Q125 612 117.5 546.5 Q110 481 102 448 L63 448 Q55 482 47 547.5 Q39 613 39 680 L125 680 Z " />
<glyph glyph-name="semicolon" unicode="&#x3b;" horiz-adv-x="216" d="M152 67 Q152 -20 87 -114 L46 -114 Q68 -23 68 70 L68 98 L152 98 L152 67 Z M54 438 Q54 461 69.5 476.5 Q85 492 108 492 Q131 492 146.5 476.5 Q162 461 162 438 Q162 415 146.5 399.5 Q131 384 108 384 Q85 384 69.5 399.5 Q54 415 54 438 Z " />
<glyph glyph-name="slash" unicode="&#x2f;" horiz-adv-x="309" d="M93 -20 L31 -20 L215 700 L278 700 L93 -20 Z " />
<glyph glyph-name="underscore" unicode="&#x5f;" horiz-adv-x="452" d="M457 -100 L457 -160 L-5 -160 L-5 -100 L457 -100 Z " />
<glyph glyph-name="braceleft" unicode="&#x7b;" horiz-adv-x="305" d="M277 629 L258 629 Q224 629 207.5 623.5 Q191 618 184.5 604.5 Q178 591 178 564 L178 391 Q178 290 100 266 L100 264 Q136 254 157 223 Q178 192 178 139 L178 -38 Q178 -65 184.5 -77.5 Q191 -90 207.5 -95 Q224 -100 258 -100 L277 -100 L277 -151 L228 -151 Q185 -151 160.5 -140 Q136 -129 124.5 -99.5 Q113 -70 113 -12 L113 134 Q113 190 92.5 214 Q72 238 34 238 L34 292 Q72 292 92.5 316.5 Q113 341 113 397 L113 541 Q113 598 127.5 628.5 Q142 659 169 669.5 Q196 680 240 680 L277 680 L277 629 Z " />
<glyph glyph-name="braceright" unicode="&#x7d;" horiz-adv-x="299" d="M65 680 Q109 680 136 669.5 Q163 659 177.5 628.5 Q192 598 192 541 L192 397 Q192 341 212.5 316.5 Q233 292 271 292 L271 238 Q233 238 212.5 214 Q192 190 192 134 L192 -12 Q192 -70 180.5 -99.5 Q169 -129 144.5 -140 Q120 -151 77 -151 L28 -151 L28 -100 L47 -100 Q81 -100 97.5 -95 Q114 -90 120.5 -77.5 Q127 -65 127 -38 L127 139 Q127 192 148 223 Q169 254 205 264 L205 266 Q127 290 127 391 L127 564 Q127 591 120.5 604.5 Q114 618 97.5 623.5 Q81 629 47 629 L28 629 L28 680 L65 680 Z " />
<glyph glyph-name="bracketleft" unicode="&#x5b;" horiz-adv-x="277" d="M243 629 L140 629 L140 -100 L243 -100 L243 -151 L75 -151 L75 680 L243 680 L243 629 Z " />
<glyph glyph-name="bracketright" unicode="&#x5d;" horiz-adv-x="277" d="M202 680 L202 -151 L34 -151 L34 -100 L137 -100 L137 629 L34 629 L34 680 L202 680 Z " />
<glyph glyph-name="parenleft" unicode="&#x28;" horiz-adv-x="292" d="M214 680 L276 680 Q216 605 181 500.5 Q146 396 146 267 Q146 139 181 34.5 Q216 -70 276 -146 L214 -146 Q156 -78 116 26 Q76 130 76 267 Q76 404 116 508.5 Q156 613 214 680 Z " />
<glyph glyph-name="parenright" unicode="&#x29;" horiz-adv-x="292" d="M79 -146 L16 -146 Q76 -70 111 34.5 Q146 139 146 267 Q146 396 111 500.5 Q76 605 16 680 L79 680 Q136 614 176 509 Q216 404 216 267 Q216 130 176.5 25.5 Q137 -79 79 -146 Z " />
<glyph glyph-name="emdash" unicode="&#x2014;" horiz-adv-x="734" d="M689 326 L689 262 L45 262 L45 326 L689 326 Z " />
<glyph glyph-name="endash" unicode="&#x2013;" horiz-adv-x="514" d="M469 326 L469 262 L45 262 L45 326 L469 326 Z " />
<glyph glyph-name="hyphen" unicode="&#x2d;" horiz-adv-x="342" d="M297 328 L297 260 L45 260 L45 328 L297 328 Z " />
<glyph glyph-name="guillemotleft" unicode="&#xab;" horiz-adv-x="506" d="M306 242 L444 48 L374 48 L238 242 L374 435 L444 435 L306 242 Z M130 242 L268 48 L198 48 L62 242 L198 435 L268 435 L130 242 Z " />
<glyph glyph-name="guillemotright" unicode="&#xbb;" horiz-adv-x="506" d="M308 435 L444 242 L308 48 L238 48 L376 242 L238 435 L308 435 Z M132 435 L268 242 L132 48 L62 48 L200 242 L62 435 L132 435 Z " />
<glyph glyph-name="guilsinglleft" unicode="&#x2039;" horiz-adv-x="330" d="M130 242 L268 48 L198 48 L62 242 L198 435 L268 435 L130 242 Z " />
<glyph glyph-name="guilsinglright" unicode="&#x203a;" horiz-adv-x="330" d="M132 435 L268 242 L132 48 L62 48 L200 242 L62 435 L132 435 Z " />
<glyph glyph-name="quotedblbase" unicode="&#x201e;" horiz-adv-x="317" d="M134 67 Q134 12 117 -34.5 Q100 -81 80 -114 L39 -114 Q49 -71 55.5 -29.5 Q62 12 62 70 L62 98 L134 98 L134 67 Z M277 67 Q277 12 260 -34.5 Q243 -81 223 -114 L182 -114 Q192 -71 198.5 -29.5 Q205 12 205 70 L205 98 L277 98 L277 67 Z " />
<glyph glyph-name="quotedblleft" unicode="&#x201c;" horiz-adv-x="317" d="M182 499 Q182 554 199 601.5 Q216 649 237 680 L277 680 Q255 589 255 496 L255 468 L182 468 L182 499 Z M39 499 Q39 554 56 601.5 Q73 649 94 680 L134 680 Q112 589 112 496 L112 468 L39 468 L39 499 Z " />
<glyph glyph-name="quotedblright" unicode="&#x201d;" horiz-adv-x="317" d="M277 649 Q277 594 260 547.5 Q243 501 223 468 L182 468 Q192 511 198.5 552.5 Q205 594 205 652 L205 680 L277 680 L277 649 Z M134 649 Q134 594 117 547.5 Q100 501 80 468 L39 468 Q49 511 55.5 552.5 Q62 594 62 652 L62 680 L134 680 L134 649 Z " />
<glyph glyph-name="quoteleft" unicode="&#x2018;" horiz-adv-x="174" d="M39 499 Q39 554 56 601.5 Q73 649 94 680 L134 680 Q112 589 112 496 L112 468 L39 468 L39 499 Z " />
<glyph glyph-name="quoteright" unicode="&#x2019;" horiz-adv-x="174" d="M134 649 Q134 594 117 547.5 Q100 501 80 468 L39 468 Q49 511 55.5 552.5 Q62 594 62 652 L62 680 L134 680 L134 649 Z " />
<glyph glyph-name="quotesinglbase" unicode="&#x201a;" horiz-adv-x="174" d="M134 67 Q134 12 117 -34.5 Q100 -81 80 -114 L39 -114 Q49 -71 55.5 -29.5 Q62 12 62 70 L62 98 L134 98 L134 67 Z " />
<glyph glyph-name="uni00A0" unicode="&#xa0;" horiz-adv-x="600" d="" />
<glyph glyph-name="cent" unicode="&#xa2;" horiz-adv-x="420" d="M132 264 L132 222 Q132 136 152 96 Q172 56 219 56 Q254 56 273.5 80 Q293 104 296 149 L364 149 L364 140 Q364 76 333.5 39.5 Q303 3 252 -6 L252 -80 L192 -80 L192 -7 Q124 1 90.5 53.5 Q57 106 57 211 L57 275 Q57 380 90.5 432.5 Q124 485 192 493 L192 566 L252 566 L252 492 Q303 483 333.5 446.5 Q364 410 364 348 L364 336 L297 336 Q288 430 219 430 Q172 430 152 390 Q132 350 132 264 Z " />
<glyph glyph-name="currency" unicode="&#xa4;" horiz-adv-x="420" d="M397 475 L352 431 Q382 390 382 332 Q382 274 352 233 L397 188 L353 145 L308 191 Q267 166 212 166 Q156 166 112 193 L66 145 L23 189 L69 234 Q41 274 41 332 Q41 390 70 430 L22 476 L66 519 L112 472 Q159 498 212 498 Q267 498 308 473 L353 519 L397 475 Z M107 332 Q107 280 136 251 Q165 222 212 222 Q259 222 287 251 Q315 280 315 332 Q315 384 287 413 Q259 442 212 442 Q165 442 136 413 Q107 384 107 332 Z " />
<glyph glyph-name="dollar" unicode="&#x24;" horiz-adv-x="420" d="M242 -5 L242 -80 L182 -80 L182 -6 Q112 2 74.5 46 Q37 90 37 152 L37 173 L109 173 Q111 117 136 87.5 Q161 58 208 58 Q253 58 274.5 86.5 Q296 115 296 164 Q296 203 272.5 233.5 Q249 264 200 304 L164 333 Q104 382 74.5 426 Q45 470 45 526 Q45 593 82 635.5 Q119 678 182 686 L182 766 L242 766 L242 685 Q302 675 333 635.5 Q364 596 364 541 L364 523 L292 523 Q289 569 267.5 595.5 Q246 622 205 622 Q166 622 144 597.5 Q122 573 122 531 Q122 497 140 469.5 Q158 442 192 414 L228 385 Q281 341 311.5 309.5 Q342 278 358 243.5 Q374 209 374 165 Q374 96 340 50.5 Q306 5 242 -5 Z " />
<glyph glyph-name="Euro" unicode="&#x20ac;" horiz-adv-x="420" d="M153 433 L315 433 L315 380 L152 380 L152 307 L315 307 L315 254 L153 254 Q156 152 178.5 105.5 Q201 59 250 59 Q292 59 310.5 85.5 Q329 112 335 165 L405 165 L405 153 Q405 112 387.5 75 Q370 38 336 15 Q302 -8 253 -8 Q172 -8 126.5 50 Q81 108 75 254 L18 254 L18 307 L75 307 L75 380 L18 380 L18 433 L76 433 Q82 575 128 631.5 Q174 688 253 688 Q302 688 336 664.5 Q370 641 387.5 604 Q405 567 405 526 L405 515 L335 515 Q328 567 309.5 594 Q291 621 250 621 Q203 621 180.5 576 Q158 531 153 433 Z " />
<glyph glyph-name="sterling" unicode="&#xa3;" horiz-adv-x="420" d="M393 67 L393 0 L44 0 L44 54 Q74 82 89 125 Q104 168 104 234 Q104 268 101 298 L32 298 L32 354 L94 354 L85 401 Q80 430 75.5 458.5 Q71 487 71 510 Q71 593 116 640.5 Q161 688 235 688 Q307 688 345.5 641.5 Q384 595 384 514 L384 504 L316 504 Q313 621 234 621 Q193 621 170.5 592 Q148 563 148 506 Q148 476 159 406 Q164 377 167 354 L315 354 L315 298 L174 298 Q177 267 177 235 Q177 130 131 67 L393 67 Z " />
<glyph glyph-name="yen" unicode="&#xa5;" horiz-adv-x="420" d="M303 424 L377 424 L377 371 L281 371 L249 298 L377 298 L377 245 L248 245 L248 0 L171 0 L171 245 L42 245 L42 298 L170 298 L138 371 L42 371 L42 424 L116 424 Q64 555 25 680 L104 680 Q152 523 212 377 Q277 536 320 680 L394 680 Q356 554 303 424 Z M201 371 L207 365 L209 371 L201 371 Z M222 371 L214 371 Q216 367 216 365 L217 365 L222 371 Z " />
<glyph glyph-name="approxequal" unicode="&#x2248;" horiz-adv-x="420" d="M213 366 Q190 378 172 384 Q154 390 130 390 Q95 390 59 351 L30 390 Q56 421 80 433.5 Q104 446 134 446 Q154 446 168 441 Q182 436 207 425 Q231 413 249 407 Q267 401 292 401 Q312 401 327.5 410.5 Q343 420 361 438 L390 399 Q364 370 339.5 357.5 Q315 345 286 345 Q266 345 252 350 Q238 355 213 366 Z M213 224 Q190 236 172 242 Q154 248 130 248 Q96 248 59 208 L30 247 Q56 277 79.5 289.5 Q103 302 134 302 Q155 302 171 297 Q187 292 208 281 Q232 269 250 263.5 Q268 258 292 258 Q312 258 327.5 267.5 Q343 277 361 295 L390 256 Q364 227 339.5 214.5 Q315 202 286 202 Q266 202 251 207.5 Q236 213 213 224 Z " />
<glyph glyph-name="asciitilde" unicode="&#x7e;" horiz-adv-x="420" d="M227 365 Q249 352 264 345 Q279 338 293 338 Q314 338 324 352.5 Q334 367 336 396 L390 396 Q390 342 365 309 Q340 276 294 276 Q277 276 262 283 Q247 290 223 305 Q199 321 180.5 329 Q162 337 142 337 Q115 337 101 322.5 Q87 308 84 279 L30 279 Q30 328 57.5 363.5 Q85 399 139 399 Q161 399 181 390.5 Q201 382 227 365 Z " />
<glyph glyph-name="divide" unicode="&#xf7;" horiz-adv-x="420" d="M390 353 L390 295 L30 295 L30 353 L390 353 Z M157 169 Q157 192 172.5 207.5 Q188 223 211 223 Q234 223 249.5 207.5 Q265 192 265 169 Q265 146 249.5 130.5 Q234 115 211 115 Q188 115 172.5 130.5 Q157 146 157 169 Z M157 479 Q157 502 172.5 517.5 Q188 533 211 533 Q234 533 249.5 517.5 Q265 502 265 479 Q265 456 249.5 440.5 Q234 425 211 425 Q188 425 172.5 440.5 Q157 456 157 479 Z " />
<glyph glyph-name="equal" unicode="&#x3d;" horiz-adv-x="420" d="M390 273 L390 215 L30 215 L30 273 L390 273 Z M390 433 L390 375 L30 375 L30 433 L390 433 Z " />
<glyph glyph-name="greater" unicode="&#x3e;" horiz-adv-x="420" d="M390 367 L390 281 L30 151 L30 217 L345 324 L30 431 L30 497 L390 367 Z " />
<glyph glyph-name="greaterequal" unicode="&#x2265;" horiz-adv-x="422" d="M390 367 L390 281 L30 151 L30 217 L345 324 L30 431 L30 497 L390 367 Z M392 45 L32 45 L32 103 L392 103 L392 45 Z " />
<glyph glyph-name="less" unicode="&#x3c;" horiz-adv-x="420" d="M390 431 L75 324 L390 217 L390 151 L30 281 L30 367 L390 497 L390 431 Z " />
<glyph glyph-name="lessequal" unicode="&#x2264;" horiz-adv-x="420" d="M390 103 L390 45 L30 45 L30 103 L390 103 Z M390 431 L75 324 L390 217 L390 151 L30 281 L30 367 L390 497 L390 431 Z " />
<glyph glyph-name="logicalnot" unicode="&#xac;" horiz-adv-x="420" d="M390 146 L327 146 L327 295 L30 295 L30 353 L390 353 L390 146 Z " />
<glyph glyph-name="minus" unicode="&#x2212;" horiz-adv-x="420" d="M390 353 L390 295 L30 295 L30 353 L390 353 Z " />
<glyph glyph-name="multiply" unicode="&#xd7;" horiz-adv-x="420" d="M347 144 L209 282 L72 145 L31 186 L168 323 L30 461 L72 503 L210 365 L348 503 L389 462 L251 325 L390 186 L347 144 Z " />
<glyph glyph-name="notequal" unicode="&#x2260;" horiz-adv-x="420" d="M257 375 L215 273 L390 273 L390 215 L191 215 L144 103 L91 103 L137 215 L30 215 L30 273 L161 273 L203 375 L30 375 L30 433 L227 433 L275 549 L329 549 L281 433 L390 433 L390 375 L257 375 Z " />
<glyph glyph-name="percent" unicode="&#x25;" horiz-adv-x="720" d="M38 515 Q38 599 75.5 644 Q113 689 174 689 Q235 689 272.5 644 Q310 599 310 515 Q310 431 272.5 386 Q235 341 174 341 Q113 341 75.5 386 Q38 431 38 515 Z M196 0 L132 0 L524 680 L588 680 L196 0 Z M245 515 Q245 631 174 631 Q103 631 103 515 Q103 399 174 399 Q245 399 245 515 Z M410 164 Q410 248 447.5 293 Q485 338 546 338 Q607 338 644.5 293 Q682 248 682 164 Q682 80 644.5 35 Q607 -10 546 -10 Q485 -10 447.5 35 Q410 80 410 164 Z M617 164 Q617 280 546 280 Q475 280 475 164 Q475 48 546 48 Q617 48 617 164 Z " />
<glyph glyph-name="perthousand" unicode="&#x2030;" horiz-adv-x="1038" d="M38 515 Q38 599 75.5 644 Q113 689 174 689 Q235 689 272.5 644 Q310 599 310 515 Q310 431 272.5 386 Q235 341 174 341 Q113 341 75.5 386 Q38 431 38 515 Z M196 0 L132 0 L524 680 L588 680 L196 0 Z M245 515 Q245 631 174 631 Q103 631 103 515 Q103 399 174 399 Q245 399 245 515 Z M410 164 Q410 248 447.5 293 Q485 338 546 338 Q607 338 644.5 293 Q682 248 682 164 Q682 80 644.5 35 Q607 -10 546 -10 Q485 -10 447.5 35 Q410 80 410 164 Z M728 164 Q728 248 765.5 293 Q803 338 864 338 Q925 338 962.5 293 Q1000 248 1000 164 Q1000 80 962.5 35 Q925 -10 864 -10 Q803 -10 765.5 35 Q728 80 728 164 Z M617 164 Q617 280 546 280 Q475 280 475 164 Q475 48 546 48 Q617 48 617 164 Z M935 164 Q935 280 864 280 Q793 280 793 164 Q793 48 864 48 Q935 48 935 164 Z " />
<glyph glyph-name="plus" unicode="&#x2b;" horiz-adv-x="420" d="M390 295 L239 295 L239 142 L181 142 L181 295 L30 295 L30 353 L181 353 L181 505 L239 505 L239 353 L390 353 L390 295 Z " />
<glyph glyph-name="plusminus" unicode="&#xb1;" horiz-adv-x="420" d="M390 373 L390 315 L239 315 L239 162 L181 162 L181 315 L30 315 L30 373 L181 373 L181 525 L239 525 L239 373 L390 373 Z M30 103 L390 103 L390 45 L30 45 L30 103 Z " />
<glyph glyph-name="bar" unicode="&#x7c;" horiz-adv-x="286" d="M172 -79 L114 -79 L114 736 L172 736 L172 -79 Z " />
<glyph glyph-name="brokenbar" unicode="&#xa6;" horiz-adv-x="286" d="M114 736 L172 736 L172 406 L114 406 L114 736 Z M172 -79 L114 -79 L114 251 L172 251 L172 -79 Z " />
<glyph glyph-name="at" unicode="&#x40;" horiz-adv-x="729" d="M479 445 L479 185 Q479 140 493.5 118.5 Q508 97 540 97 Q578 97 596.5 139 Q615 181 615 278 Q615 426 551 508.5 Q487 591 370 591 Q291 591 233.5 551 Q176 511 145 434.5 Q114 358 114 251 Q114 89 183.5 2 Q253 -85 375 -85 Q424 -85 462 -73 Q500 -61 539 -34 L569 -77 Q528 -110 481 -124.5 Q434 -139 375 -139 Q276 -139 203.5 -92 Q131 -45 92 43 Q53 131 53 251 Q53 373 92.5 462 Q132 551 204 598 Q276 645 370 645 Q464 645 533 599.5 Q602 554 639 471 Q676 388 676 278 Q676 44 540 44 Q507 44 479 59.5 Q451 75 437 111 Q426 79 403.5 61.5 Q381 44 350 44 Q290 44 259.5 97.5 Q229 151 229 249 Q229 347 258.5 400.5 Q288 454 343 454 Q370 454 392 439 Q414 424 423 397 L423 445 L479 445 Z M419 249 Q419 323 404.5 358.5 Q390 394 358 394 Q324 394 309 357 Q294 320 294 249 Q294 174 308 139 Q322 104 359 104 Q391 104 405 140.5 Q419 177 419 249 Z " />
<glyph glyph-name="ampersand" unicode="&#x26;" horiz-adv-x="481" d="M371 0 L351 25 Q302 -7 240 -7 Q145 -7 93.5 50 Q42 107 42 198 Q42 258 64.5 310.5 Q87 363 131 402 Q99 480 99 529 Q99 600 135.5 644.5 Q172 689 239 689 Q310 689 344.5 647.5 Q379 606 379 547 L379 529 L308 529 Q306 572 288.5 596.5 Q271 621 239 621 Q175 621 175 534 Q175 476 225.5 372 Q276 268 358 145 Q379 202 379 290 L379 304 L454 304 L454 284 Q454 153 403 79 L459 0 L371 0 Z M310 82 Q223 206 161 332 Q121 278 121 202 Q121 63 243 63 Q282 63 310 82 Z " />
<glyph glyph-name="paragraph" unicode="&#xb6;" horiz-adv-x="517" d="M450 -170 L383 -170 L383 614 L311 614 L311 -170 L245 -170 L245 274 L223 274 Q141 274 97 326 Q53 378 53 465 L53 490 Q53 577 97 628.5 Q141 680 223 680 L450 680 L450 -170 Z " />
<glyph glyph-name="copyright" unicode="&#xa9;" horiz-adv-x="740" d="M53 340 Q53 443 92 522.5 Q131 602 202.5 646.5 Q274 691 370 691 Q466 691 538 646 Q610 601 648.5 521.5 Q687 442 687 340 Q687 237 648 157.5 Q609 78 537 33.5 Q465 -11 370 -11 Q273 -11 201.5 34 Q130 79 91.5 158.5 Q53 238 53 340 Z M626 340 Q626 428 596 495.5 Q566 563 508 600 Q450 637 370 637 Q289 637 231.5 599.5 Q174 562 144 494.5 Q114 427 114 340 Q114 252 144 184.5 Q174 117 232 80 Q290 43 370 43 Q451 43 508.5 80.5 Q566 118 596 185.5 Q626 253 626 340 Z M499 264 Q499 211 466.5 175 Q434 139 372 139 Q310 139 273 181.5 Q236 224 236 314 L236 366 Q236 456 273.5 499 Q311 542 373 542 Q434 542 466.5 507.5 Q499 473 499 422 L499 410 L436 410 Q433 446 419 464 Q405 482 372 482 Q334 482 318.5 450.5 Q303 419 303 361 L303 320 Q303 261 318.5 230 Q334 199 372 199 Q407 199 420 217 Q433 235 436 276 L499 276 L499 264 Z " />
<glyph glyph-name="registered" unicode="&#xae;" horiz-adv-x="470" d="M436 558 Q436 501 410.5 455 Q385 409 339 383 Q293 357 235 357 Q177 357 131.5 383 Q86 409 60.5 455 Q35 501 35 558 Q35 615 60.5 661 Q86 707 131.5 733 Q177 759 235 759 Q293 759 339 733 Q385 707 410.5 661 Q436 615 436 558 Z M393 558 Q393 629 350 675 Q307 721 235 721 Q163 721 120.5 675 Q78 629 78 558 Q78 487 120.5 441 Q163 395 235 395 Q307 395 350 441 Q393 487 393 558 Z M274 543 Q309 489 324 454 L279 454 Q255 504 233 539 L205 539 L205 454 L164 454 L164 671 L246 671 Q277 671 298 654 Q319 637 319 604 Q319 558 274 543 Z M206 572 L239 572 Q259 572 268.5 579.5 Q278 587 278 604 Q278 637 239 637 L206 637 L206 572 Z " />
<glyph glyph-name="section" unicode="&#xa7;" horiz-adv-x="414" d="M357 8 Q357 -59 316.5 -97.5 Q276 -136 205 -136 Q135 -136 95 -97.5 Q55 -59 55 -2 L55 16 L125 16 Q127 -28 145.5 -52 Q164 -76 206 -76 Q241 -76 261 -53 Q281 -30 281 6 Q281 30 270 47 Q259 64 241 77 Q223 90 185 112 Q130 146 102 168 Q74 190 57 219 Q40 248 40 287 Q40 381 135 418 Q97 445 77.5 475 Q58 505 58 545 Q58 612 98.5 650.5 Q139 689 210 689 Q280 689 320 650.5 Q360 612 360 555 L360 537 L290 537 Q288 581 269.5 605 Q251 629 209 629 Q174 629 154 606 Q134 583 134 547 Q134 523 145 506 Q156 489 174.5 476 Q193 463 230 441 Q285 407 313 385 Q341 363 358 334 Q375 305 375 266 Q375 172 280 135 Q318 107 337.5 77.5 Q357 48 357 8 Z M232 166 Q261 176 279 199.5 Q297 223 297 261 Q297 288 282 309.5 Q267 331 245 347 Q223 363 182 387 Q154 377 136 353 Q118 329 118 292 Q118 265 132.5 243.5 Q147 222 169.5 206 Q192 190 232 166 Z " />
<glyph glyph-name="trademark" unicode="&#x2122;" horiz-adv-x="624" d="M39 680 L245 680 L245 627 L172 627 L172 384 L113 384 L113 627 L39 627 L39 680 Z M569 680 L569 384 L514 384 L514 592 Q490 525 447 441 Q442 430 431 430 L420 430 Q414 430 411 432.5 Q408 435 405 441 Q364 519 337 591 L337 384 L282 384 L282 680 L349 680 Q407 543 427 503 Q443 537 464 589 Q485 641 499 680 L569 680 Z " />
<glyph glyph-name="degree" unicode="&#xb0;" horiz-adv-x="332" d="M39 564 Q39 619 75.5 655 Q112 691 166 691 Q220 691 256.5 655 Q293 619 293 564 Q293 509 256.5 473 Q220 437 166 437 Q112 437 75.5 473 Q39 509 39 564 Z M237 564 Q237 597 217.5 617.5 Q198 638 166 638 Q134 638 114.5 617.5 Q95 597 95 564 Q95 531 114.5 510.5 Q134 490 166 490 Q198 490 217.5 510.5 Q237 531 237 564 Z " />
<glyph glyph-name="asciicircum" unicode="&#x5e;" horiz-adv-x="422" d="M314 264 L210 596 L106 264 L32 264 L168 680 L254 680 L390 264 L314 264 Z " />
<glyph glyph-name="dagger" unicode="&#x2020;" horiz-adv-x="466" d="M416 421 L267 421 L267 -95 L197 -95 L197 421 L50 421 L50 486 L197 486 L197 680 L267 680 L267 486 L416 486 L416 421 Z " />
<glyph glyph-name="daggerdbl" unicode="&#x2021;" horiz-adv-x="466" d="M267 421 L267 232 L416 232 L416 167 L267 167 L267 -95 L197 -95 L197 167 L50 167 L50 232 L197 232 L197 421 L50 421 L50 486 L197 486 L197 680 L267 680 L267 486 L416 486 L416 421 L267 421 Z " />
<glyph glyph-name="uni0308" unicode="&#x308;" d="M-292 617 Q-292 638 -277 652.5 Q-262 667 -241 667 Q-220 667 -205.5 653 Q-191 639 -191 617 Q-191 596 -205.5 582 Q-220 568 -241 568 Q-262 568 -277 582 Q-292 596 -292 617 Z M-141 617 Q-141 637 -126 652 Q-111 667 -90 667 Q-69 667 -54.5 652 Q-40 637 -40 617 Q-40 597 -54.5 582.5 Q-69 568 -90 568 Q-111 568 -126 582.5 Q-141 597 -141 617 Z " />
<glyph glyph-name="uni0307" unicode="&#x307;" d="M-144 617 Q-144 639 -128.5 654 Q-113 669 -91 669 Q-69 669 -54 654 Q-39 639 -39 617 Q-39 595 -54 580.5 Q-69 566 -91 566 Q-113 566 -128.5 580.5 Q-144 595 -144 617 Z " />
<glyph glyph-name="gravecomb" unicode="&#x300;" d="M-106 680 Q-67 626 -39 560 L-110 560 Q-150 620 -200 680 L-106 680 Z " />
<glyph glyph-name="acutecomb" unicode="&#x301;" d="M-129 560 L-200 560 Q-172 626 -133 680 L-39 680 Q-89 620 -129 560 Z " />
<glyph glyph-name="uni030B" unicode="&#x30b;" d="M-245 560 L-307 560 Q-289 608 -251 680 L-167 680 Q-204 636 -245 560 Z M-128 560 L-190 560 Q-158 628 -123 680 L-39 680 Q-63 650 -128 560 Z " />
<glyph glyph-name="uni0302" unicode="&#x302;" d="M-101 560 Q-129 606 -163 643 Q-202 601 -225 560 L-287 560 Q-257 630 -219 680 L-108 680 Q-67 627 -39 560 L-101 560 Z " />
<glyph glyph-name="uni030C" unicode="&#x30c;" d="M-39 680 Q-67 613 -108 560 L-219 560 Q-257 610 -287 680 L-225 680 Q-202 639 -163 597 Q-129 634 -101 680 L-39 680 Z " />
<glyph glyph-name="uni0306" unicode="&#x306;" d="M-39 680 Q-39 628 -73 595.5 Q-107 563 -163 563 Q-220 563 -253.5 595.5 Q-287 628 -287 680 L-225 680 Q-225 652 -211 632.5 Q-197 613 -163 613 Q-129 613 -114.5 633 Q-100 653 -100 680 L-39 680 L-39 680 Z " />
<glyph glyph-name="uni030A" unicode="&#x30a;" d="M-233 631 Q-233 670 -205 695.5 Q-177 721 -136 721 Q-95 721 -67 695.5 Q-39 670 -39 631 Q-39 592 -66.5 567 Q-94 542 -136 542 Q-178 542 -205.5 567 Q-233 592 -233 631 Z M-85 631 Q-85 653 -99 667.5 Q-113 682 -136 682 Q-159 682 -173 667.5 Q-187 653 -187 631 Q-187 610 -173 595 Q-159 580 -136 580 Q-113 580 -99 595 Q-85 610 -85 631 Z " />
<glyph glyph-name="tildecomb" unicode="&#x303;" d="M-117 567 Q-136 567 -152.5 575 Q-169 583 -187 596 Q-202 606 -210.5 610.5 Q-219 615 -228 615 Q-247 615 -255 602 Q-263 589 -265 566 L-307 566 Q-305 621 -284.5 645.5 Q-264 670 -224 670 Q-207 670 -192 662.5 Q-177 655 -157 641 Q-154 639 -144.5 633 Q-135 627 -127.5 624 Q-120 621 -114 621 Q-97 621 -89.5 635.5 Q-82 650 -81 670 L-39 670 Q-41 615 -59.5 591 Q-78 567 -117 567 Z " />
<glyph glyph-name="uni0304" unicode="&#x304;" d="M-39 647 L-39 583 L-269 583 L-269 647 L-39 647 Z " />
<glyph glyph-name="uni0312" unicode="&#x312;" d="M-56 549 L-129 549 Q-128 596 -115 630 Q-102 664 -82 695 L-40 695 Q-56 619 -56 549 Z " />
<glyph glyph-name="uni0326" unicode="&#x326;" d="M-112 -54 L-40 -54 Q-41 -101 -53.5 -135.5 Q-66 -170 -86 -200 L-129 -200 Q-112 -119 -112 -54 Z " />
<glyph glyph-name="uni0327" unicode="&#x327;" d="M-39 -111 Q-39 -145 -64.5 -167.5 Q-90 -190 -133 -190 Q-184 -190 -227 -160 L-201 -120 Q-171 -142 -133 -142 Q-113 -142 -101.5 -134 Q-90 -126 -90 -111 Q-90 -97 -104 -89 Q-118 -81 -141 -81 Q-154 -81 -162.5 -83.5 Q-171 -86 -173 -87 L-190 -65 L-155 9 L-103 9 L-130 -41 Q-88 -40 -63.5 -59.5 Q-39 -79 -39 -111 Z " />
<glyph glyph-name="uni0328" unicode="&#x328;" d="M-39 0 Q-102 -43 -102 -82 Q-102 -116 -53 -116 L-42 -116 L-42 -164 Q-56 -167 -70 -167 Q-112 -167 -137 -148.5 Q-162 -130 -162 -95 Q-162 -55 -133.5 -28 Q-105 -1 -68 15 L-39 0 Z " />
<glyph glyph-name="uni0335" unicode="&#x335;" d="M-39 263 L-39 205 L-262 205 L-262 263 L-39 263 Z " />
<glyph glyph-name="uni0336" unicode="&#x336;" d="M-39 274 L-39 194 L-494 194 L-494 274 L-39 274 Z " />
<glyph glyph-name="uni0337" unicode="&#x337;" d="M-279 330 L-279 402 L-45 545 L-45 472 L-279 330 Z " />
<glyph glyph-name="uni0338" unicode="&#x338;" d="M-380 -9 L-429 13 L-81 692 L-32 669 L-380 -9 Z " />
<glyph glyph-name="acute" unicode="&#xb4;" horiz-adv-x="239" d="M110 560 L39 560 Q67 626 106 680 L200 680 Q150 620 110 560 Z " />
<glyph glyph-name="breve" unicode="&#x2d8;" horiz-adv-x="326" d="M287 680 Q287 628 253 595.5 Q219 563 163 563 Q106 563 72.5 595.5 Q39 628 39 680 L101 680 Q101 652 115 632.5 Q129 613 163 613 Q197 613 211.5 633 Q226 653 226 680 L287 680 L287 680 Z " />
<glyph glyph-name="caron" unicode="&#x2c7;" horiz-adv-x="326" d="M287 680 Q259 613 218 560 L107 560 Q69 610 39 680 L101 680 Q124 639 163 597 Q197 634 225 680 L287 680 Z " />
<glyph glyph-name="cedilla" unicode="&#xb8;" horiz-adv-x="266" d="M227 -111 Q227 -145 201.5 -167.5 Q176 -190 133 -190 Q82 -190 39 -160 L65 -120 Q95 -142 133 -142 Q153 -142 164.5 -134 Q176 -126 176 -111 Q176 -97 162 -89 Q148 -81 125 -81 Q112 -81 103.5 -83.5 Q95 -86 93 -87 L76 -65 L111 9 L163 9 L136 -41 Q178 -40 202.5 -59.5 Q227 -79 227 -111 Z " />
<glyph glyph-name="circumflex" unicode="&#x2c6;" horiz-adv-x="326" d="M225 560 Q197 606 163 643 Q124 601 101 560 L39 560 Q69 630 107 680 L218 680 Q259 627 287 560 L225 560 Z " />
<glyph glyph-name="dieresis" unicode="&#xa8;" horiz-adv-x="331" d="M39 617 Q39 638 54 652.5 Q69 667 90 667 Q111 667 125.5 653 Q140 639 140 617 Q140 596 125.5 582 Q111 568 90 568 Q69 568 54 582 Q39 596 39 617 Z M190 617 Q190 637 205 652 Q220 667 241 667 Q262 667 276.5 652 Q291 637 291 617 Q291 597 276.5 582.5 Q262 568 241 568 Q220 568 205 582.5 Q190 597 190 617 Z " />
<glyph glyph-name="dotaccent" unicode="&#x2d9;" horiz-adv-x="183" d="M39 617 Q39 639 54.5 654 Q70 669 92 669 Q114 669 129 654 Q144 639 144 617 Q144 595 129 580.5 Q114 566 92 566 Q70 566 54.5 580.5 Q39 595 39 617 Z " />
<glyph glyph-name="grave" unicode="&#x60;" horiz-adv-x="239" d="M133 680 Q172 626 200 560 L129 560 Q89 620 39 680 L133 680 Z " />
<glyph glyph-name="hungarumlaut" unicode="&#x2dd;" horiz-adv-x="346" d="M101 560 L39 560 Q57 608 95 680 L179 680 Q142 636 101 560 Z M218 560 L156 560 Q188 628 223 680 L307 680 Q283 650 218 560 Z " />
<glyph glyph-name="overscore" unicode="&#xaf;" horiz-adv-x="308" d="M269 647 L269 583 L39 583 L39 647 L269 647 Z " />
<glyph glyph-name="ogonek" unicode="&#x2db;" horiz-adv-x="201" d="M162 0 Q99 -43 99 -82 Q99 -116 148 -116 L159 -116 L159 -164 Q145 -167 131 -167 Q89 -167 64 -148.5 Q39 -130 39 -95 Q39 -55 67.5 -28 Q96 -1 133 15 L162 0 Z " />
<glyph glyph-name="ring" unicode="&#x2da;" horiz-adv-x="272" d="M39 631 Q39 670 67 695.5 Q95 721 136 721 Q177 721 205 695.5 Q233 670 233 631 Q233 592 205.5 567 Q178 542 136 542 Q94 542 66.5 567 Q39 592 39 631 Z M187 631 Q187 653 173 667.5 Q159 682 136 682 Q113 682 99 667.5 Q85 653 85 631 Q85 610 99 595 Q113 580 136 580 Q159 580 173 595 Q187 610 187 631 Z " />
<glyph glyph-name="tilde" unicode="&#x2dc;" horiz-adv-x="346" d="M229 567 Q210 567 193.5 575 Q177 583 159 596 Q144 606 135.5 610.5 Q127 615 118 615 Q99 615 91 602 Q83 589 81 566 L39 566 Q41 621 61.5 645.5 Q82 670 122 670 Q139 670 154 662.5 Q169 655 189 641 Q192 639 201.5 633 Q211 627 218.5 624 Q226 621 232 621 Q249 621 256.5 635.5 Q264 650 265 670 L307 670 Q305 615 286.5 591 Q268 567 229 567 Z " />
</font>
</svg>
