<?xml version="1.0" standalone="no"?>
<!DOCTYPE svg PUBLIC "-//W3C//DTD SVG 1.1//EN" "http://www.w3.org/Graphics/SVG/1.1/DTD/svg11.dtd" >
<svg xmlns="http://www.w3.org/2000/svg" xmlns:xlink="http://www.w3.org/1999/xlink" version="1.1">
<metadata>
Created by FontForge 20161013 at Thu Jan 28 16:32:48 2016
 By ,,,
Copyright (c) 2016 by AIA Group Limited. All rights reserved.
</metadata>
<defs>
<font id="AIAEverest-CondensedMedium" horiz-adv-x="420" >
  <font-face 
    font-family="AIA Everest Condensed Medium"
    font-weight="500"
    font-stretch="condensed"
    units-per-em="1000"
    panose-1="0 0 6 6 0 0 0 0 0 0"
    ascent="750"
    descent="-250"
    x-height="486"
    cap-height="680"
    bbox="-487 -200 1000 906"
    underline-thickness="60"
    underline-position="-250"
    unicode-range="U+0020-2265"
  />
<missing-glyph horiz-adv-x="579" 
d="M100 -100v880h379v-880h-379z" />
    <glyph glyph-name=".notdef" horiz-adv-x="579" 
d="M100 -100v880h379v-880h-379z" />
    <glyph glyph-name=".null" horiz-adv-x="0" 
 />
    <glyph glyph-name="nonmarkingreturn" horiz-adv-x="333" 
 />
    <glyph glyph-name="space" unicode=" " horiz-adv-x="180" 
 />
    <glyph glyph-name="exclam" unicode="!" horiz-adv-x="238" 
d="M182 680q-10 -305 -23 -477h-80q-13 172 -23 477h126zM119 -6q-27 0 -47 19.5t-20 47.5t20 47.5t47 19.5t47 -19.5t20 -47.5t-20 -47.5t-47 -19.5z" />
    <glyph glyph-name="quotedbl" unicode="&#x22;" horiz-adv-x="328" 
d="M32 680h104q0 -140 -23 -232h-57q-24 96 -24 232zM192 680h104q0 -140 -23 -232h-57q-24 96 -24 232z" />
    <glyph glyph-name="numbersign" unicode="#" horiz-adv-x="422" 
d="M408 425h-66l-24 -168h57v-66h-66l-27 -191h-72l27 191h-91l-27 -191h-73l27 191h-58v66h67l24 168h-59v67h68l27 188h72l-26 -188h91l27 188h72l-27 -188h57v-67zM246 257l24 168h-92l-23 -168h91z" />
    <glyph glyph-name="dollar" unicode="$" 
d="M388 173q0 -74 -35.5 -120.5t-100.5 -57.5v-75h-80v74q-69 9 -104.5 55.5t-35.5 118.5v25h107q2 -47 20 -75.5t53 -28.5q31 0 47.5 20t16.5 55q0 41 -23.5 70.5t-71.5 65.5l-36 27q-54 40 -80.5 84t-26.5 105q0 71 35.5 115.5t98.5 54.5v80h80v-81q61 -12 92.5 -54.5
t31.5 -105.5v-22h-107q-5 88 -64 88q-25 0 -40 -18.5t-15 -48.5q0 -55 66 -106l36 -28q76 -59 106 -102t30 -115z" />
    <glyph glyph-name="percent" unicode="%" horiz-adv-x="720" 
d="M174 341q-62 0 -99 43.5t-37 130.5t37 130.5t99 43.5t99 -43.5t37 -130.5t-37 -130.5t-99 -43.5zM599 680l-393 -680h-85l393 680h85zM174 411q51 0 51 104t-51 104t-51 -104t51 -104zM546 -10q-62 0 -99 43.5t-37 130.5t37 130.5t99 43.5t99 -43.5t37 -130.5t-37 -130.5
t-99 -43.5zM546 60q51 0 51 104t-51 104t-51 -104t51 -104z" />
    <glyph glyph-name="ampersand" unicode="&#x26;" horiz-adv-x="485" 
d="M475 0h-116q-13 15 -17 21q-46 -28 -108 -28q-100 0 -152 56.5t-52 148.5q0 122 89 201q-33 83 -33 130q0 72 37 116t109 44q75 0 110.5 -40t35.5 -100v-20h-101q-3 64 -43 64q-42 0 -42 -59q0 -90 158 -344q10 40 10 100v14h99v-20q0 -117 -46 -193q32 -49 62 -91z
M243 87q25 0 44 10q-71 104 -123 205q-26 -44 -26 -100q0 -50 28 -82.5t77 -32.5z" />
    <glyph glyph-name="quotesingle" unicode="'" horiz-adv-x="168" 
d="M32 680h104q0 -140 -23 -232h-57q-24 96 -24 232z" />
    <glyph glyph-name="parenleft" unicode="(" horiz-adv-x="314" 
d="M70 267q0 251 140 413h94q-129 -185 -129 -413q0 -226 129 -413h-94q-140 164 -140 413z" />
    <glyph glyph-name="parenright" unicode=")" horiz-adv-x="314" 
d="M244 267q0 -249 -140 -413h-94q129 187 129 413q0 228 -129 413h94q140 -162 140 -413z" />
    <glyph glyph-name="asterisk" unicode="*" horiz-adv-x="348" 
d="M316 596q-63 -22 -97 -38q56 -25 97 -37q-12 -38 -38 -66q-55 45 -82 66q5 -45 16 -104q-38 -10 -76 0q11 54 16 103q-22 -16 -82 -65q-26 28 -38 66q39 12 98 37q-43 20 -98 38q12 36 38 67q32 -30 82 -67q-5 51 -16 104q38 10 76 0q-11 -59 -16 -104q50 37 82 67
q26 -31 38 -67z" />
    <glyph glyph-name="plus" unicode="+" 
d="M390 367v-86h-135v-139h-90v139h-135v86h135v138h90v-138h135z" />
    <glyph glyph-name="comma" unicode="," horiz-adv-x="198" 
d="M157 117v-37q0 -92 -74 -194h-56q19 100 19 201v30h111z" />
    <glyph glyph-name="hyphen" unicode="-" horiz-adv-x="342" 
d="M45 342h252v-96h-252v96z" />
    <glyph glyph-name="period" unicode="." horiz-adv-x="198" 
d="M99 -6q-27 0 -47 19.5t-20 47.5t20 47.5t47 19.5t47 -19.5t20 -47.5t-20 -47.5t-47 -19.5z" />
    <glyph glyph-name="slash" unicode="/" horiz-adv-x="309" 
d="M295 700l-185 -720h-96l184 720h97z" />
    <glyph glyph-name="zero" unicode="0" 
d="M210 -8q-44 0 -75 13.5t-55.5 46t-37 93t-12.5 150.5v90q0 90 12.5 150.5t37 93t55.5 46t75 13.5t75 -13.5t55.5 -46t37 -93t12.5 -150.5v-90q0 -90 -12.5 -150.5t-37 -93t-55.5 -46t-75 -13.5zM210 92q43 0 56.5 51.5t13.5 154.5v84q0 103 -13.5 154.5t-56.5 51.5
t-56.5 -51.5t-13.5 -154.5v-84q0 -103 13.5 -154.5t56.5 -51.5z" />
    <glyph glyph-name="one" unicode="1" 
d="M208 680h81v-680h-110v520q-48 -41 -109 -67v101q86 56 138 126z" />
    <glyph glyph-name="two" unicode="2" 
d="M170 99h211v-99h-349v86q238 270 238 420q0 84 -58 84q-60 0 -68 -98h-108q1 93 45 145t128 52q86 0 128.5 -46.5t42.5 -131.5q0 -104 -63 -212.5t-147 -199.5z" />
    <glyph glyph-name="three" unicode="3" 
d="M289 360q44 -15 67.5 -58t23.5 -106q0 -100 -45.5 -152.5t-133.5 -52.5q-84 0 -127.5 48.5t-43.5 132.5v19h106q3 -53 19.5 -77t49.5 -24q65 0 65 102q0 63 -26.5 89.5t-80.5 26.5v92q95 0 95 103q0 87 -57 87q-56 0 -62 -88h-106q1 92 45 139.5t124 47.5q81 0 123.5 -47
t42.5 -131q0 -57 -22 -96t-57 -55z" />
    <glyph glyph-name="four" unicode="4" 
d="M402 240v-99h-46v-141h-107v141h-228v65q0 29 8 56q22 79 77 205t104 213h118q-137 -242 -196 -440h117v181h107v-181h46z" />
    <glyph glyph-name="five" unicode="5" 
d="M234 448q152 0 152 -217q0 -113 -45 -176.5t-133 -63.5q-84 0 -129 48.5t-45 125.5v26h106q5 -101 69 -101q67 0 67 127q0 66 -16 99.5t-54 33.5q-39 0 -59 -39l-100 9q9 167 40 360h275v-99h-190q-13 -92 -18 -163q30 30 80 30z" />
    <glyph glyph-name="six" unicode="6" 
d="M234 448q155 0 155 -223q0 -110 -47 -172t-132 -62q-84 0 -130 60.5t-46 169.5v28q0 113 50.5 233.5t124.5 197.5h126q-121 -142 -160 -250q23 18 59 18zM211 89q70 0 70 130q0 131 -70 131q-36 0 -52.5 -31.5t-16.5 -99.5q0 -130 69 -130z" />
    <glyph glyph-name="seven" unicode="7" 
d="M26 680h351v-94q-31 -127 -96 -309t-109 -277h-115q131 289 210 581h-241v99z" />
    <glyph glyph-name="eight" unicode="8" 
d="M294 361q46 -34 73 -76.5t27 -107.5q0 -86 -50 -136t-133 -50q-86 0 -135.5 49.5t-49.5 135.5q0 114 96 184q-80 69 -80 161q0 78 45 123t124 45q78 0 123.5 -44t45.5 -123q0 -99 -86 -161zM211 595q-30 0 -46.5 -20t-16.5 -52q0 -57 74 -112q54 39 54 108q0 34 -17.5 55
t-47.5 21zM210 87q36 0 56 24t20 65q0 43 -25 73.5t-68 58.5q-61 -47 -61 -128q0 -41 21 -67t57 -26z" />
    <glyph glyph-name="nine" unicode="9" 
d="M210 689q85 0 130.5 -57.5t45.5 -165.5v-21q0 -115 -51 -242.5t-124 -202.5h-121q126 151 167 274q-26 -28 -73 -28q-72 0 -112.5 55.5t-40.5 163.5t46.5 166t132.5 58zM209 344q69 0 69 124q0 123 -69 123q-70 0 -70 -123q0 -124 70 -124z" />
    <glyph glyph-name="colon" unicode=":" horiz-adv-x="228" 
d="M114 358q-27 0 -47 19.5t-20 47.5t20 47.5t47 19.5t47 -19.5t20 -47.5t-20 -47.5t-47 -19.5zM114 -6q-27 0 -47 19.5t-20 47.5t20 47.5t47 19.5t47 -19.5t20 -47.5t-20 -47.5t-47 -19.5z" />
    <glyph glyph-name="semicolon" unicode=";" horiz-adv-x="228" 
d="M114 358q-27 0 -47 19.5t-20 47.5t20 47.5t47 19.5t47 -19.5t20 -47.5t-20 -47.5t-47 -19.5zM172 117v-37q0 -92 -74 -194h-56q19 100 19 201v30h111z" />
    <glyph glyph-name="less" unicode="&#x3c;" 
d="M390 497v-90l-245 -83l245 -83v-90l-360 130v86z" />
    <glyph glyph-name="equal" unicode="=" 
d="M30 447h360v-86h-360v86zM30 287h360v-86h-360v86z" />
    <glyph glyph-name="greater" unicode="&#x3e;" 
d="M30 497l360 -130v-86l-360 -130v90l245 83l-245 83v90z" />
    <glyph glyph-name="question" unicode="?" horiz-adv-x="353" 
d="M116 196q0 1 13 29t16 35t14.5 35t16 40t14 37t13.5 41t9.5 36.5t7.5 38t2 32.5q0 67 -45 67q-26 0 -38 -22t-14 -68h-105v13q0 81 39 130t121 49q75 0 114 -43t39 -116q0 -81 -39.5 -175t-79.5 -159h-98zM164 -6q-27 0 -47 19.5t-20 47.5t20 47.5t47 19.5t47 -19.5
t20 -47.5t-20 -47.5t-47 -19.5z" />
    <glyph glyph-name="at" unicode="@" horiz-adv-x="695" 
d="M393 445h80v-260q0 -70 47 -70q31 0 45.5 37.5t14.5 125.5q0 139 -59.5 217t-167.5 78q-111 0 -174.5 -84.5t-63.5 -237.5q0 -154 64.5 -236t178.5 -82q88 0 159 49l35 -59q-77 -62 -194 -62q-150 0 -236 104t-86 286q0 183 86.5 288.5t230.5 105.5q141 0 223.5 -100
t82.5 -267q0 -116 -36 -175t-103 -59q-79 0 -105 56q-24 -56 -89 -56q-121 0 -121 205t114 205q57 0 74 -57v48zM341 122q29 0 38.5 30.5t9.5 96.5q0 67 -10.5 97t-39.5 30q-51 0 -51 -127q0 -65 12 -96t41 -31z" />
    <glyph glyph-name="A" unicode="A" horiz-adv-x="478" 
d="M349 0q-13 88 -25 150h-175q-18 -102 -25 -150h-111q69 397 146 659q3 12 10.5 16.5t24.5 4.5h91q17 0 24 -4.5t10 -16.5q80 -279 146 -659h-116zM168 250h138q-29 148 -69 319q-34 -137 -69 -319z" />
    <glyph glyph-name="B" unicode="B" horiz-adv-x="456" 
d="M327 365q104 -41 104 -168q0 -98 -52 -147.5t-151 -49.5h-176v680h178q83 0 132.5 -45t49.5 -127q0 -105 -85 -143zM166 583v-177h49q86 0 86 91q0 86 -86 86h-49zM217 97q53 0 77 25.5t24 79.5q0 106 -101 106h-51v-211h51z" />
    <glyph glyph-name="C" unicode="C" horiz-adv-x="416" 
d="M223 -9q-93 0 -140 65.5t-47 238.5v90q0 173 47 238.5t140 65.5q168 0 168 -185v-15h-106q-5 49 -18.5 72t-45.5 23q-23 0 -37.5 -13.5t-21.5 -42.5t-9.5 -62t-2.5 -84v-84q0 -52 2.5 -84.5t9.5 -61.5t21.5 -42.5t37.5 -13.5q32 0 47 27.5t17 84.5h106v-33
q0 -80 -39.5 -132t-128.5 -52z" />
    <glyph glyph-name="D" unicode="D" horiz-adv-x="454" 
d="M52 0v680h148q76 0 121.5 -24t71 -90.5t25.5 -184.5v-81q0 -118 -25.5 -184.5t-71 -91t-121.5 -24.5h-148zM166 105h36q61 0 81.5 43t20.5 159v66q0 116 -20.5 159.5t-81.5 43.5h-36v-471z" />
    <glyph glyph-name="E" unicode="E" horiz-adv-x="401" 
d="M166 102h210v-102h-324v680h315v-102h-201v-182h179v-100h-179v-194z" />
    <glyph glyph-name="F" unicode="F" horiz-adv-x="392" 
d="M367 578h-201v-182h179v-100h-179v-296h-114v680h315v-102z" />
    <glyph glyph-name="G" unicode="G" horiz-adv-x="443" 
d="M223 -11q-46 0 -78.5 13.5t-58 46t-38 92.5t-12.5 149v97q0 90 13 150.5t39.5 93.5t59 46.5t77.5 13.5q89 0 130.5 -50.5t41.5 -127.5v-22h-106q-5 49 -19.5 72t-47.5 23q-42 0 -58 -44.5t-16 -157.5v-88q0 -114 16 -158t58 -44t57 36t15 110v31h-77v102h186v-133
q0 -140 -45 -195.5t-137 -55.5z" />
    <glyph glyph-name="H" unicode="H" horiz-adv-x="491" 
d="M325 680h114v-680h-114v295h-159v-295h-114v680h114v-283h159v283z" />
    <glyph glyph-name="I" unicode="I" horiz-adv-x="226" 
d="M170 680v-680h-114v680h114z" />
    <glyph glyph-name="J" unicode="J" horiz-adv-x="294" 
d="M11 100q24 -3 44 -3q43 0 59 21.5t16 72.5v489h114v-499q0 -187 -160 -187q-51 0 -73 12v94z" />
    <glyph glyph-name="K" unicode="K" horiz-adv-x="459" 
d="M337 0q-48 158 -112 297q-45 -62 -62 -84v-213h-111v680h111v-307q100 164 160 307h114q-50 -134 -140 -276q44 -92 89 -211t66 -193h-115z" />
    <glyph glyph-name="L" unicode="L" horiz-adv-x="369" 
d="M166 102h188v-102h-302v680h114v-578z" />
    <glyph glyph-name="M" unicode="M" horiz-adv-x="589" 
d="M412 680h125v-680h-108v451q-50 -162 -97 -273q-8 -19 -28 -19h-19q-19 0 -27 19q-59 143 -98 267v-445h-108v680h124q62 -196 121 -345q58 152 115 345z" />
    <glyph glyph-name="N" unicode="N" horiz-adv-x="491" 
d="M331 680h108v-680h-103l-176 440v-440h-108v680h113l166 -415v415z" />
    <glyph glyph-name="O" unicode="O" horiz-adv-x="446" 
d="M223 -10q-46 0 -78.5 13.5t-58 46.5t-38 93.5t-12.5 150.5v92q0 90 12.5 150.5t38 93.5t58 46.5t78.5 13.5t78.5 -13.5t58 -46.5t38 -93.5t12.5 -150.5v-92q0 -90 -12.5 -150.5t-38 -93.5t-58 -46.5t-78.5 -13.5zM223 95q24 0 39 13.5t22.5 43t9.5 61.5t2 84v86
q0 52 -2 84t-9.5 61.5t-22.5 43t-39 13.5t-39 -13.5t-22.5 -43t-9.5 -61.5t-2 -84v-86q0 -52 2 -84t9.5 -61.5t22.5 -43t39 -13.5z" />
    <glyph glyph-name="P" unicode="P" horiz-adv-x="438" 
d="M223 680q95 0 145 -54.5t50 -153.5t-50 -153.5t-145 -54.5h-57v-264h-114v680h171zM219 364q85 0 85 108t-85 108h-53v-216h53z" />
    <glyph glyph-name="Q" unicode="Q" horiz-adv-x="446" 
d="M410 294q0 -232 -95 -284q25 -11 65 -11q11 0 26 1v-88q-20 -5 -49 -5q-115 0 -159 84q-81 7 -121.5 74.5t-40.5 228.5v92q0 90 12.5 150.5t38 93.5t58 46.5t78.5 13.5t78.5 -13.5t58 -46.5t38 -93.5t12.5 -150.5v-92zM150 383v-86q0 -52 2 -84t9.5 -61.5t22.5 -43
t39 -13.5t39 13.5t22.5 43t9.5 61.5t2 84v86q0 52 -2 84t-9.5 61.5t-22.5 43t-39 13.5t-39 -13.5t-22.5 -43t-9.5 -61.5t-2 -84z" />
    <glyph glyph-name="R" unicode="R" horiz-adv-x="452" 
d="M436 0h-114q-48 158 -105 279h-51v-279h-114v680h170q96 0 144.5 -52.5t48.5 -145.5q0 -131 -94 -176q33 -65 67.5 -158t47.5 -148zM166 582v-203h52q84 0 84 102q0 101 -84 101h-52z" />
    <glyph glyph-name="S" unicode="S" horiz-adv-x="399" 
d="M367 503h-108q-7 84 -63 84q-26 0 -41 -17.5t-15 -47.5q0 -53 66 -104l36 -28q76 -59 106 -102t30 -115q0 -87 -47 -134.5t-132 -47.5q-87 0 -132 47.5t-45 129.5v25h107q2 -45 20.5 -72.5t53.5 -27.5q63 0 63 73q0 28 -15 53.5t-30.5 39.5t-49.5 41l-36 28
q-54 42 -80.5 84.5t-26.5 103.5q0 82 45 127.5t124 45.5q83 0 126.5 -44t43.5 -119v-23z" />
    <glyph glyph-name="T" unicode="T" horiz-adv-x="412" 
d="M395 680v-102h-132v-578h-114v578h-132v102h378z" />
    <glyph glyph-name="U" unicode="U" horiz-adv-x="470" 
d="M306 680h114v-499q0 -190 -185 -190q-88 0 -136.5 45.5t-48.5 152.5v491h114v-488q0 -95 71 -95t71 95v488z" />
    <glyph glyph-name="V" unicode="V" horiz-adv-x="458" 
d="M332 680h111q-67 -390 -145 -654q-5 -15 -11.5 -20.5t-23.5 -5.5h-69q-16 0 -23 5t-11 19q-78 269 -145 656h115q34 -229 101 -511q63 265 101 511z" />
    <glyph glyph-name="W" unicode="W" horiz-adv-x="696" 
d="M568 680h108q-45 -424 -111 -654q-5 -15 -11.5 -20.5t-23.5 -5.5h-64q-30 0 -34 24l-84 415l-83 -413q-3 -15 -10 -20.5t-24 -5.5h-66q-27 0 -34 24q-66 226 -111 656h113q23 -262 69 -509l96 509h103l96 -515q46 236 71 515z" />
    <glyph glyph-name="X" unicode="X" horiz-adv-x="432" 
d="M423 0h-115q-40 135 -93 270q-45 -116 -93 -270h-113q52 162 128 358q-80 204 -118 322h114q34 -116 83 -243q49 127 83 243h112q-44 -136 -117 -321q80 -207 129 -359z" />
    <glyph glyph-name="Y" unicode="Y" horiz-adv-x="442" 
d="M437 680q-59 -177 -159 -412v-268h-114v268q-98 227 -159 412h117q36 -115 101 -282q64 158 102 282h112z" />
    <glyph glyph-name="Z" unicode="Z" horiz-adv-x="401" 
d="M378 680v-88l-230 -490h228v-102h-353v89l231 489h-217v102h341z" />
    <glyph glyph-name="bracketleft" unicode="[" horiz-adv-x="273" 
d="M243 680v-71h-79v-689h79v-71h-173v831h173z" />
    <glyph glyph-name="backslash" unicode="\" horiz-adv-x="309" 
d="M14 700h97l184 -720h-96z" />
    <glyph glyph-name="bracketright" unicode="]" horiz-adv-x="273" 
d="M30 680h173v-831h-173v71h79v689h-79v71z" />
    <glyph glyph-name="asciicircum" unicode="^" horiz-adv-x="422" 
d="M390 264h-95l-85 271l-85 -271h-93l134 416h90z" />
    <glyph glyph-name="underscore" unicode="_" horiz-adv-x="452" 
d="M-5 -100h462v-60h-462v60z" />
    <glyph glyph-name="grave" unicode="`" horiz-adv-x="244" 
d="M32 680h113q39 -54 67 -120h-91q-44 66 -89 120z" />
    <glyph glyph-name="a" unicode="a" horiz-adv-x="423" 
d="M371 121q0 -24 6 -32.5t23 -8.5v-78q-14 -7 -41 -7q-60 0 -76 51q-33 -55 -113 -55q-64 0 -102 36t-38 95q0 80 58 125t179 66v17q0 74 -61 74q-55 0 -65 -61h-96q1 70 43 111t119 41t120.5 -39.5t43.5 -121.5v-213zM194 78q35 0 54 20.5t19 55.5v78
q-69 -16 -100.5 -40.5t-31.5 -59.5q0 -54 59 -54z" />
    <glyph glyph-name="b" unicode="b" horiz-adv-x="421" 
d="M249 494q139 0 139 -217v-68q0 -218 -139 -218q-67 0 -100 52v-43h-100v700h104v-252q32 46 96 46zM284 219v47q0 69 -14.5 102t-51.5 33q-63 0 -65 -99v-119q2 -98 65 -98q37 0 51.5 32.5t14.5 101.5z" />
    <glyph glyph-name="c" unicode="c" horiz-adv-x="385" 
d="M360 149v-9q0 -75 -44 -112t-113 -37q-80 0 -125 53.5t-45 166.5v64q0 112 45.5 166t125.5 54q69 0 112 -37.5t43 -109.5v-12h-97q-5 34 -18.5 50t-40.5 16q-36 0 -51 -33t-15 -105v-42q0 -72 15 -105t51 -33q52 0 58 65h99z" />
    <glyph glyph-name="d" unicode="d" horiz-adv-x="421" 
d="M268 700h104v-700h-100v43q-33 -52 -100 -52q-139 0 -139 218v68q0 217 139 217q64 0 96 -46v252zM203 85q63 0 65 98v119q-2 99 -65 99q-37 0 -51.5 -33t-14.5 -102v-47q0 -69 14.5 -101.5t51.5 -32.5z" />
    <glyph glyph-name="e" unicode="e" horiz-adv-x="407" 
d="M374 216h-237q2 -71 17 -102t51 -31q28 0 43 15.5t20 50.5h97q-3 -158 -161 -158q-171 0 -171 220v67q0 217 171 217q170 0 170 -200v-79zM205 404q-34 0 -49.5 -25.5t-17.5 -83.5h135q-2 58 -17.5 83.5t-50.5 25.5z" />
    <glyph glyph-name="f" unicode="f" horiz-adv-x="270" 
d="M259 611q-46 3 -63.5 -11.5t-17.5 -55.5v-58h75v-88h-75v-398h-104v398h-58v88h58v77q0 67 34.5 104t102.5 37q29 0 48 -4v-89z" />
    <glyph glyph-name="g" unicode="g" horiz-adv-x="417" 
d="M270 486h100v-481q0 -174 -165 -174q-79 0 -120.5 35t-41.5 100v12h101q4 -60 60 -60q33 0 47.5 20.5t14.5 67.5v62q-31 -45 -94 -45q-138 0 -138 217v37q0 217 138 217q67 0 98 -49v41zM203 116q61 0 63 99v87q-2 99 -63 99q-37 0 -51 -32.5t-14 -102.5v-16
q0 -69 14 -101.5t51 -32.5z" />
    <glyph glyph-name="h" unicode="h" horiz-adv-x="425" 
d="M255 495q123 0 123 -156v-339h-104v324q0 36 -15.5 56.5t-44.5 20.5q-61 0 -61 -77v-324h-104v700h104v-254q33 49 102 49z" />
    <glyph glyph-name="i" unicode="i" horiz-adv-x="202" 
d="M101 554q-26 0 -44 17.5t-18 43.5t18 43.5t44 17.5t44 -17.5t18 -43.5t-18 -43.5t-44 -17.5zM153 486v-486h-104v486h104z" />
    <glyph glyph-name="j" unicode="j" horiz-adv-x="202" 
d="M101 554q-26 0 -44 17.5t-18 43.5t18 43.5t44 17.5t44 -17.5t18 -43.5t-18 -43.5t-44 -17.5zM-14 -162v91q32 4 47.5 24.5t15.5 75.5v457h104v-464q0 -100 -43.5 -142t-123.5 -42z" />
    <glyph glyph-name="k" unicode="k" horiz-adv-x="400" 
d="M293 0q-41 117 -89 209q-37 -45 -53 -63v-146h-102v700h102v-416q78 113 122 202h108q-44 -92 -113 -190q83 -151 131 -296h-106z" />
    <glyph glyph-name="l" unicode="l" horiz-adv-x="215" 
d="M151 700v-569q0 -31 10 -41.5t36 -10.5v-79q-16 -8 -47 -8q-57 0 -80 30t-23 93v585h104z" />
    <glyph glyph-name="m" unicode="m" horiz-adv-x="642" 
d="M471 495q63 0 93.5 -37.5t30.5 -118.5v-339h-104v324q0 77 -58 77q-59 0 -59 -77v-324h-104v324q0 77 -58 77q-59 0 -59 -77v-324h-104v486h100v-46q29 55 104 55q76 0 104 -60q32 60 114 60z" />
    <glyph glyph-name="n" unicode="n" horiz-adv-x="425" 
d="M255 495q123 0 123 -156v-339h-104v324q0 36 -15.5 56.5t-44.5 20.5q-61 0 -61 -77v-324h-104v486h99v-49q30 58 107 58z" />
    <glyph glyph-name="o" unicode="o" horiz-adv-x="410" 
d="M205 -9q-172 0 -172 218v68q0 218 172 218t172 -218v-68q0 -218 -172 -218zM205 84q22 0 36.5 11t21 33t8.5 43t2 52v40q0 31 -2 52.5t-8.5 43t-21 32.5t-36.5 11q-41 0 -54.5 -37t-13.5 -102v-40q0 -65 13.5 -102t54.5 -37z" />
    <glyph glyph-name="p" unicode="p" horiz-adv-x="421" 
d="M249 494q139 0 139 -217v-68q0 -218 -139 -218q-63 0 -96 46v-197h-104v646h100v-44q32 52 100 52zM284 219v47q0 69 -14.5 102t-51.5 33q-63 0 -65 -99v-119q2 -98 65 -98q37 0 51.5 32.5t14.5 101.5z" />
    <glyph glyph-name="q" unicode="q" horiz-adv-x="421" 
d="M272 486h100v-646h-104v197q-33 -46 -96 -46q-139 0 -139 218v68q0 217 139 217q68 0 100 -52v44zM203 85q63 0 65 98v119q-2 99 -65 99q-37 0 -51.5 -33t-14.5 -102v-47q0 -69 14.5 -101.5t51.5 -32.5z" />
    <glyph glyph-name="r" unicode="r" horiz-adv-x="295" 
d="M248 491q16 0 29 -5v-111q-16 3 -35 3q-89 0 -89 -101v-277h-104v486h99v-81q7 32 32 59t68 27z" />
    <glyph glyph-name="s" unicode="s" horiz-adv-x="365" 
d="M183 495q70 0 108 -35t38 -91v-19h-93q-5 59 -55 59q-22 0 -35 -12.5t-13 -35.5q0 -21 13 -34t42 -27l39 -19q60 -29 86 -58t26 -86q0 -66 -41 -106t-114 -40q-74 0 -116 36.5t-42 95.5v19h97q2 -65 61 -65q25 0 39 14t14 38q0 41 -51 64l-44 21q-25 11 -40.5 20
t-33.5 25.5t-27 40t-9 54.5q0 63 39 102t112 39z" />
    <glyph glyph-name="t" unicode="t" horiz-adv-x="275" 
d="M189 -5q-64 0 -89.5 34.5t-25.5 100.5v268h-58v88h58v117h104v-117h73v-88h-73v-250q0 -33 11 -47t40 -14q6 0 22 2v-85q-22 -9 -62 -9z" />
    <glyph glyph-name="u" unicode="u" horiz-adv-x="423" 
d="M270 486h104v-486h-99v47q-30 -56 -106 -56q-122 0 -122 155v340h104v-324q0 -77 60 -77q59 0 59 77v324z" />
    <glyph glyph-name="v" unicode="v" horiz-adv-x="405" 
d="M286 486h104q-75 -319 -132 -467q-7 -19 -26 -19h-59q-19 0 -26 19q-62 162 -132 467h108q43 -212 81 -345q34 118 82 345z" />
    <glyph glyph-name="w" unicode="w" horiz-adv-x="587" 
d="M460 486h104q-35 -273 -100 -467q-6 -19 -26 -19h-49q-23 0 -27 19l-68 285l-68 -285q-4 -19 -26 -19h-50q-21 0 -27 19q-61 183 -100 467h108q23 -201 48 -316l69 316h95l69 -316q25 115 48 316z" />
    <glyph glyph-name="x" unicode="x" horiz-adv-x="379" 
d="M368 0h-106q-28 84 -73 189q-44 -99 -74 -189h-104q47 126 106 250q-62 132 -100 236h107q34 -101 66 -172q32 73 65 172h105q-41 -113 -99 -233q66 -143 107 -253z" />
    <glyph glyph-name="y" unicode="y" horiz-adv-x="414" 
d="M300 486h99q-27 -140 -97.5 -342t-124.5 -304h-106q37 68 83 182q-100 255 -139 464h106q25 -139 84 -331q61 178 95 331z" />
    <glyph glyph-name="z" unicode="z" horiz-adv-x="368" 
d="M150 93h192v-93h-316v79l189 314h-178v93h301v-80z" />
    <glyph glyph-name="braceleft" unicode="{" horiz-adv-x="305" 
d="M277 680v-71h-19q-32 0 -44.5 -12.5t-12.5 -50.5v-161q0 -54 -20.5 -81.5t-68.5 -37.5v-2q48 -9 68.5 -37t20.5 -82v-165q0 -38 12 -49t45 -11h19v-71h-37q-72 0 -102.5 28t-30.5 111v146q0 53 -17 73.5t-62 20.5v74q45 0 62 21t17 74v144q0 84 30.5 111.5t102.5 27.5h37
z" />
    <glyph glyph-name="bar" unicode="|" horiz-adv-x="286" 
d="M186 736v-815h-86v815h86z" />
    <glyph glyph-name="braceright" unicode="}" horiz-adv-x="305" 
d="M28 680h37q72 0 102.5 -27.5t30.5 -111.5v-144q0 -53 17 -74t62 -21v-74q-45 0 -62 -20.5t-17 -73.5v-146q0 -83 -30.5 -111t-102.5 -28h-37v71h19q33 0 45 11t12 49v165q0 54 20.5 82t68.5 37v2q-48 10 -68.5 37.5t-20.5 81.5v161q0 38 -12.5 50.5t-44.5 12.5h-19v71z
" />
    <glyph glyph-name="asciitilde" unicode="~" 
d="M139 405q34 0 79.5 -27.5t61.5 -27.5q18 0 24 13t6 39h80q0 -58 -24.5 -95t-77.5 -37q-28 0 -72.5 27.5t-72.5 27.5q-33 0 -33 -52h-80q0 52 26.5 92t82.5 40z" />
    <glyph glyph-name="uni00A0" unicode="&#xa0;" horiz-adv-x="600" 
 />
    <glyph glyph-name="exclamdown" unicode="&#xa1;" horiz-adv-x="238" 
d="M119 495q27 0 47 -19.5t20 -47.5t-20 -47.5t-47 -19.5t-47 19.5t-20 47.5t20 47.5t47 19.5zM56 -191q10 305 23 477h80q13 -172 23 -477h-126z" />
    <glyph glyph-name="cent" unicode="&#xa2;" 
d="M273 149h99v-9q0 -63 -31.5 -99t-84.5 -46v-75h-80v74q-131 26 -131 217v64q0 191 131 216v75h80v-75q53 -9 84 -46t31 -97v-12h-97q-5 34 -18.5 50t-40.5 16q-36 0 -51 -33t-15 -105v-42q0 -72 15 -105t51 -33q52 0 58 65z" />
    <glyph glyph-name="sterling" unicode="&#xa3;" 
d="M230 591q-27 0 -42.5 -21.5t-15.5 -58.5t13 -141h142v-88h-137q0 -124 -39 -183h242v-99h-349v86q40 68 40 189v7h-52v88h45q-17 134 -17 148q0 79 45.5 124.5t122.5 45.5q82 0 125 -45.5t43 -123.5v-15h-103q-5 87 -63 87z" />
    <glyph glyph-name="currency" unicode="&#xa4;" 
d="M353 519l44 -44l-45 -44q30 -41 30 -99t-30 -99l45 -45l-44 -43l-45 46q-41 -25 -96 -25q-56 0 -100 27l-46 -48l-43 44l46 45q-28 40 -28 98t29 98l-48 46l44 43l46 -47q47 26 100 26q55 0 96 -25zM212 430q-43 0 -68.5 -26t-25.5 -72t25.5 -72t68.5 -26q42 0 67 26
t25 72t-25 72t-67 26z" />
    <glyph glyph-name="yen" unicode="&#xa5;" 
d="M410 680q-37 -113 -89 -246h67v-68h-95l-27 -63h122v-68h-124v-235h-109v235h-124v68h122l-27 63h-95v68h67q-52 133 -89 246h111q41 -137 92 -264q56 140 92 264h106z" />
    <glyph glyph-name="brokenbar" unicode="&#xa6;" horiz-adv-x="286" 
d="M100 406v330h86v-330h-86zM186 251v-330h-86v330h86z" />
    <glyph glyph-name="section" unicode="&#xa7;" horiz-adv-x="380" 
d="M281 134q58 -52 58 -124q0 -70 -40 -108t-112 -38q-74 0 -112 35.5t-38 98.5v18h96q3 -68 55 -68q24 0 37.5 15.5t13.5 40.5q0 21 -12 39t-24 27t-42 30q-52 35 -77 56t-43.5 54.5t-18.5 76.5q0 91 78 133q-58 52 -58 123q0 70 40 108t112 38q74 0 112 -35.5t38 -98.5
v-18h-96q-3 68 -55 68q-24 0 -37.5 -15.5t-13.5 -40.5q0 -21 12 -39t24 -27t42 -30q52 -35 77 -56t43.5 -54.5t18.5 -76.5q0 -91 -78 -132zM124 292q0 -34 23 -57.5t69 -52.5q41 25 41 79q0 23 -14.5 44.5t-30.5 34t-47 32.5q-41 -25 -41 -80z" />
    <glyph glyph-name="dieresis" unicode="&#xa8;" horiz-adv-x="339" 
d="M91 557q-26 0 -42.5 16.5t-16.5 41.5t17 41.5t42 16.5q26 0 42.5 -16.5t16.5 -41.5q0 -26 -16.5 -42t-42.5 -16zM248 557q-26 0 -42.5 16.5t-16.5 41.5t17 41.5t42 16.5q26 0 42.5 -16.5t16.5 -41.5q0 -26 -16.5 -42t-42.5 -16z" />
    <glyph glyph-name="copyright" unicode="&#xa9;" horiz-adv-x="706" 
d="M353 -11q-147 0 -232 97.5t-85 253.5q0 157 86 254t231 97q147 0 232 -97.5t85 -253.5q0 -157 -86 -254t-231 -97zM353 61q112 0 175 77t63 202q0 126 -63 202.5t-175 76.5t-175 -77t-63 -202q0 -126 63 -202.5t175 -76.5zM482 276v-12q0 -55 -31 -90t-96 -35
q-136 0 -136 175v52q0 176 137 176q64 0 95 -34t31 -86v-12h-80q-3 58 -47 58q-52 0 -52 -107v-41q0 -107 52 -107q26 0 35.5 15.5t11.5 47.5h80z" />
    <glyph glyph-name="guillemotleft" unicode="&#xab;" horiz-adv-x="542" 
d="M292 435l-138 -193l138 -194h-106l-136 194l136 193h106zM492 435l-138 -193l138 -194h-106l-136 194l136 193h106z" />
    <glyph glyph-name="logicalnot" unicode="&#xac;" 
d="M390 367v-221h-88v135h-272v86h360z" />
    <glyph glyph-name="registered" unicode="&#xae;" horiz-adv-x="470" 
d="M235 759q88 0 144.5 -57t56.5 -144t-56.5 -144t-144.5 -57t-144 57t-56 144t56 144t144 57zM235 395q72 0 115 46t43 117t-43 117t-115 46t-114.5 -46t-42.5 -117t42.5 -117t114.5 -46zM319 604q0 -46 -45 -61q35 -54 50 -89h-45q-24 50 -46 85h-28v-85h-41v217h82
q31 0 52 -17t21 -50zM206 637v-65h33q39 0 39 32q0 33 -39 33h-33z" />
    <glyph glyph-name="macron" unicode="&#xaf;" horiz-adv-x="294" 
d="M32 655h230v-80h-230v80z" />
    <glyph glyph-name="degree" unicode="&#xb0;" horiz-adv-x="318" 
d="M159 437q-54 0 -90.5 36t-36.5 91t36.5 91t90.5 36t90.5 -36t36.5 -91t-36.5 -91t-90.5 -36zM159 497q28 0 46 19t18 48t-18 48t-46 19t-46 -19t-18 -48t18 -48t46 -19z" />
    <glyph glyph-name="plusminus" unicode="&#xb1;" 
d="M255 387h135v-86h-135v-139h-90v139h-135v86h135v138h90v-138zM30 31v86h360v-86h-360z" />
    <glyph glyph-name="uni00B2" unicode="&#xb2;" horiz-adv-x="344" 
d="M153 380h151v-72h-263v65q11 11 48 44t60.5 56.5t44.5 59.5t21 69q0 52 -44 52q-47 0 -50 -68h-82q1 69 35 106t98 37q62 0 94 -33.5t32 -87.5q0 -47 -26.5 -94.5t-52 -73.5t-66.5 -60z" />
    <glyph glyph-name="uni00B3" unicode="&#xb3;" horiz-adv-x="325" 
d="M241 524q57 -28 57 -97q0 -59 -34 -93.5t-100 -34.5q-62 0 -96.5 32t-34.5 89h80q6 -48 52 -48q50 0 50 58q0 59 -70 59v61q66 0 66 59q0 51 -47 51q-43 0 -49 -50h-76q0 54 33.5 86.5t90.5 32.5q62 0 94.5 -31.5t32.5 -82.5q0 -67 -49 -91z" />
    <glyph glyph-name="acute" unicode="&#xb4;" horiz-adv-x="244" 
d="M212 680q-45 -54 -89 -120h-91q28 66 67 120h113z" />
    <glyph glyph-name="paragraph" unicode="&#xb6;" horiz-adv-x="485" 
d="M433 680v-850h-67v784h-72v-784h-66v444h-22q-82 0 -126 52t-44 139v25q0 87 44 138.5t126 51.5h227z" />
    <glyph glyph-name="periodcentered" unicode="&#xb7;" horiz-adv-x="262" 
d="M131 264q-27 0 -47 19.5t-20 47.5t20 47.5t47 19.5t47 -19.5t20 -47.5t-20 -47.5t-47 -19.5z" />
    <glyph glyph-name="cedilla" unicode="&#xb8;" horiz-adv-x="255" 
d="M139 -37q38 -2 61 -21t23 -53q0 -37 -26.5 -58.5t-70.5 -21.5q-58 0 -94 30l27 45q29 -21 64 -21q37 0 37 27q0 25 -42 25q-18 0 -32 -4l-17 24l35 74h57z" />
    <glyph glyph-name="uni00B9" unicode="&#xb9;" horiz-adv-x="298" 
d="M146 720h61v-414h-82v292q-22 -18 -83 -48v75q63 46 104 95z" />
    <glyph glyph-name="guillemotright" unicode="&#xbb;" horiz-adv-x="542" 
d="M50 435h106l136 -193l-136 -194h-106l138 194zM250 435h106l136 -193l-136 -194h-106l138 194z" />
    <glyph glyph-name="onequarter" unicode="&#xbc;" horiz-adv-x="789" 
d="M207 266h-82v292q-22 -18 -83 -48v75q63 46 104 95h61v-414zM541 680h85l-393 -680h-85zM767 149v-73h-41v-76h-81v76h-183v49q0 24 8 44q55 136 121 245h91q-83 -136 -135 -265h98v98h81v-98h41z" />
    <glyph glyph-name="onehalf" unicode="&#xbd;" horiz-adv-x="846" 
d="M207 266h-82v292q-22 -18 -83 -48v75q63 46 104 95h61v-414zM541 680h85l-393 -680h-85zM655 72h151v-72h-263v65q11 11 48 44t60.5 56.5t44.5 59.5t21 69q0 52 -44 52q-47 0 -50 -68h-82q1 69 35 106t98 37q62 0 94 -33.5t32 -87.5q0 -47 -26.5 -94.5t-52 -73.5
t-66.5 -60z" />
    <glyph glyph-name="threequarters" unicode="&#xbe;" horiz-adv-x="833" 
d="M298 387q0 -59 -34 -93.5t-100 -34.5q-62 0 -96.5 32t-34.5 89h80q6 -48 52 -48q50 0 50 58q0 59 -70 59v61q66 0 66 59q0 51 -47 51q-43 0 -49 -50h-76q0 54 33.5 86.5t90.5 32.5q62 0 94.5 -31.5t32.5 -82.5q0 -67 -49 -91q57 -28 57 -97zM585 680h85l-393 -680h-85z
M811 149v-73h-41v-76h-81v76h-183v49q0 24 8 44q55 136 121 245h91q-83 -136 -135 -265h98v98h81v-98h41z" />
    <glyph glyph-name="questiondown" unicode="&#xbf;" horiz-adv-x="323" 
d="M189 497q27 0 47 -19.5t20 -47.5t-20 -47.5t-47 -19.5t-47 19.5t-20 47.5t20 47.5t47 19.5zM237 295q0 -1 -13 -29t-16 -35t-14.5 -35t-16 -40t-14 -37t-13.5 -41t-9.5 -36.5t-7.5 -38t-2 -32.5q0 -67 45 -67q26 0 38 22t14 68h105v-13q0 -81 -39 -130t-121 -49
q-75 0 -114 43t-39 116q0 81 39.5 175t79.5 159h98z" />
    <glyph glyph-name="Agrave" unicode="&#xc0;" horiz-adv-x="478" 
d="M291 744h-91q-44 66 -89 120h113q39 -54 67 -120zM349 0q-13 88 -25 150h-175q-18 -102 -25 -150h-111q69 397 146 659q3 12 10.5 16.5t24.5 4.5h91q17 0 24 -4.5t10 -16.5q80 -279 146 -659h-116zM168 250h138q-29 148 -69 319q-34 -137 -69 -319z" />
    <glyph glyph-name="Aacute" unicode="&#xc1;" horiz-adv-x="478" 
d="M371 864q-45 -54 -89 -120h-91q28 66 67 120h113zM349 0q-13 88 -25 150h-175q-18 -102 -25 -150h-111q69 397 146 659q3 12 10.5 16.5t24.5 4.5h91q17 0 24 -4.5t10 -16.5q80 -279 146 -659h-116zM168 250h138q-29 148 -69 319q-34 -137 -69 -319z" />
    <glyph glyph-name="Acircumflex" unicode="&#xc2;" horiz-adv-x="478" 
d="M241 814q-35 -40 -53 -70h-82q31 73 67 120h135q36 -47 67 -120h-82q-16 27 -52 70zM349 0q-13 88 -25 150h-175q-18 -102 -25 -150h-111q69 397 146 659q3 12 10.5 16.5t24.5 4.5h91q17 0 24 -4.5t10 -16.5q80 -279 146 -659h-116zM168 250h138q-29 148 -69 319
q-34 -137 -69 -319z" />
    <glyph glyph-name="Atilde" unicode="&#xc3;" horiz-adv-x="478" 
d="M187 786q-28 0 -31 -46h-60q0 56 22 90t61 34q31 0 65.5 -23.5t49.5 -23.5q29 0 31 47h60q0 -57 -20.5 -90.5t-57.5 -33.5q-34 0 -69.5 23t-50.5 23zM349 0q-13 88 -25 150h-175q-18 -102 -25 -150h-111q69 397 146 659q3 12 10.5 16.5t24.5 4.5h91q17 0 24 -4.5
t10 -16.5q80 -279 146 -659h-116zM168 250h138q-29 148 -69 319q-34 -137 -69 -319z" />
    <glyph glyph-name="Adieresis" unicode="&#xc4;" horiz-adv-x="478" 
d="M162 741q-26 0 -42.5 16.5t-16.5 41.5t17 41.5t42 16.5q26 0 42.5 -16.5t16.5 -41.5q0 -26 -16.5 -42t-42.5 -16zM319 741q-26 0 -42.5 16.5t-16.5 41.5t17 41.5t42 16.5q26 0 42.5 -16.5t16.5 -41.5q0 -26 -16.5 -42t-42.5 -16zM349 0q-13 88 -25 150h-175
q-18 -102 -25 -150h-111q69 397 146 659q3 12 10.5 16.5t24.5 4.5h91q17 0 24 -4.5t10 -16.5q80 -279 146 -659h-116zM168 250h138q-29 148 -69 319q-34 -137 -69 -319z" />
    <glyph glyph-name="Aring" unicode="&#xc5;" horiz-adv-x="478" 
d="M241 722q-44 0 -71 26t-27 66t27 66t71 26t71 -26t27 -66t-27 -66t-71 -26zM241 860q-22 0 -34 -13.5t-12 -32.5t12 -32.5t34 -13.5t34 13.5t12 32.5t-12 32.5t-34 13.5zM349 0q-13 88 -25 150h-175q-18 -102 -25 -150h-111q69 397 146 659q3 12 10.5 16.5t24.5 4.5h91
q17 0 24 -4.5t10 -16.5q80 -279 146 -659h-116zM168 250h138q-29 148 -69 319q-34 -137 -69 -319z" />
    <glyph glyph-name="AE" unicode="&#xc6;" horiz-adv-x="632" 
d="M397 102h210v-102h-324v150h-126q-18 -78 -33 -150h-111q35 166 89 355.5t100 303.5q8 21 37 21h359v-102h-201v-182h179v-100h-179v-194zM182 250h101v346q-50 -149 -101 -346z" />
    <glyph glyph-name="Ccedilla" unicode="&#xc7;" horiz-adv-x="416" 
d="M221 584q-23 0 -37.5 -13.5t-21.5 -42.5t-9.5 -62t-2.5 -84v-84q0 -52 2.5 -84.5t9.5 -61.5t21.5 -42.5t37.5 -13.5q32 0 47 27.5t17 84.5h106v-33q0 -76 -35.5 -127t-115.5 -56l-14 -29q38 -2 61 -21t23 -53q0 -37 -26.5 -58.5t-70.5 -21.5q-58 0 -94 30l27 45
q28 -21 64 -21q37 0 37 27q0 25 -42 25q-18 0 -32 -4l-17 24l28 59q-73 11 -110.5 79.5t-37.5 221.5v90q0 173 47 238.5t140 65.5q168 0 168 -185v-15h-106q-5 49 -18.5 72t-45.5 23z" />
    <glyph glyph-name="Egrave" unicode="&#xc8;" horiz-adv-x="401" 
d="M263 744h-91q-44 66 -89 120h113q39 -54 67 -120zM166 102h210v-102h-324v680h315v-102h-201v-182h179v-100h-179v-194z" />
    <glyph glyph-name="Eacute" unicode="&#xc9;" horiz-adv-x="401" 
d="M343 864q-45 -54 -89 -120h-91q28 66 67 120h113zM166 102h210v-102h-324v680h315v-102h-201v-182h179v-100h-179v-194z" />
    <glyph glyph-name="Ecircumflex" unicode="&#xca;" horiz-adv-x="401" 
d="M213 814q-35 -40 -53 -70h-82q31 73 67 120h135q36 -47 67 -120h-82q-16 27 -52 70zM166 102h210v-102h-324v680h315v-102h-201v-182h179v-100h-179v-194z" />
    <glyph glyph-name="Edieresis" unicode="&#xcb;" horiz-adv-x="401" 
d="M134 741q-26 0 -42.5 16.5t-16.5 41.5t17 41.5t42 16.5q26 0 42.5 -16.5t16.5 -41.5q0 -26 -16.5 -42t-42.5 -16zM291 741q-26 0 -42.5 16.5t-16.5 41.5t17 41.5t42 16.5q26 0 42.5 -16.5t16.5 -41.5q0 -26 -16.5 -42t-42.5 -16zM166 102h210v-102h-324v680h315v-102
h-201v-182h179v-100h-179v-194z" />
    <glyph glyph-name="Igrave" unicode="&#xcc;" horiz-adv-x="226" 
d="M-17 864h113q39 -54 67 -120h-91q-44 66 -89 120zM170 680v-680h-114v680h114z" />
    <glyph glyph-name="Iacute" unicode="&#xcd;" horiz-adv-x="226" 
d="M243 864q-45 -54 -89 -120h-91q28 66 67 120h113zM170 680v-680h-114v680h114z" />
    <glyph glyph-name="Icircumflex" unicode="&#xce;" horiz-adv-x="226" 
d="M113 814q-35 -40 -53 -70h-82q31 73 67 120h135q36 -47 67 -120h-82q-16 27 -52 70zM56 0v680h114v-680h-114z" />
    <glyph glyph-name="Idieresis" unicode="&#xcf;" horiz-adv-x="226" 
d="M34 741q-26 0 -42.5 16.5t-16.5 41.5t17 41.5t42 16.5q26 0 42.5 -16.5t16.5 -41.5q0 -26 -16.5 -42t-42.5 -16zM191 741q-26 0 -42.5 16.5t-16.5 41.5t17 41.5t42 16.5q26 0 42.5 -16.5t16.5 -41.5q0 -26 -16.5 -42t-42.5 -16zM170 680v-680h-114v680h114z" />
    <glyph glyph-name="Eth" unicode="&#xd0;" horiz-adv-x="466" 
d="M212 680q76 0 121.5 -24t71 -90.5t25.5 -184.5v-81q0 -118 -25.5 -184.5t-71 -91t-121.5 -24.5h-148v299h-42v86h42v295h148zM316 307v66q0 116 -20.5 159.5t-81.5 43.5h-36v-191h79v-86h-79v-194h36q61 0 81.5 43t20.5 159z" />
    <glyph glyph-name="Ntilde" unicode="&#xd1;" horiz-adv-x="491" 
d="M192 786q-28 0 -31 -46h-60q0 56 22 90t61 34q31 0 65.5 -23.5t49.5 -23.5q29 0 31 47h60q0 -57 -20.5 -90.5t-57.5 -33.5q-34 0 -69.5 23t-50.5 23zM331 680h108v-680h-103l-176 440v-440h-108v680h113l166 -415v415z" />
    <glyph glyph-name="Ograve" unicode="&#xd2;" horiz-adv-x="446" 
d="M93 864h113q39 -54 67 -120h-91q-44 66 -89 120zM223 -10q-46 0 -78.5 13.5t-58 46.5t-38 93.5t-12.5 150.5v92q0 90 12.5 150.5t38 93.5t58 46.5t78.5 13.5t78.5 -13.5t58 -46.5t38 -93.5t12.5 -150.5v-92q0 -90 -12.5 -150.5t-38 -93.5t-58 -46.5t-78.5 -13.5zM223 95
q24 0 39 13.5t22.5 43t9.5 61.5t2 84v86q0 52 -2 84t-9.5 61.5t-22.5 43t-39 13.5t-39 -13.5t-22.5 -43t-9.5 -61.5t-2 -84v-86q0 -52 2 -84t9.5 -61.5t22.5 -43t39 -13.5z" />
    <glyph glyph-name="Oacute" unicode="&#xd3;" horiz-adv-x="446" 
d="M353 864q-45 -54 -89 -120h-91q28 66 67 120h113zM223 -10q-46 0 -78.5 13.5t-58 46.5t-38 93.5t-12.5 150.5v92q0 90 12.5 150.5t38 93.5t58 46.5t78.5 13.5t78.5 -13.5t58 -46.5t38 -93.5t12.5 -150.5v-92q0 -90 -12.5 -150.5t-38 -93.5t-58 -46.5t-78.5 -13.5zM223 95
q24 0 39 13.5t22.5 43t9.5 61.5t2 84v86q0 52 -2 84t-9.5 61.5t-22.5 43t-39 13.5t-39 -13.5t-22.5 -43t-9.5 -61.5t-2 -84v-86q0 -52 2 -84t9.5 -61.5t22.5 -43t39 -13.5z" />
    <glyph glyph-name="Ocircumflex" unicode="&#xd4;" horiz-adv-x="446" 
d="M223 814q-35 -40 -53 -70h-82q31 73 67 120h135q36 -47 67 -120h-82q-16 27 -52 70zM223 690q46 0 78.5 -13.5t58 -46.5t38 -93.5t12.5 -150.5v-92q0 -90 -12.5 -150.5t-38 -93.5t-58 -46.5t-78.5 -13.5t-78.5 13.5t-58 46.5t-38 93.5t-12.5 150.5v92q0 90 12.5 150.5
t38 93.5t58 46.5t78.5 13.5zM296 297v86q0 52 -2 84t-9.5 61.5t-22.5 43t-39 13.5t-39 -13.5t-22.5 -43t-9.5 -61.5t-2 -84v-86q0 -52 2 -84t9.5 -61.5t22.5 -43t39 -13.5t39 13.5t22.5 43t9.5 61.5t2 84z" />
    <glyph glyph-name="Otilde" unicode="&#xd5;" horiz-adv-x="446" 
d="M367 864q0 -57 -20.5 -90.5t-57.5 -33.5q-34 0 -69.5 23t-50.5 23q-28 0 -31 -46h-60q0 56 22 90t61 34q31 0 65.5 -23.5t49.5 -23.5q29 0 31 47h60zM223 -10q-46 0 -78.5 13.5t-58 46.5t-38 93.5t-12.5 150.5v92q0 90 12.5 150.5t38 93.5t58 46.5t78.5 13.5t78.5 -13.5
t58 -46.5t38 -93.5t12.5 -150.5v-92q0 -90 -12.5 -150.5t-38 -93.5t-58 -46.5t-78.5 -13.5zM223 95q24 0 39 13.5t22.5 43t9.5 61.5t2 84v86q0 52 -2 84t-9.5 61.5t-22.5 43t-39 13.5t-39 -13.5t-22.5 -43t-9.5 -61.5t-2 -84v-86q0 -52 2 -84t9.5 -61.5t22.5 -43t39 -13.5z
" />
    <glyph glyph-name="Odieresis" unicode="&#xd6;" horiz-adv-x="446" 
d="M144 741q-26 0 -42.5 16.5t-16.5 41.5t17 41.5t42 16.5q26 0 42.5 -16.5t16.5 -41.5q0 -26 -16.5 -42t-42.5 -16zM301 741q-26 0 -42.5 16.5t-16.5 41.5t17 41.5t42 16.5q26 0 42.5 -16.5t16.5 -41.5q0 -26 -16.5 -42t-42.5 -16zM223 -10q-46 0 -78.5 13.5t-58 46.5
t-38 93.5t-12.5 150.5v92q0 90 12.5 150.5t38 93.5t58 46.5t78.5 13.5t78.5 -13.5t58 -46.5t38 -93.5t12.5 -150.5v-92q0 -90 -12.5 -150.5t-38 -93.5t-58 -46.5t-78.5 -13.5zM223 95q24 0 39 13.5t22.5 43t9.5 61.5t2 84v86q0 52 -2 84t-9.5 61.5t-22.5 43t-39 13.5
t-39 -13.5t-22.5 -43t-9.5 -61.5t-2 -84v-86q0 -52 2 -84t9.5 -61.5t22.5 -43t39 -13.5z" />
    <glyph glyph-name="multiply" unicode="&#xd7;" 
d="M390 442l-119 -119l118 -118l-61 -61l-118 118l-118 -118l-61 61l118 118l-119 119l61 61l119 -119l119 119z" />
    <glyph glyph-name="Oslash" unicode="&#xd8;" horiz-adv-x="482" 
d="M446 665l-43 -84q25 -72 25 -195v-92q0 -90 -12.5 -150.5t-38 -93.5t-58 -46.5t-78.5 -13.5q-79 0 -120 41l-23 -44l-62 30l43 83q-25 72 -25 194v92q0 90 12.5 150.5t38 93.5t58 46.5t78.5 13.5q79 0 120 -41l23 45zM168 274l133 259q-16 52 -60 52q-24 0 -39 -13.5
t-22.5 -43t-9.5 -61.5t-2 -84v-109zM314 408l-133 -260q16 -53 60 -53q24 0 39 13.5t22.5 43t9.5 61.5t2 84v111z" />
    <glyph glyph-name="Ugrave" unicode="&#xd9;" horiz-adv-x="470" 
d="M105 864h113q39 -54 67 -120h-91q-44 66 -89 120zM306 680h114v-499q0 -190 -185 -190q-88 0 -136.5 45.5t-48.5 152.5v491h114v-488q0 -95 71 -95t71 95v488z" />
    <glyph glyph-name="Uacute" unicode="&#xda;" horiz-adv-x="470" 
d="M365 864q-45 -54 -89 -120h-91q28 66 67 120h113zM306 680h114v-499q0 -190 -185 -190q-88 0 -136.5 45.5t-48.5 152.5v491h114v-488q0 -95 71 -95t71 95v488z" />
    <glyph glyph-name="Ucircumflex" unicode="&#xdb;" horiz-adv-x="470" 
d="M235 814q-35 -40 -53 -70h-82q31 73 67 120h135q36 -47 67 -120h-82q-16 27 -52 70zM306 680h114v-499q0 -190 -185 -190q-88 0 -136.5 45.5t-48.5 152.5v491h114v-488q0 -95 71 -95t71 95v488z" />
    <glyph glyph-name="Udieresis" unicode="&#xdc;" horiz-adv-x="470" 
d="M156 741q-26 0 -42.5 16.5t-16.5 41.5t17 41.5t42 16.5q26 0 42.5 -16.5t16.5 -41.5q0 -26 -16.5 -42t-42.5 -16zM313 741q-26 0 -42.5 16.5t-16.5 41.5t17 41.5t42 16.5q26 0 42.5 -16.5t16.5 -41.5q0 -26 -16.5 -42t-42.5 -16zM306 680h114v-499q0 -190 -185 -190
q-88 0 -136.5 45.5t-48.5 152.5v491h114v-488q0 -95 71 -95t71 95v488z" />
    <glyph glyph-name="Yacute" unicode="&#xdd;" horiz-adv-x="442" 
d="M351 864q-45 -54 -89 -120h-91q28 66 67 120h113zM437 680q-59 -177 -159 -412v-268h-114v268q-98 227 -159 412h117q36 -115 101 -282q64 158 102 282h112z" />
    <glyph glyph-name="Thorn" unicode="&#xde;" horiz-adv-x="432" 
d="M218 565q95 0 144.5 -54.5t49.5 -153.5t-49.5 -153.5t-144.5 -54.5h-52v-149h-114v680h114v-115h52zM214 249q84 0 84 108t-84 108h-48v-216h48z" />
    <glyph glyph-name="germandbls" unicode="&#xdf;" horiz-adv-x="431" 
d="M308 375q95 -33 95 -169q0 -209 -170 -209q-19 0 -43 3v99q17 -3 31 -3q72 0 72 108q0 68 -23.5 93t-72.5 25v92q79 0 79 108q0 92 -61 92q-62 0 -62 -92v-522h-104v516q0 93 43.5 140t123.5 47q78 0 121 -46.5t43 -127.5q0 -120 -72 -154z" />
    <glyph glyph-name="agrave" unicode="&#xe0;" horiz-adv-x="423" 
d="M262 560h-91q-44 66 -89 120h113q39 -54 67 -120zM371 121q0 -24 6 -32.5t23 -8.5v-78q-14 -7 -41 -7q-60 0 -76 51q-33 -55 -113 -55q-64 0 -102 36t-38 95q0 80 58 125t179 66v17q0 74 -61 74q-55 0 -65 -61h-96q1 70 43 111t119 41t120.5 -39.5t43.5 -121.5v-213z
M194 78q35 0 54 20.5t19 55.5v78q-69 -16 -100.5 -40.5t-31.5 -59.5q0 -54 59 -54z" />
    <glyph glyph-name="aacute" unicode="&#xe1;" horiz-adv-x="423" 
d="M342 680q-45 -54 -89 -120h-91q28 66 67 120h113zM371 121q0 -24 6 -32.5t23 -8.5v-78q-14 -7 -41 -7q-60 0 -76 51q-33 -55 -113 -55q-64 0 -102 36t-38 95q0 80 58 125t179 66v17q0 74 -61 74q-55 0 -65 -61h-96q1 70 43 111t119 41t120.5 -39.5t43.5 -121.5v-213z
M194 78q35 0 54 20.5t19 55.5v78q-69 -16 -100.5 -40.5t-31.5 -59.5q0 -54 59 -54z" />
    <glyph glyph-name="acircumflex" unicode="&#xe2;" horiz-adv-x="423" 
d="M212 630q-35 -40 -53 -70h-82q31 73 67 120h135q36 -47 67 -120h-82q-16 27 -52 70zM371 121q0 -24 6 -32.5t23 -8.5v-78q-14 -7 -41 -7q-60 0 -76 51q-33 -55 -113 -55q-64 0 -102 36t-38 95q0 80 58 125t179 66v17q0 74 -61 74q-55 0 -65 -61h-96q1 70 43 111t119 41
t120.5 -39.5t43.5 -121.5v-213zM194 78q35 0 54 20.5t19 55.5v78q-69 -16 -100.5 -40.5t-31.5 -59.5q0 -54 59 -54z" />
    <glyph glyph-name="atilde" unicode="&#xe3;" horiz-adv-x="423" 
d="M158 602q-28 0 -31 -46h-60q0 56 22 90t61 34q31 0 65.5 -23.5t49.5 -23.5q29 0 31 47h60q0 -57 -20.5 -90.5t-57.5 -33.5q-34 0 -69.5 23t-50.5 23zM371 121q0 -24 6 -32.5t23 -8.5v-78q-14 -7 -41 -7q-60 0 -76 51q-33 -55 -113 -55q-64 0 -102 36t-38 95q0 80 58 125
t179 66v17q0 74 -61 74q-55 0 -65 -61h-96q1 70 43 111t119 41t120.5 -39.5t43.5 -121.5v-213zM194 78q35 0 54 20.5t19 55.5v78q-69 -16 -100.5 -40.5t-31.5 -59.5q0 -54 59 -54z" />
    <glyph glyph-name="adieresis" unicode="&#xe4;" horiz-adv-x="423" 
d="M133 557q-26 0 -42.5 16.5t-16.5 41.5t17 41.5t42 16.5q26 0 42.5 -16.5t16.5 -41.5q0 -26 -16.5 -42t-42.5 -16zM290 557q-26 0 -42.5 16.5t-16.5 41.5t17 41.5t42 16.5q26 0 42.5 -16.5t16.5 -41.5q0 -26 -16.5 -42t-42.5 -16zM371 121q0 -24 6 -32.5t23 -8.5v-78
q-14 -7 -41 -7q-60 0 -76 51q-33 -55 -113 -55q-64 0 -102 36t-38 95q0 80 58 125t179 66v17q0 74 -61 74q-55 0 -65 -61h-96q1 70 43 111t119 41t120.5 -39.5t43.5 -121.5v-213zM194 78q35 0 54 20.5t19 55.5v78q-69 -16 -100.5 -40.5t-31.5 -59.5q0 -54 59 -54z" />
    <glyph glyph-name="aring" unicode="&#xe5;" horiz-adv-x="423" 
d="M212 538q-44 0 -71 26t-27 66t27 66t71 26t71 -26t27 -66t-27 -66t-71 -26zM212 676q-22 0 -34 -13.5t-12 -32.5t12 -32.5t34 -13.5t34 13.5t12 32.5t-12 32.5t-34 13.5zM371 121q0 -24 6 -32.5t23 -8.5v-78q-14 -7 -41 -7q-60 0 -76 51q-33 -55 -113 -55q-64 0 -102 36
t-38 95q0 80 58 125t179 66v17q0 74 -61 74q-55 0 -65 -61h-96q1 70 43 111t119 41t120.5 -39.5t43.5 -121.5v-213zM194 78q35 0 54 20.5t19 55.5v78q-69 -16 -100.5 -40.5t-31.5 -59.5q0 -54 59 -54z" />
    <glyph glyph-name="ae" unicode="&#xe6;" horiz-adv-x="643" 
d="M610 216h-237q2 -71 17 -102t51 -31q28 0 43 15.5t20 50.5h97q-3 -158 -161 -158q-89 0 -132 66q-37 -66 -134 -66q-68 0 -106 34.5t-38 94.5q0 75 57.5 118.5t180.5 58.5v29q0 78 -61 78q-55 0 -65 -62h-96q1 73 43 113t119 40q80 0 118 -42q42 42 114 42
q170 0 170 -200v-79zM441 404q-34 0 -49.5 -25.5t-17.5 -83.5h135q-2 58 -17.5 83.5t-50.5 25.5zM190 79q39 0 58.5 22.5t19.5 58.5v56q-66 -6 -99.5 -30t-33.5 -56q0 -24 14.5 -37.5t40.5 -13.5z" />
    <glyph glyph-name="ccedilla" unicode="&#xe7;" horiz-adv-x="385" 
d="M261 149h99v-9q0 -67 -36 -104t-94 -43l-14 -30q38 -2 61 -21t23 -53q0 -37 -26.5 -58.5t-70.5 -21.5q-58 0 -94 30l27 45q28 -21 64 -21q37 0 37 27q0 25 -42 25q-18 0 -32 -4l-17 24l27 58q-140 20 -140 218v64q0 112 45.5 166t125.5 54q69 0 112 -37.5t43 -109.5v-12
h-97q-5 34 -18.5 50t-40.5 16q-36 0 -51 -33t-15 -105v-42q0 -72 15 -105t51 -33q52 0 58 65z" />
    <glyph glyph-name="egrave" unicode="&#xe8;" horiz-adv-x="407" 
d="M260 560h-91q-44 66 -89 120h113q39 -54 67 -120zM374 216h-237q2 -71 17 -102t51 -31q28 0 43 15.5t20 50.5h97q-3 -158 -161 -158q-171 0 -171 220v67q0 217 171 217q170 0 170 -200v-79zM205 404q-34 0 -49.5 -25.5t-17.5 -83.5h135q-2 58 -17.5 83.5t-50.5 25.5z" />
    <glyph glyph-name="eacute" unicode="&#xe9;" horiz-adv-x="407" 
d="M340 680q-45 -54 -89 -120h-91q28 66 67 120h113zM374 216h-237q2 -71 17 -102t51 -31q28 0 43 15.5t20 50.5h97q-3 -158 -161 -158q-171 0 -171 220v67q0 217 171 217q170 0 170 -200v-79zM205 404q-34 0 -49.5 -25.5t-17.5 -83.5h135q-2 58 -17.5 83.5t-50.5 25.5z" />
    <glyph glyph-name="ecircumflex" unicode="&#xea;" horiz-adv-x="407" 
d="M210 630q-35 -40 -53 -70h-82q31 73 67 120h135q36 -47 67 -120h-82q-16 27 -52 70zM374 216h-237q2 -71 17 -102t51 -31q28 0 43 15.5t20 50.5h97q-3 -158 -161 -158q-171 0 -171 220v67q0 217 171 217q170 0 170 -200v-79zM205 404q-34 0 -49.5 -25.5t-17.5 -83.5h135
q-2 58 -17.5 83.5t-50.5 25.5z" />
    <glyph glyph-name="edieresis" unicode="&#xeb;" horiz-adv-x="407" 
d="M131 557q-26 0 -42.5 16.5t-16.5 41.5t17 41.5t42 16.5q26 0 42.5 -16.5t16.5 -41.5q0 -26 -16.5 -42t-42.5 -16zM288 557q-26 0 -42.5 16.5t-16.5 41.5t17 41.5t42 16.5q26 0 42.5 -16.5t16.5 -41.5q0 -26 -16.5 -42t-42.5 -16zM374 216h-237q2 -71 17 -102t51 -31
q28 0 43 15.5t20 50.5h97q-3 -158 -161 -158q-171 0 -171 220v67q0 217 171 217q170 0 170 -200v-79zM205 404q-34 0 -49.5 -25.5t-17.5 -83.5h135q-2 58 -17.5 83.5t-50.5 25.5z" />
    <glyph glyph-name="igrave" unicode="&#xec;" horiz-adv-x="202" 
d="M-29 680h113q39 -54 67 -120h-91q-44 66 -89 120zM153 486v-486h-104v486h104z" />
    <glyph glyph-name="iacute" unicode="&#xed;" horiz-adv-x="202" 
d="M231 680q-45 -54 -89 -120h-91q28 66 67 120h113zM153 486v-486h-104v486h104z" />
    <glyph glyph-name="icircumflex" unicode="&#xee;" horiz-adv-x="202" 
d="M168 680q36 -47 67 -120h-82q-16 27 -52 70q-35 -40 -53 -70h-82q31 73 67 120h135zM49 0v486h104v-486h-104z" />
    <glyph glyph-name="idieresis" unicode="&#xef;" horiz-adv-x="202" 
d="M22 557q-26 0 -42.5 16.5t-16.5 41.5t17 41.5t42 16.5q26 0 42.5 -16.5t16.5 -41.5q0 -26 -16.5 -42t-42.5 -16zM179 557q-26 0 -42.5 16.5t-16.5 41.5t17 41.5t42 16.5q26 0 42.5 -16.5t16.5 -41.5q0 -26 -16.5 -42t-42.5 -16zM153 486v-486h-104v486h104z" />
    <glyph glyph-name="eth" unicode="&#xf0;" horiz-adv-x="410" 
d="M310 586q67 -134 67 -289v-88q0 -218 -172 -218t-172 218v68q0 109 42 163.5t115 54.5q40 0 60 -17q-11 38 -34 82l-111 -31l-14 56l94 26q-32 51 -70 89h115q25 -22 51 -62l75 21l14 -56zM273 223v40q0 31 -2 52.5t-8.5 43t-21 32.5t-36.5 11q-41 0 -54.5 -37
t-13.5 -102v-40q0 -65 13.5 -102t54.5 -37q22 0 36.5 11t21 33t8.5 43t2 52z" />
    <glyph glyph-name="ntilde" unicode="&#xf1;" horiz-adv-x="425" 
d="M166 602q-28 0 -31 -46h-60q0 56 22 90t61 34q31 0 65.5 -23.5t49.5 -23.5q29 0 31 47h60q0 -57 -20.5 -90.5t-57.5 -33.5q-34 0 -69.5 23t-50.5 23zM255 495q123 0 123 -156v-339h-104v324q0 36 -15.5 56.5t-44.5 20.5q-61 0 -61 -77v-324h-104v486h99v-49q30 58 107 58
z" />
    <glyph glyph-name="ograve" unicode="&#xf2;" horiz-adv-x="410" 
d="M75 680h113q39 -54 67 -120h-91q-44 66 -89 120zM205 -9q-172 0 -172 218v68q0 218 172 218t172 -218v-68q0 -218 -172 -218zM205 84q22 0 36.5 11t21 33t8.5 43t2 52v40q0 31 -2 52.5t-8.5 43t-21 32.5t-36.5 11q-41 0 -54.5 -37t-13.5 -102v-40q0 -65 13.5 -102
t54.5 -37z" />
    <glyph glyph-name="oacute" unicode="&#xf3;" horiz-adv-x="410" 
d="M335 680q-45 -54 -89 -120h-91q28 66 67 120h113zM205 -9q-172 0 -172 218v68q0 218 172 218t172 -218v-68q0 -218 -172 -218zM205 84q22 0 36.5 11t21 33t8.5 43t2 52v40q0 31 -2 52.5t-8.5 43t-21 32.5t-36.5 11q-41 0 -54.5 -37t-13.5 -102v-40q0 -65 13.5 -102
t54.5 -37z" />
    <glyph glyph-name="ocircumflex" unicode="&#xf4;" horiz-adv-x="410" 
d="M205 630q-35 -40 -53 -70h-82q31 73 67 120h135q36 -47 67 -120h-82q-16 27 -52 70zM205 495q172 0 172 -218v-68q0 -218 -172 -218t-172 218v68q0 218 172 218zM273 223v40q0 31 -2 52.5t-8.5 43t-21 32.5t-36.5 11q-41 0 -54.5 -37t-13.5 -102v-40q0 -65 13.5 -102
t54.5 -37q22 0 36.5 11t21 33t8.5 43t2 52z" />
    <glyph glyph-name="otilde" unicode="&#xf5;" horiz-adv-x="410" 
d="M349 680q0 -57 -20.5 -90.5t-57.5 -33.5q-34 0 -69.5 23t-50.5 23q-28 0 -31 -46h-60q0 56 22 90t61 34q31 0 65.5 -23.5t49.5 -23.5q29 0 31 47h60zM205 -9q-172 0 -172 218v68q0 218 172 218t172 -218v-68q0 -218 -172 -218zM205 84q22 0 36.5 11t21 33t8.5 43t2 52v40
q0 31 -2 52.5t-8.5 43t-21 32.5t-36.5 11q-41 0 -54.5 -37t-13.5 -102v-40q0 -65 13.5 -102t54.5 -37z" />
    <glyph glyph-name="odieresis" unicode="&#xf6;" horiz-adv-x="410" 
d="M126 557q-26 0 -42.5 16.5t-16.5 41.5t17 41.5t42 16.5q26 0 42.5 -16.5t16.5 -41.5q0 -26 -16.5 -42t-42.5 -16zM283 557q-26 0 -42.5 16.5t-16.5 41.5t17 41.5t42 16.5q26 0 42.5 -16.5t16.5 -41.5q0 -26 -16.5 -42t-42.5 -16zM205 -9q-172 0 -172 218v68
q0 218 172 218t172 -218v-68q0 -218 -172 -218zM205 84q22 0 36.5 11t21 33t8.5 43t2 52v40q0 31 -2 52.5t-8.5 43t-21 32.5t-36.5 11q-41 0 -54.5 -37t-13.5 -102v-40q0 -65 13.5 -102t54.5 -37z" />
    <glyph glyph-name="divide" unicode="&#xf7;" 
d="M211 419q-27 0 -47 19.5t-20 47.5t20 47.5t47 19.5t47 -19.5t20 -47.5t-20 -47.5t-47 -19.5zM30 367h360v-86h-360v86zM211 91q-27 0 -47 19.5t-20 47.5t20 47.5t47 19.5t47 -19.5t20 -47.5t-20 -47.5t-47 -19.5z" />
    <glyph glyph-name="oslash" unicode="&#xf8;" horiz-adv-x="418" 
d="M342 439q43 -55 43 -162v-68q0 -218 -176 -218q-50 0 -87 19l-16 -32l-53 25l23 45q-43 55 -43 161v68q0 218 176 218q50 0 86 -18l17 32l53 -24zM137 223q0 -35 2 -52l111 217q-16 14 -41 14q-31 0 -47.5 -21.5t-20.5 -48.5t-4 -69v-40zM281 223v40q0 37 -2 53
l-112 -218q17 -14 42 -14q24 0 39 11t22 33t9 43t2 52z" />
    <glyph glyph-name="ugrave" unicode="&#xf9;" horiz-adv-x="423" 
d="M262 560h-91q-44 66 -89 120h113q39 -54 67 -120zM270 486h104v-486h-99v47q-30 -56 -106 -56q-122 0 -122 155v340h104v-324q0 -77 60 -77q59 0 59 77v324z" />
    <glyph glyph-name="uacute" unicode="&#xfa;" horiz-adv-x="423" 
d="M342 680q-45 -54 -89 -120h-91q28 66 67 120h113zM270 486h104v-486h-99v47q-30 -56 -106 -56q-122 0 -122 155v340h104v-324q0 -77 60 -77q59 0 59 77v324z" />
    <glyph glyph-name="ucircumflex" unicode="&#xfb;" horiz-adv-x="423" 
d="M212 630q-35 -40 -53 -70h-82q31 73 67 120h135q36 -47 67 -120h-82q-16 27 -52 70zM270 486h104v-486h-99v47q-30 -56 -106 -56q-122 0 -122 155v340h104v-324q0 -77 60 -77q59 0 59 77v324z" />
    <glyph glyph-name="udieresis" unicode="&#xfc;" horiz-adv-x="423" 
d="M133 557q-26 0 -42.5 16.5t-16.5 41.5t17 41.5t42 16.5q26 0 42.5 -16.5t16.5 -41.5q0 -26 -16.5 -42t-42.5 -16zM290 557q-26 0 -42.5 16.5t-16.5 41.5t17 41.5t42 16.5q26 0 42.5 -16.5t16.5 -41.5q0 -26 -16.5 -42t-42.5 -16zM270 486h104v-486h-99v47
q-30 -56 -106 -56q-122 0 -122 155v340h104v-324q0 -77 60 -77q59 0 59 77v324z" />
    <glyph glyph-name="yacute" unicode="&#xfd;" horiz-adv-x="414" 
d="M336 680q-45 -54 -89 -120h-91q28 66 67 120h113zM300 486h99q-27 -140 -97.5 -342t-124.5 -304h-106q37 68 83 182q-100 255 -139 464h106q25 -139 84 -331q61 178 95 331z" />
    <glyph glyph-name="thorn" unicode="&#xfe;" horiz-adv-x="421" 
d="M249 494q139 0 139 -217v-68q0 -218 -139 -218q-63 0 -96 46v-197h-104v860h104v-252q32 46 96 46zM284 219v47q0 69 -14.5 102t-51.5 33q-63 0 -65 -99v-119q2 -98 65 -98q37 0 51.5 32.5t14.5 101.5z" />
    <glyph glyph-name="ydieresis" unicode="&#xff;" horiz-adv-x="414" 
d="M127 557q-26 0 -42.5 16.5t-16.5 41.5t17 41.5t42 16.5q26 0 42.5 -16.5t16.5 -41.5q0 -26 -16.5 -42t-42.5 -16zM284 557q-26 0 -42.5 16.5t-16.5 41.5t17 41.5t42 16.5q26 0 42.5 -16.5t16.5 -41.5q0 -26 -16.5 -42t-42.5 -16zM300 486h99q-27 -140 -97.5 -342
t-124.5 -304h-106q37 68 83 182q-100 255 -139 464h106q25 -139 84 -331q61 178 95 331z" />
    <glyph glyph-name="Amacron" unicode="&#x100;" horiz-adv-x="478" 
d="M356 839v-80h-230v80h230zM349 0q-13 88 -25 150h-175q-18 -102 -25 -150h-111q69 397 146 659q3 12 10.5 16.5t24.5 4.5h91q17 0 24 -4.5t10 -16.5q80 -279 146 -659h-116zM168 250h138q-29 148 -69 319q-34 -137 -69 -319z" />
    <glyph glyph-name="amacron" unicode="&#x101;" horiz-adv-x="423" 
d="M327 655v-80h-230v80h230zM371 121q0 -24 6 -32.5t23 -8.5v-78q-14 -7 -41 -7q-60 0 -76 51q-33 -55 -113 -55q-64 0 -102 36t-38 95q0 80 58 125t179 66v17q0 74 -61 74q-55 0 -65 -61h-96q1 70 43 111t119 41t120.5 -39.5t43.5 -121.5v-213zM194 78q35 0 54 20.5
t19 55.5v78q-69 -16 -100.5 -40.5t-31.5 -59.5q0 -54 59 -54z" />
    <glyph glyph-name="Abreve" unicode="&#x102;" horiz-adv-x="478" 
d="M241 739q-59 0 -95 32t-36 93h81q0 -60 50 -60q27 0 39 18t12 42h80q0 -61 -36.5 -93t-94.5 -32zM349 0q-13 88 -25 150h-175q-18 -102 -25 -150h-111q69 397 146 659q3 12 10.5 16.5t24.5 4.5h91q17 0 24 -4.5t10 -16.5q80 -279 146 -659h-116zM168 250h138
q-29 148 -69 319q-34 -137 -69 -319z" />
    <glyph glyph-name="abreve" unicode="&#x103;" horiz-adv-x="423" 
d="M212 555q-59 0 -95 32t-36 93h81q0 -60 50 -60q27 0 39 18t12 42h80q0 -61 -36.5 -93t-94.5 -32zM371 121q0 -24 6 -32.5t23 -8.5v-78q-14 -7 -41 -7q-60 0 -76 51q-33 -55 -113 -55q-64 0 -102 36t-38 95q0 80 58 125t179 66v17q0 74 -61 74q-55 0 -65 -61h-96
q1 70 43 111t119 41t120.5 -39.5t43.5 -121.5v-213zM194 78q35 0 54 20.5t19 55.5v78q-69 -16 -100.5 -40.5t-31.5 -59.5q0 -54 59 -54z" />
    <glyph glyph-name="Aogonek" unicode="&#x104;" horiz-adv-x="478" 
d="M409 -75q0 -34 46 -34h7v-67q-14 -3 -31 -3q-47 0 -72 22t-25 61q0 58 54 96h-39q-13 88 -25 150h-175q-18 -102 -25 -150h-111q69 397 146 659q3 12 10.5 16.5t24.5 4.5h91q17 0 24 -4.5t10 -16.5q80 -279 146 -659q-56 -31 -56 -75zM168 250h138q-29 148 -69 319
q-34 -137 -69 -319z" />
    <glyph glyph-name="aogonek" unicode="&#x105;" horiz-adv-x="423" 
d="M361 -179q-47 0 -72 22t-25 61q0 60 57 98q-28 12 -38 44q-34 -55 -113 -55q-64 0 -102 36t-38 95q0 80 57 124.5t180 67.5v16q0 74 -61 74q-55 0 -65 -61h-96q1 70 43 111t119 41t120.5 -39.5t43.5 -121.5v-213q0 -24 6 -32.5t23 -8.5v-78q-61 -35 -61 -77q0 -34 46 -34
h7v-67q-14 -3 -31 -3zM194 78q35 0 54 20.5t19 55.5v79q-132 -33 -132 -101q0 -54 59 -54z" />
    <glyph glyph-name="Cacute" unicode="&#x106;" horiz-adv-x="416" 
d="M355 864q-45 -54 -89 -120h-91q28 66 67 120h113zM223 -9q-93 0 -140 65.5t-47 238.5v90q0 173 47 238.5t140 65.5q168 0 168 -185v-15h-106q-5 49 -18.5 72t-45.5 23q-23 0 -37.5 -13.5t-21.5 -42.5t-9.5 -62t-2.5 -84v-84q0 -52 2.5 -84.5t9.5 -61.5t21.5 -42.5
t37.5 -13.5q32 0 47 27.5t17 84.5h106v-33q0 -80 -39.5 -132t-128.5 -52z" />
    <glyph glyph-name="cacute" unicode="&#x107;" horiz-adv-x="385" 
d="M339 680q-45 -54 -89 -120h-91q28 66 67 120h113zM360 149v-9q0 -75 -44 -112t-113 -37q-80 0 -125 53.5t-45 166.5v64q0 112 45.5 166t125.5 54q69 0 112 -37.5t43 -109.5v-12h-97q-5 34 -18.5 50t-40.5 16q-36 0 -51 -33t-15 -105v-42q0 -72 15 -105t51 -33q52 0 58 65
h99z" />
    <glyph glyph-name="Cdotaccent" unicode="&#x10a;" horiz-adv-x="416" 
d="M225 738q-26 0 -44 17.5t-18 43.5t18 43.5t44 17.5t44 -17.5t18 -43.5t-18 -43.5t-44 -17.5zM223 -9q-93 0 -140 65.5t-47 238.5v90q0 173 47 238.5t140 65.5q168 0 168 -185v-15h-106q-5 49 -18.5 72t-45.5 23q-23 0 -37.5 -13.5t-21.5 -42.5t-9.5 -62t-2.5 -84v-84
q0 -52 2.5 -84.5t9.5 -61.5t21.5 -42.5t37.5 -13.5q32 0 47 27.5t17 84.5h106v-33q0 -80 -39.5 -132t-128.5 -52z" />
    <glyph glyph-name="cdotaccent" unicode="&#x10b;" horiz-adv-x="385" 
d="M209 554q-26 0 -44 17.5t-18 43.5t18 43.5t44 17.5t44 -17.5t18 -43.5t-18 -43.5t-44 -17.5zM360 149v-9q0 -75 -44 -112t-113 -37q-80 0 -125 53.5t-45 166.5v64q0 112 45.5 166t125.5 54q69 0 112 -37.5t43 -109.5v-12h-97q-5 34 -18.5 50t-40.5 16q-36 0 -51 -33
t-15 -105v-42q0 -72 15 -105t51 -33q52 0 58 65h99z" />
    <glyph glyph-name="Ccaron" unicode="&#x10c;" horiz-adv-x="416" 
d="M292 744h-135q-36 47 -67 120h82q18 -30 53 -70q36 43 52 70h82q-31 -73 -67 -120zM221 584q-23 0 -37.5 -13.5t-21.5 -42.5t-9.5 -62t-2.5 -84v-84q0 -52 2.5 -84.5t9.5 -61.5t21.5 -42.5t37.5 -13.5q32 0 47 27.5t17 84.5h106v-33q0 -80 -39.5 -132t-128.5 -52
q-93 0 -140 65.5t-47 238.5v90q0 173 47 238.5t140 65.5q168 0 168 -185v-15h-106q-5 49 -18.5 72t-45.5 23z" />
    <glyph glyph-name="ccaron" unicode="&#x10d;" horiz-adv-x="385" 
d="M276 560h-135q-36 47 -67 120h82q18 -30 53 -70q36 43 52 70h82q-31 -73 -67 -120zM261 149h99v-9q0 -75 -44 -112t-113 -37q-80 0 -125 53.5t-45 166.5v64q0 112 45.5 166t125.5 54q69 0 112 -37.5t43 -109.5v-12h-97q-5 34 -18.5 50t-40.5 16q-36 0 -51 -33t-15 -105
v-42q0 -72 15 -105t51 -33q52 0 58 65z" />
    <glyph glyph-name="Dcaron" unicode="&#x10e;" horiz-adv-x="454" 
d="M286 744h-135q-36 47 -67 120h82q18 -30 53 -70q36 43 52 70h82q-31 -73 -67 -120zM200 680q76 0 121.5 -24t71 -90.5t25.5 -184.5v-81q0 -118 -25.5 -184.5t-71 -91t-121.5 -24.5h-148v680h148zM304 307v66q0 116 -20.5 159.5t-81.5 43.5h-36v-471h36q61 0 81.5 43
t20.5 159z" />
    <glyph glyph-name="dcaron" unicode="&#x10f;" horiz-adv-x="487" 
d="M268 448v252h104v-700h-100v43q-33 -52 -100 -52q-139 0 -139 218v68q0 217 139 217q64 0 96 -46zM416 700h85q-3 -105 -55 -181h-49q19 95 19 181zM203 85q63 0 65 98v119q-2 99 -65 99q-37 0 -51.5 -33t-14.5 -102v-47q0 -69 14.5 -101.5t51.5 -32.5z" />
    <glyph glyph-name="Dcroat" unicode="&#x110;" horiz-adv-x="466" 
d="M212 680q76 0 121.5 -24t71 -90.5t25.5 -184.5v-81q0 -118 -25.5 -184.5t-71 -91t-121.5 -24.5h-148v299h-42v86h42v295h148zM316 307v66q0 116 -20.5 159.5t-81.5 43.5h-36v-191h79v-86h-79v-194h36q61 0 81.5 43t20.5 159z" />
    <glyph glyph-name="dcroat" unicode="&#x111;" 
d="M406 627v-86h-34v-541h-100v43q-33 -52 -100 -52q-139 0 -139 218v68q0 217 139 217q64 0 96 -46v93h-97v86h97v73h104v-73h34zM203 85q63 0 65 98v119q-2 99 -65 99q-37 0 -51.5 -33t-14.5 -102v-47q0 -69 14.5 -101.5t51.5 -32.5z" />
    <glyph glyph-name="Emacron" unicode="&#x112;" horiz-adv-x="401" 
d="M328 839v-80h-230v80h230zM166 102h210v-102h-324v680h315v-102h-201v-182h179v-100h-179v-194z" />
    <glyph glyph-name="emacron" unicode="&#x113;" horiz-adv-x="407" 
d="M325 655v-80h-230v80h230zM374 216h-237q2 -71 17 -102t51 -31q28 0 43 15.5t20 50.5h97q-3 -158 -161 -158q-171 0 -171 220v67q0 217 171 217q170 0 170 -200v-79zM205 404q-34 0 -49.5 -25.5t-17.5 -83.5h135q-2 58 -17.5 83.5t-50.5 25.5z" />
    <glyph glyph-name="Edotaccent" unicode="&#x116;" horiz-adv-x="401" 
d="M213 738q-26 0 -44 17.5t-18 43.5t18 43.5t44 17.5t44 -17.5t18 -43.5t-18 -43.5t-44 -17.5zM166 102h210v-102h-324v680h315v-102h-201v-182h179v-100h-179v-194z" />
    <glyph glyph-name="edotaccent" unicode="&#x117;" horiz-adv-x="407" 
d="M210 554q-26 0 -44 17.5t-18 43.5t18 43.5t44 17.5t44 -17.5t18 -43.5t-18 -43.5t-44 -17.5zM374 216h-237q2 -71 17 -102t51 -31q28 0 43 15.5t20 50.5h97q-3 -158 -161 -158q-171 0 -171 220v67q0 217 171 217q170 0 170 -200v-79zM205 404q-34 0 -49.5 -25.5
t-17.5 -83.5h135q-2 58 -17.5 83.5t-50.5 25.5z" />
    <glyph glyph-name="Eogonek" unicode="&#x118;" horiz-adv-x="401" 
d="M376 0q-56 -31 -56 -75q0 -34 46 -34h7v-67q-13 -3 -31 -3q-47 0 -72 22t-25 61q0 58 54 96h-247v680h315v-102h-201v-182h179v-100h-179v-194h210v-102z" />
    <glyph glyph-name="eogonek" unicode="&#x119;" horiz-adv-x="407" 
d="M278 -179q-47 0 -73 21.5t-26 60.5q0 50 47 89q-7 -1 -22 -1q-171 0 -171 220v67q0 217 171 217q170 0 170 -200v-79h-237q2 -71 17 -102t51 -31q28 0 43 15.5t20 50.5h97q-1 -86 -56 -133q-53 -45 -53 -87q0 -20 10.5 -29t35.5 -9h7v-67q-13 -3 -31 -3zM138 295h135
q-2 58 -17.5 83.5t-50.5 25.5q-34 0 -49.5 -25.5t-17.5 -83.5z" />
    <glyph glyph-name="Ecaron" unicode="&#x11a;" horiz-adv-x="401" 
d="M280 744h-135q-36 47 -67 120h82q18 -30 53 -70q36 43 52 70h82q-31 -73 -67 -120zM166 102h210v-102h-324v680h315v-102h-201v-182h179v-100h-179v-194z" />
    <glyph glyph-name="ecaron" unicode="&#x11b;" horiz-adv-x="407" 
d="M277 560h-135q-36 47 -67 120h82q18 -30 53 -70q36 43 52 70h82q-31 -73 -67 -120zM374 216h-237q2 -71 17 -102t51 -31q28 0 43 15.5t20 50.5h97q-3 -158 -161 -158q-171 0 -171 220v67q0 217 171 217q170 0 170 -200v-79zM205 404q-34 0 -49.5 -25.5t-17.5 -83.5h135
q-2 58 -17.5 83.5t-50.5 25.5z" />
    <glyph glyph-name="Gbreve" unicode="&#x11e;" horiz-adv-x="443" 
d="M227 739q58 0 94.5 32t36.5 93h-80q0 -24 -12 -42t-39 -18q-50 0 -50 60h-81q0 -61 36 -93t95 -32zM223 -11q-46 0 -78.5 13.5t-58 46t-38 92.5t-12.5 149v97q0 90 13 150.5t39.5 93.5t59 46.5t77.5 13.5q89 0 130.5 -50.5t41.5 -127.5v-22h-106q-5 49 -19.5 72t-47.5 23
q-42 0 -58 -44.5t-16 -157.5v-88q0 -114 16 -158t58 -44t57 36t15 110v31h-77v102h186v-133q0 -140 -45 -195.5t-137 -55.5z" />
    <glyph glyph-name="gbreve" unicode="&#x11f;" horiz-adv-x="417" 
d="M213 555q-59 0 -95 32t-36 93h81q0 -60 50 -60q27 0 39 18t12 42h80q0 -61 -36.5 -93t-94.5 -32zM270 486h100v-481q0 -174 -165 -174q-79 0 -120.5 35t-41.5 100v12h101q4 -60 60 -60q33 0 47.5 20.5t14.5 67.5v62q-31 -45 -94 -45q-138 0 -138 217v37q0 217 138 217
q67 0 98 -49v41zM203 116q61 0 63 99v87q-2 99 -63 99q-37 0 -51 -32.5t-14 -102.5v-16q0 -69 14 -101.5t51 -32.5z" />
    <glyph glyph-name="Gdotaccent" unicode="&#x120;" horiz-adv-x="443" 
d="M227 738q-26 0 -44 17.5t-18 43.5t18 43.5t44 17.5t44 -17.5t18 -43.5t-18 -43.5t-44 -17.5zM223 -11q-46 0 -78.5 13.5t-58 46t-38 92.5t-12.5 149v97q0 90 13 150.5t39.5 93.5t59 46.5t77.5 13.5q89 0 130.5 -50.5t41.5 -127.5v-22h-106q-5 49 -19.5 72t-47.5 23
q-42 0 -58 -44.5t-16 -157.5v-88q0 -114 16 -158t58 -44t57 36t15 110v31h-77v102h186v-133q0 -140 -45 -195.5t-137 -55.5z" />
    <glyph glyph-name="gdotaccent" unicode="&#x121;" horiz-adv-x="417" 
d="M213 554q-26 0 -44 17.5t-18 43.5t18 43.5t44 17.5t44 -17.5t18 -43.5t-18 -43.5t-44 -17.5zM270 486h100v-481q0 -174 -165 -174q-79 0 -120.5 35t-41.5 100v12h101q4 -60 60 -60q33 0 47.5 20.5t14.5 67.5v62q-31 -45 -94 -45q-138 0 -138 217v37q0 217 138 217
q67 0 98 -49v41zM203 116q61 0 63 99v87q-2 99 -63 99q-37 0 -51 -32.5t-14 -102.5v-16q0 -69 14 -101.5t51 -32.5z" />
    <glyph glyph-name="Gcommaaccent" unicode="&#x122;" horiz-adv-x="443" 
d="M223 -11q-46 0 -78.5 13.5t-58 46t-38 92.5t-12.5 149v97q0 90 13 150.5t39.5 93.5t59 46.5t77.5 13.5q89 0 130.5 -50.5t41.5 -127.5v-22h-106q-5 49 -19.5 72t-47.5 23q-42 0 -58 -44.5t-16 -157.5v-88q0 -114 16 -158t58 -44t57 36t15 110v31h-77v102h186v-133
q0 -140 -45 -195.5t-137 -55.5zM158 -200q14 75 14 151h98q-1 -78 -49 -151h-63z" />
    <glyph glyph-name="gcommaaccent" unicode="&#x123;" horiz-adv-x="417" 
d="M270 695q-14 -75 -14 -151h-98q1 78 49 151h63zM270 486h100v-481q0 -174 -165 -174q-79 0 -120.5 35t-41.5 100v12h101q4 -60 60 -60q33 0 47.5 20.5t14.5 67.5v62q-31 -45 -94 -45q-138 0 -138 217v37q0 217 138 217q67 0 98 -49v41zM203 116q61 0 63 99v87
q-2 99 -63 99q-37 0 -51 -32.5t-14 -102.5v-16q0 -69 14 -101.5t51 -32.5z" />
    <glyph glyph-name="Hbar" unicode="&#x126;" horiz-adv-x="491" 
d="M475 579v-73h-36v-506h-114v295h-159v-295h-114v506h-36v73h36v101h114v-101h159v101h114v-101h36zM325 397v109h-159v-109h159z" />
    <glyph glyph-name="hbar" unicode="&#x127;" horiz-adv-x="425" 
d="M255 495q123 0 123 -156v-339h-104v324q0 36 -15.5 56.5t-44.5 20.5q-61 0 -61 -77v-324h-104v543h-37v86h37v71h104v-71h94v-86h-94v-97q33 49 102 49z" />
    <glyph glyph-name="Imacron" unicode="&#x12a;" horiz-adv-x="226" 
d="M-2 839h230v-80h-230v80zM170 680v-680h-114v680h114z" />
    <glyph glyph-name="imacron" unicode="&#x12b;" horiz-adv-x="202" 
d="M-14 655h230v-80h-230v80zM153 486v-486h-104v486h104z" />
    <glyph glyph-name="Iogonek" unicode="&#x12e;" horiz-adv-x="226" 
d="M170 0q-56 -31 -56 -75q0 -34 46 -34h7v-67q-13 -3 -31 -3q-47 0 -72 22t-25 61q0 58 54 96h-37v680h114v-680z" />
    <glyph glyph-name="iogonek" unicode="&#x12f;" horiz-adv-x="200" 
d="M100 554q-26 0 -44 17.5t-18 43.5t18 43.5t44 17.5t44 -17.5t18 -43.5t-18 -43.5t-44 -17.5zM48 0v486h104v-486q-56 -31 -56 -75q0 -34 46 -34h7v-67q-13 -3 -31 -3q-47 0 -72 22t-25 61q0 58 54 96h-27z" />
    <glyph glyph-name="Idotaccent" unicode="&#x130;" horiz-adv-x="226" 
d="M113 738q-26 0 -44 17.5t-18 43.5t18 43.5t44 17.5t44 -17.5t18 -43.5t-18 -43.5t-44 -17.5zM170 680v-680h-114v680h114z" />
    <glyph glyph-name="dotlessi" unicode="&#x131;" horiz-adv-x="202" 
d="M153 486v-486h-104v486h104z" />
    <glyph glyph-name="Kcommaaccent" unicode="&#x136;" horiz-adv-x="459" 
d="M297 404q44 -92 89 -211t66 -193h-115q-48 158 -112 297q-45 -62 -62 -84v-213h-111v680h111v-307q100 164 160 307h114q-50 -134 -140 -276zM167 -200q14 75 14 151h98q-1 -78 -49 -151h-63z" />
    <glyph glyph-name="kcommaaccent" unicode="&#x137;" horiz-adv-x="400" 
d="M268 296q83 -151 131 -296h-106q-41 117 -89 209q-37 -45 -53 -63v-146h-102v700h102v-416q78 113 122 202h108q-44 -92 -113 -190zM145 -200q14 75 14 151h98q-1 -78 -49 -151h-63z" />
    <glyph glyph-name="Lacute" unicode="&#x139;" horiz-adv-x="369" 
d="M251 864q-45 -54 -89 -120h-91q28 66 67 120h113zM166 102h188v-102h-302v680h114v-578z" />
    <glyph glyph-name="lacute" unicode="&#x13a;" horiz-adv-x="215" 
d="M236 874q-45 -54 -89 -120h-91q28 66 67 120h113zM151 700v-569q0 -31 10 -41.5t36 -10.5v-79q-16 -8 -47 -8q-57 0 -80 30t-23 93v585h104z" />
    <glyph glyph-name="Lcommaaccent" unicode="&#x13b;" horiz-adv-x="369" 
d="M166 102h188v-102h-302v680h114v-578zM135 -200q14 75 14 151h98q-1 -78 -49 -151h-63z" />
    <glyph glyph-name="lcommaaccent" unicode="&#x13c;" horiz-adv-x="215" 
d="M151 700v-569q0 -31 10 -41.5t36 -10.5v-79q-16 -8 -47 -8q-57 0 -80 30t-23 93v585h104zM63 -200q14 75 14 151h98q-1 -78 -49 -151h-63z" />
    <glyph glyph-name="Lcaron" unicode="&#x13d;" horiz-adv-x="369" 
d="M166 102h188v-102h-302v680h114v-578zM299 680q-3 -105 -55 -181h-49q19 95 19 181h85z" />
    <glyph glyph-name="lcaron" unicode="&#x13e;" horiz-adv-x="270" 
d="M151 700v-569q0 -31 10 -41.5t36 -10.5v-79q-16 -8 -47 -8q-57 0 -80 30t-23 93v585h104zM284 700q-3 -105 -55 -181h-49q19 95 19 181h85z" />
    <glyph glyph-name="Lslash" unicode="&#x141;" horiz-adv-x="381" 
d="M178 102h188v-102h-302v225l-44 -27v90l44 27v365h114v-295l92 56v-91l-92 -56v-192z" />
    <glyph glyph-name="lslash" unicode="&#x142;" horiz-adv-x="263" 
d="M244 388l-67 -41v-211q0 -31 10 -42t36 -11v-79q-16 -8 -47 -8q-58 0 -80.5 30t-22.5 93v164l-56 -34v100l56 35v316h104v-252l67 41v-101z" />
    <glyph glyph-name="Nacute" unicode="&#x143;" horiz-adv-x="491" 
d="M376 864q-45 -54 -89 -120h-91q28 66 67 120h113zM331 680h108v-680h-103l-176 440v-440h-108v680h113l166 -415v415z" />
    <glyph glyph-name="nacute" unicode="&#x144;" horiz-adv-x="425" 
d="M350 680q-45 -54 -89 -120h-91q28 66 67 120h113zM255 495q123 0 123 -156v-339h-104v324q0 36 -15.5 56.5t-44.5 20.5q-61 0 -61 -77v-324h-104v486h99v-49q30 58 107 58z" />
    <glyph glyph-name="Ncommaaccent" unicode="&#x145;" horiz-adv-x="491" 
d="M331 680h108v-680h-103l-176 440v-440h-108v680h113l166 -415v415zM183 -200q14 75 14 151h98q-1 -78 -49 -151h-63z" />
    <glyph glyph-name="ncommaaccent" unicode="&#x146;" horiz-adv-x="425" 
d="M255 495q123 0 123 -156v-339h-104v324q0 36 -15.5 56.5t-44.5 20.5q-61 0 -61 -77v-324h-104v486h99v-49q30 58 107 58zM150 -200q14 75 14 151h98q-1 -78 -49 -151h-63z" />
    <glyph glyph-name="Ncaron" unicode="&#x147;" horiz-adv-x="491" 
d="M313 744h-135q-36 47 -67 120h82q18 -30 53 -70q36 43 52 70h82q-31 -73 -67 -120zM331 680h108v-680h-103l-176 440v-440h-108v680h113l166 -415v415z" />
    <glyph glyph-name="ncaron" unicode="&#x148;" horiz-adv-x="425" 
d="M287 560h-135q-36 47 -67 120h82q18 -30 53 -70q36 43 52 70h82q-31 -73 -67 -120zM255 495q123 0 123 -156v-339h-104v324q0 36 -15.5 56.5t-44.5 20.5q-61 0 -61 -77v-324h-104v486h99v-49q30 58 107 58z" />
    <glyph glyph-name="Eng" unicode="&#x14a;" horiz-adv-x="491" 
d="M331 680h108v-680q0 -87 -40 -127.5t-110 -40.5q-45 0 -66 10v93q19 -3 39 -3q71 0 71 68v8l-173 429v-437h-108v680h113l166 -412v412z" />
    <glyph glyph-name="eng" unicode="&#x14b;" horiz-adv-x="425" 
d="M255 495q123 0 123 -156v-339h-104v324q0 36 -15.5 56.5t-44.5 20.5q-61 0 -61 -77v-324h-104v486h99v-49q30 58 107 58z" />
    <glyph glyph-name="Omacron" unicode="&#x14c;" horiz-adv-x="446" 
d="M108 839h230v-80h-230v80zM223 -10q-46 0 -78.5 13.5t-58 46.5t-38 93.5t-12.5 150.5v92q0 90 12.5 150.5t38 93.5t58 46.5t78.5 13.5t78.5 -13.5t58 -46.5t38 -93.5t12.5 -150.5v-92q0 -90 -12.5 -150.5t-38 -93.5t-58 -46.5t-78.5 -13.5zM223 95q24 0 39 13.5t22.5 43
t9.5 61.5t2 84v86q0 52 -2 84t-9.5 61.5t-22.5 43t-39 13.5t-39 -13.5t-22.5 -43t-9.5 -61.5t-2 -84v-86q0 -52 2 -84t9.5 -61.5t22.5 -43t39 -13.5z" />
    <glyph glyph-name="omacron" unicode="&#x14d;" horiz-adv-x="410" 
d="M90 655h230v-80h-230v80zM205 -9q-172 0 -172 218v68q0 218 172 218t172 -218v-68q0 -218 -172 -218zM205 84q22 0 36.5 11t21 33t8.5 43t2 52v40q0 31 -2 52.5t-8.5 43t-21 32.5t-36.5 11q-41 0 -54.5 -37t-13.5 -102v-40q0 -65 13.5 -102t54.5 -37z" />
    <glyph glyph-name="Ohungarumlaut" unicode="&#x150;" horiz-adv-x="446" 
d="M269 864q-37 -44 -78 -120h-81q18 48 56 120h103zM420 864q-24 -30 -89 -120h-81q32 68 67 120h103zM223 -10q-46 0 -78.5 13.5t-58 46.5t-38 93.5t-12.5 150.5v92q0 90 12.5 150.5t38 93.5t58 46.5t78.5 13.5t78.5 -13.5t58 -46.5t38 -93.5t12.5 -150.5v-92
q0 -90 -12.5 -150.5t-38 -93.5t-58 -46.5t-78.5 -13.5zM223 95q24 0 39 13.5t22.5 43t9.5 61.5t2 84v86q0 52 -2 84t-9.5 61.5t-22.5 43t-39 13.5t-39 -13.5t-22.5 -43t-9.5 -61.5t-2 -84v-86q0 -52 2 -84t9.5 -61.5t22.5 -43t39 -13.5z" />
    <glyph glyph-name="ohungarumlaut" unicode="&#x151;" horiz-adv-x="410" 
d="M251 680q-37 -44 -78 -120h-81q18 48 56 120h103zM402 680q-24 -30 -89 -120h-81q32 68 67 120h103zM205 -9q-172 0 -172 218v68q0 218 172 218t172 -218v-68q0 -218 -172 -218zM205 84q22 0 36.5 11t21 33t8.5 43t2 52v40q0 31 -2 52.5t-8.5 43t-21 32.5t-36.5 11
q-41 0 -54.5 -37t-13.5 -102v-40q0 -65 13.5 -102t54.5 -37z" />
    <glyph glyph-name="OE" unicode="&#x152;" horiz-adv-x="648" 
d="M413 102h210v-102h-324v28q-32 -39 -93 -39q-39 0 -68 13.5t-53 46t-36.5 94t-12.5 150.5v94q0 89 12.5 150.5t36.5 94t53 46t68 13.5q61 0 93 -39v28h315v-102h-201v-182h179v-100h-179v-194zM235 94q39 0 64 31v430q-25 31 -64 31q-49 0 -67.5 -44t-18.5 -158v-88
q0 -114 18.5 -158t67.5 -44z" />
    <glyph glyph-name="oe" unicode="&#x153;" horiz-adv-x="649" 
d="M616 216h-237q2 -71 17 -102t51 -31q28 0 43 15.5t20 50.5h97q-3 -158 -161 -158q-77 0 -120 49q-43 -49 -121 -49q-172 0 -172 218v68q0 218 172 218q78 0 121 -49q42 49 120 49q170 0 170 -200v-79zM447 404q-34 0 -49.5 -25.5t-17.5 -83.5h135q-2 58 -17.5 83.5
t-50.5 25.5zM273 223v40q0 31 -2 52.5t-8.5 43t-21 32.5t-36.5 11q-41 0 -54.5 -37t-13.5 -102v-40q0 -65 13.5 -102t54.5 -37q22 0 36.5 11t21 33t8.5 43t2 52z" />
    <glyph glyph-name="Racute" unicode="&#x154;" horiz-adv-x="452" 
d="M356 864q-45 -54 -89 -120h-91q28 66 67 120h113zM436 0h-114q-48 158 -105 279h-51v-279h-114v680h170q96 0 144.5 -52.5t48.5 -145.5q0 -131 -94 -176q33 -65 67.5 -158t47.5 -148zM166 582v-203h52q84 0 84 102q0 101 -84 101h-52z" />
    <glyph glyph-name="racute" unicode="&#x155;" horiz-adv-x="295" 
d="M306 685q-45 -54 -89 -120h-91q28 66 67 120h113zM148 405q7 32 32 59t68 27q16 0 29 -5v-111q-16 3 -35 3q-89 0 -89 -101v-277h-104v486h99v-81z" />
    <glyph glyph-name="Rcommaaccent" unicode="&#x156;" horiz-adv-x="452" 
d="M321 306q33 -65 67.5 -158t47.5 -148h-114q-48 158 -105 279h-51v-279h-114v680h170q96 0 144.5 -52.5t48.5 -145.5q0 -131 -94 -176zM166 582v-203h52q84 0 84 102q0 101 -84 101h-52zM163 -200q14 75 14 151h98q-1 -78 -49 -151h-63z" />
    <glyph glyph-name="rcommaaccent" unicode="&#x157;" horiz-adv-x="295" 
d="M248 491q16 0 29 -5v-111q-16 3 -35 3q-89 0 -89 -101v-277h-104v486h99v-81q7 32 32 59t68 27zM38 -200q14 75 14 151h98q-1 -78 -49 -151h-63z" />
    <glyph glyph-name="Rcaron" unicode="&#x158;" horiz-adv-x="452" 
d="M293 744h-135q-36 47 -67 120h82q18 -30 53 -70q36 43 52 70h82q-31 -73 -67 -120zM436 0h-114q-48 158 -105 279h-51v-279h-114v680h170q96 0 144.5 -52.5t48.5 -145.5q0 -131 -94 -176q33 -65 67.5 -158t47.5 -148zM166 582v-203h52q84 0 84 102q0 101 -84 101h-52z
" />
    <glyph glyph-name="rcaron" unicode="&#x159;" horiz-adv-x="295" 
d="M243 565h-135q-36 47 -67 120h82q18 -30 53 -70q36 43 52 70h82q-31 -73 -67 -120zM148 405q7 32 32 59t68 27q16 0 29 -5v-111q-16 3 -35 3q-89 0 -89 -101v-277h-104v486h99v-81z" />
    <glyph glyph-name="Sacute" unicode="&#x15a;" horiz-adv-x="399" 
d="M330 864q-45 -54 -89 -120h-91q28 66 67 120h113zM367 503h-108q-7 84 -63 84q-26 0 -41 -17.5t-15 -47.5q0 -53 66 -104l36 -28q76 -59 106 -102t30 -115q0 -87 -47 -134.5t-132 -47.5q-87 0 -132 47.5t-45 129.5v25h107q2 -45 20.5 -72.5t53.5 -27.5q63 0 63 73
q0 28 -15 53.5t-30.5 39.5t-49.5 41l-36 28q-54 42 -80.5 84.5t-26.5 103.5q0 82 45 127.5t124 45.5q83 0 126.5 -44t43.5 -119v-23z" />
    <glyph glyph-name="sacute" unicode="&#x15b;" horiz-adv-x="365" 
d="M315 680q-45 -54 -89 -120h-91q28 66 67 120h113zM183 495q70 0 108 -35t38 -91v-19h-93q-5 59 -55 59q-22 0 -35 -12.5t-13 -35.5q0 -21 13 -34t42 -27l39 -19q60 -29 86 -58t26 -86q0 -66 -41 -106t-114 -40q-74 0 -116 36.5t-42 95.5v19h97q2 -65 61 -65q25 0 39 14
t14 38q0 41 -51 64l-44 21q-25 11 -40.5 20t-33.5 25.5t-27 40t-9 54.5q0 63 39 102t112 39z" />
    <glyph glyph-name="Scedilla" unicode="&#x15e;" horiz-adv-x="399" 
d="M378 173q0 -78 -38 -124.5t-107 -55.5l-15 -30q38 -2 61 -21t23 -53q0 -37 -26.5 -58.5t-70.5 -21.5q-58 0 -94 30l27 45q28 -21 64 -21q37 0 37 27q0 25 -42 25q-18 0 -32 -4l-17 24l27 57q-76 7 -114.5 53.5t-38.5 122.5v25h107q2 -45 20.5 -72.5t53.5 -27.5
q63 0 63 73q0 28 -15 53.5t-30.5 39.5t-49.5 41l-36 28q-54 42 -80.5 84.5t-26.5 103.5q0 82 45 127.5t124 45.5q83 0 126.5 -44t43.5 -119v-23h-108q-7 84 -63 84q-26 0 -41 -17.5t-15 -47.5q0 -53 66 -104l36 -28q76 -59 106 -102t30 -115z" />
    <glyph glyph-name="scedilla" unicode="&#x15f;" horiz-adv-x="365" 
d="M339 137q0 -60 -34.5 -99t-97.5 -46l-14 -29q38 -2 61 -21t23 -53q0 -37 -26.5 -58.5t-70.5 -21.5q-58 0 -94 30l27 45q29 -21 64 -21q37 0 37 27q0 25 -42 25q-18 0 -32 -4l-17 24l28 58q-59 8 -92 43t-33 87v19h97q2 -65 61 -65q25 0 39 14t14 38q0 41 -51 64l-44 21
q-25 11 -40.5 20t-33.5 25.5t-27 40t-9 54.5q0 63 39 102t112 39q70 0 108 -35t38 -91v-19h-93q-5 59 -55 59q-22 0 -35 -12.5t-13 -35.5q0 -21 13 -34t42 -27l39 -19q60 -29 86 -58t26 -86z" />
    <glyph glyph-name="Scaron" unicode="&#x160;" horiz-adv-x="399" 
d="M267 744h-135q-36 47 -67 120h82q18 -30 53 -70q36 43 52 70h82q-31 -73 -67 -120zM242 390q76 -59 106 -102t30 -115q0 -87 -47 -134.5t-132 -47.5q-87 0 -132 47.5t-45 129.5v25h107q2 -45 20.5 -72.5t53.5 -27.5q63 0 63 73q0 28 -15 53.5t-30.5 39.5t-49.5 41l-36 28
q-54 42 -80.5 84.5t-26.5 103.5q0 82 45 127.5t124 45.5q83 0 126.5 -44t43.5 -119v-23h-108q-7 84 -63 84q-26 0 -41 -17.5t-15 -47.5q0 -53 66 -104z" />
    <glyph glyph-name="scaron" unicode="&#x161;" horiz-adv-x="365" 
d="M252 560h-135q-36 47 -67 120h82q18 -30 53 -70q36 43 52 70h82q-31 -73 -67 -120zM227 281q60 -29 86 -58t26 -86q0 -66 -41 -106t-114 -40q-74 0 -116 36.5t-42 95.5v19h97q2 -65 61 -65q25 0 39 14t14 38q0 41 -51 64l-44 21q-25 11 -40.5 20t-33.5 25.5t-27 40
t-9 54.5q0 63 39 102t112 39q70 0 108 -35t38 -91v-19h-93q-5 59 -55 59q-22 0 -35 -12.5t-13 -35.5q0 -21 13 -34t42 -27z" />
    <glyph glyph-name="uni0162" unicode="&#x162;" horiz-adv-x="412" 
d="M263 0h-25l-18 -37q38 -2 61 -21t23 -53q0 -37 -26.5 -58.5t-70.5 -21.5q-58 0 -94 30l27 45q28 -21 64 -21q37 0 37 27q0 25 -42 25q-18 0 -32 -4l-17 24l31 65h-32v578h-132v102h378v-102h-132v-578z" />
    <glyph glyph-name="uni0163" unicode="&#x163;" horiz-adv-x="285" 
d="M177 -37q38 -2 61 -21t23 -53q0 -37 -26.5 -58.5t-70.5 -21.5q-58 0 -94 30l27 45q29 -21 64 -21q37 0 37 27q0 25 -42 25q-18 0 -32 -4l-17 24l33 69q-66 24 -66 127v267h-58v88h58v117h104v-117h73v-88h-73v-249q0 -33 11 -47t40 -14q6 0 22 2v-85q-21 -9 -58 -9z" />
    <glyph glyph-name="Tcaron" unicode="&#x164;" horiz-adv-x="412" 
d="M273 744h-135q-36 47 -67 120h82q18 -30 53 -70q36 43 52 70h82q-31 -73 -67 -120zM17 680h378v-102h-132v-578h-114v578h-132v102z" />
    <glyph glyph-name="tcaron" unicode="&#x165;" horiz-adv-x="275" 
d="M328 719q-3 -105 -55 -181h-49q19 95 19 181h85zM189 -5q-64 0 -89.5 34.5t-25.5 100.5v268h-58v88h58v117h104v-117h73v-88h-73v-250q0 -33 11 -47t40 -14q6 0 22 2v-85q-22 -9 -62 -9z" />
    <glyph glyph-name="Tbar" unicode="&#x166;" horiz-adv-x="412" 
d="M395 578h-132v-195h60v-86h-60v-297h-114v297h-61v86h61v195h-132v102h378v-102z" />
    <glyph glyph-name="tbar" unicode="&#x167;" horiz-adv-x="275" 
d="M251 398h-73v-112h73v-86h-73v-51q0 -33 11 -47t40 -14q6 0 22 2v-85q-22 -9 -60 -9q-64 0 -90.5 35t-26.5 100v69h-58v86h58v112h-58v88h58v117h104v-117h73v-88z" />
    <glyph glyph-name="Umacron" unicode="&#x16a;" horiz-adv-x="470" 
d="M120 839h230v-80h-230v80zM306 680h114v-499q0 -190 -185 -190q-88 0 -136.5 45.5t-48.5 152.5v491h114v-488q0 -95 71 -95t71 95v488z" />
    <glyph glyph-name="umacron" unicode="&#x16b;" horiz-adv-x="423" 
d="M327 655v-80h-230v80h230zM270 486h104v-486h-99v47q-30 -56 -106 -56q-122 0 -122 155v340h104v-324q0 -77 60 -77q59 0 59 77v324z" />
    <glyph glyph-name="Uring" unicode="&#x16e;" horiz-adv-x="470" 
d="M235 722q-44 0 -71 26t-27 66t27 66t71 26t71 -26t27 -66t-27 -66t-71 -26zM235 768q22 0 34 13.5t12 32.5t-12 32.5t-34 13.5t-34 -13.5t-12 -32.5t12 -32.5t34 -13.5zM306 680h114v-499q0 -190 -185 -190q-88 0 -136.5 45.5t-48.5 152.5v491h114v-488q0 -95 71 -95
t71 95v488z" />
    <glyph glyph-name="uring" unicode="&#x16f;" horiz-adv-x="423" 
d="M212 538q-44 0 -71 26t-27 66t27 66t71 26t71 -26t27 -66t-27 -66t-71 -26zM212 676q-22 0 -34 -13.5t-12 -32.5t12 -32.5t34 -13.5t34 13.5t12 32.5t-12 32.5t-34 13.5zM270 486h104v-486h-99v47q-30 -56 -106 -56q-122 0 -122 155v340h104v-324q0 -77 60 -77
q59 0 59 77v324z" />
    <glyph glyph-name="Uhungarumlaut" unicode="&#x170;" horiz-adv-x="470" 
d="M281 864q-37 -44 -78 -120h-81q18 48 56 120h103zM432 864q-24 -30 -89 -120h-81q32 68 67 120h103zM306 680h114v-499q0 -190 -185 -190q-88 0 -136.5 45.5t-48.5 152.5v491h114v-488q0 -95 71 -95t71 95v488z" />
    <glyph glyph-name="uhungarumlaut" unicode="&#x171;" horiz-adv-x="423" 
d="M258 680q-37 -44 -78 -120h-81q18 48 56 120h103zM320 560h-81q32 68 67 120h103q-24 -30 -89 -120zM270 162v324h104v-486h-99v47q-30 -56 -106 -56q-122 0 -122 155v340h104v-324q0 -77 60 -77q59 0 59 77z" />
    <glyph glyph-name="Uogonek" unicode="&#x172;" horiz-adv-x="470" 
d="M326 -179q-48 0 -73.5 21.5t-25.5 61.5q0 46 36 88q-9 -1 -28 -1q-88 0 -136.5 45.5t-48.5 152.5v491h114v-488q0 -95 71 -95t71 95v488h114v-499q0 -41 -9 -72t-19 -46t-27 -32q-20 -21 -29 -31t-20.5 -31t-11.5 -40q0 -38 46 -38h7v-67q-14 -3 -31 -3z" />
    <glyph glyph-name="uogonek" unicode="&#x173;" horiz-adv-x="423" 
d="M374 0q-56 -31 -56 -75q0 -34 46 -34h7v-67q-13 -3 -31 -3q-47 0 -72 22t-25 61q0 58 54 96h-22v47q-30 -56 -106 -56q-122 0 -122 155v340h104v-324q0 -77 60 -77q59 0 59 77v324h104v-486z" />
    <glyph glyph-name="Wcircumflex" unicode="&#x174;" horiz-adv-x="696" 
d="M348 814q-35 -40 -53 -70h-82q31 73 67 120h135q36 -47 67 -120h-82q-16 27 -52 70zM568 680h108q-45 -424 -111 -654q-5 -15 -11.5 -20.5t-23.5 -5.5h-64q-30 0 -34 24l-84 415l-83 -413q-3 -15 -10 -20.5t-24 -5.5h-66q-27 0 -34 24q-66 226 -111 656h113
q23 -262 69 -509l96 509h103l96 -515q46 236 71 515z" />
    <glyph glyph-name="wcircumflex" unicode="&#x175;" horiz-adv-x="587" 
d="M294 630q-35 -40 -53 -70h-82q31 73 67 120h135q36 -47 67 -120h-82q-16 27 -52 70zM460 486h104q-35 -273 -100 -467q-6 -19 -26 -19h-49q-23 0 -27 19l-68 285l-68 -285q-4 -19 -26 -19h-50q-21 0 -27 19q-61 183 -100 467h108q23 -201 48 -316l69 316h95l69 -316
q25 115 48 316z" />
    <glyph glyph-name="Ycircumflex" unicode="&#x176;" horiz-adv-x="442" 
d="M221 814q-35 -40 -53 -70h-82q31 73 67 120h135q36 -47 67 -120h-82q-16 27 -52 70zM437 680q-59 -177 -159 -412v-268h-114v268q-98 227 -159 412h117q36 -115 101 -282q64 158 102 282h112z" />
    <glyph glyph-name="ycircumflex" unicode="&#x177;" horiz-adv-x="414" 
d="M206 630q-35 -40 -53 -70h-82q31 73 67 120h135q36 -47 67 -120h-82q-16 27 -52 70zM300 486h99q-27 -140 -97.5 -342t-124.5 -304h-106q37 68 83 182q-100 255 -139 464h106q25 -139 84 -331q61 178 95 331z" />
    <glyph glyph-name="Ydieresis" unicode="&#x178;" horiz-adv-x="442" 
d="M142 741q-26 0 -42.5 16.5t-16.5 41.5t17 41.5t42 16.5q26 0 42.5 -16.5t16.5 -41.5q0 -26 -16.5 -42t-42.5 -16zM299 741q-26 0 -42.5 16.5t-16.5 41.5t17 41.5t42 16.5q26 0 42.5 -16.5t16.5 -41.5q0 -26 -16.5 -42t-42.5 -16zM437 680q-59 -177 -159 -412v-268h-114
v268q-98 227 -159 412h117q36 -115 101 -282q64 158 102 282h112z" />
    <glyph glyph-name="Zacute" unicode="&#x179;" horiz-adv-x="401" 
d="M338 864q-45 -54 -89 -120h-91q28 66 67 120h113zM378 680v-88l-230 -490h228v-102h-353v89l231 489h-217v102h341z" />
    <glyph glyph-name="zacute" unicode="&#x17a;" horiz-adv-x="368" 
d="M314 680q-45 -54 -89 -120h-91q28 66 67 120h113zM150 93h192v-93h-316v79l189 314h-178v93h301v-80z" />
    <glyph glyph-name="Zdotaccent" unicode="&#x17b;" horiz-adv-x="401" 
d="M208 738q-26 0 -44 17.5t-18 43.5t18 43.5t44 17.5t44 -17.5t18 -43.5t-18 -43.5t-44 -17.5zM378 680v-88l-230 -490h228v-102h-353v89l231 489h-217v102h341z" />
    <glyph glyph-name="zdotaccent" unicode="&#x17c;" horiz-adv-x="368" 
d="M184 554q-26 0 -44 17.5t-18 43.5t18 43.5t44 17.5t44 -17.5t18 -43.5t-18 -43.5t-44 -17.5zM150 93h192v-93h-316v79l189 314h-178v93h301v-80z" />
    <glyph glyph-name="Zcaron" unicode="&#x17d;" horiz-adv-x="401" 
d="M275 744h-135q-36 47 -67 120h82q18 -30 53 -70q36 43 52 70h82q-31 -73 -67 -120zM378 680v-88l-230 -490h228v-102h-353v89l231 489h-217v102h341z" />
    <glyph glyph-name="zcaron" unicode="&#x17e;" horiz-adv-x="368" 
d="M251 560h-135q-36 47 -67 120h82q18 -30 53 -70q36 43 52 70h82q-31 -73 -67 -120zM150 93h192v-93h-316v79l189 314h-178v93h301v-80z" />
    <glyph glyph-name="Scommaaccent" unicode="&#x218;" horiz-adv-x="399" 
d="M367 503h-108q-7 84 -63 84q-26 0 -41 -17.5t-15 -47.5q0 -53 66 -104l36 -28q76 -59 106 -102t30 -115q0 -87 -47 -134.5t-132 -47.5q-87 0 -132 47.5t-45 129.5v25h107q2 -45 20.5 -72.5t53.5 -27.5q63 0 63 73q0 28 -15 53.5t-30.5 39.5t-49.5 41l-36 28
q-54 42 -80.5 84.5t-26.5 103.5q0 82 45 127.5t124 45.5q83 0 126.5 -44t43.5 -119v-23zM143 -200q14 75 14 151h98q-1 -78 -49 -151h-63z" />
    <glyph glyph-name="scommaaccent" unicode="&#x219;" horiz-adv-x="365" 
d="M183 495q70 0 108 -35t38 -91v-19h-93q-5 59 -55 59q-22 0 -35 -12.5t-13 -35.5q0 -21 13 -34t42 -27l39 -19q60 -29 86 -58t26 -86q0 -66 -41 -106t-114 -40q-74 0 -116 36.5t-42 95.5v19h97q2 -65 61 -65q25 0 39 14t14 38q0 41 -51 64l-44 21q-25 11 -40.5 20
t-33.5 25.5t-27 40t-9 54.5q0 63 39 102t112 39zM118 -200q14 75 14 151h98q-1 -78 -49 -151h-63z" />
    <glyph glyph-name="uni021A" unicode="&#x21a;" horiz-adv-x="412" 
d="M395 680v-102h-132v-578h-114v578h-132v102h378zM145 -200q14 75 14 151h98q-1 -78 -49 -151h-63z" />
    <glyph glyph-name="uni021B" unicode="&#x21b;" horiz-adv-x="275" 
d="M189 -5q-64 0 -89.5 34.5t-25.5 100.5v268h-58v88h58v117h104v-117h73v-88h-73v-250q0 -33 11 -47t40 -14q6 0 22 2v-85q-22 -9 -62 -9zM102 -200q14 75 14 151h98q-1 -78 -49 -151h-63z" />
    <glyph glyph-name="circumflex" unicode="&#x2c6;" horiz-adv-x="333" 
d="M301 560h-82q-16 27 -52 70q-35 -40 -53 -70h-82q31 73 67 120h135q36 -47 67 -120z" />
    <glyph glyph-name="caron" unicode="&#x2c7;" horiz-adv-x="333" 
d="M219 680h82q-31 -73 -67 -120h-135q-36 47 -67 120h82q18 -30 53 -70q36 43 52 70z" />
    <glyph glyph-name="breve" unicode="&#x2d8;" horiz-adv-x="326" 
d="M163 555q58 0 94.5 32t36.5 93h-80q0 -24 -12 -42t-39 -18q-50 0 -50 60h-81q0 -61 36 -93t95 -32z" />
    <glyph glyph-name="dotaccent" unicode="&#x2d9;" horiz-adv-x="188" 
d="M94 554q-26 0 -44 17.5t-18 43.5t18 43.5t44 17.5t44 -17.5t18 -43.5t-18 -43.5t-44 -17.5z" />
    <glyph glyph-name="ring" unicode="&#x2da;" horiz-adv-x="260" 
d="M130 538q-44 0 -71 26t-27 66t27 66t71 26t71 -26t27 -66t-27 -66t-71 -26zM130 584q22 0 34 13.5t12 32.5t-12 32.5t-34 13.5t-34 -13.5t-12 -32.5t12 -32.5t34 -13.5z" />
    <glyph glyph-name="ogonek" unicode="&#x2db;" horiz-adv-x="195" 
d="M125 21l38 -21q-56 -31 -56 -75q0 -34 46 -34h7v-67q-14 -3 -31 -3q-47 0 -72 22t-25 61q0 38 25 69t68 48z" />
    <glyph glyph-name="tilde" unicode="&#x2dc;" horiz-adv-x="353" 
d="M321 680q0 -57 -20.5 -90.5t-57.5 -33.5q-34 0 -69.5 23t-50.5 23q-28 0 -31 -46h-60q0 56 22 90t61 34q31 0 65.5 -23.5t49.5 -23.5q29 0 31 47h60z" />
    <glyph glyph-name="hungarumlaut" unicode="&#x2dd;" horiz-adv-x="374" 
d="M191 680q-37 -44 -78 -120h-81q18 48 56 120h103zM342 680q-24 -30 -89 -120h-81q32 68 67 120h103z" />
    <glyph glyph-name="gravecomb" unicode="&#x300;" horiz-adv-x="0" 
d="M-212 680h113q39 -54 67 -120h-91q-44 66 -89 120z" />
    <glyph glyph-name="acutecomb" unicode="&#x301;" horiz-adv-x="0" 
d="M-32 680q-45 -54 -89 -120h-91q28 66 67 120h113z" />
    <glyph glyph-name="uni0302" unicode="&#x302;" horiz-adv-x="0" 
d="M-32 560h-82q-16 27 -52 70q-35 -40 -53 -70h-82q31 73 67 120h135q36 -47 67 -120z" />
    <glyph glyph-name="tildecomb" unicode="&#x303;" horiz-adv-x="0" 
d="M-32 680q0 -57 -20.5 -90.5t-57.5 -33.5q-34 0 -69.5 23t-50.5 23q-28 0 -31 -46h-60q0 56 22 90t61 34q31 0 65.5 -23.5t49.5 -23.5q29 0 31 47h60z" />
    <glyph glyph-name="uni0304" unicode="&#x304;" horiz-adv-x="0" 
d="M-262 655h230v-80h-230v80z" />
    <glyph glyph-name="uni0306" unicode="&#x306;" horiz-adv-x="0" 
d="M-163 555q58 0 94.5 32t36.5 93h-80q0 -24 -12 -42t-39 -18q-50 0 -50 60h-81q0 -61 36 -93t95 -32z" />
    <glyph glyph-name="uni0307" unicode="&#x307;" horiz-adv-x="0" 
d="M-94 554q-26 0 -44 17.5t-18 43.5t18 43.5t44 17.5t44 -17.5t18 -43.5t-18 -43.5t-44 -17.5z" />
    <glyph glyph-name="uni0308" unicode="&#x308;" horiz-adv-x="0" 
d="M-248 557q-26 0 -42.5 16.5t-16.5 41.5t17 41.5t42 16.5q26 0 42.5 -16.5t16.5 -41.5q0 -26 -16.5 -42t-42.5 -16zM-91 557q-26 0 -42.5 16.5t-16.5 41.5t17 41.5t42 16.5q26 0 42.5 -16.5t16.5 -41.5q0 -26 -16.5 -42t-42.5 -16z" />
    <glyph glyph-name="uni030A" unicode="&#x30a;" horiz-adv-x="0" 
d="M-130 538q-44 0 -71 26t-27 66t27 66t71 26t71 -26t27 -66t-27 -66t-71 -26zM-130 584q22 0 34 13.5t12 32.5t-12 32.5t-34 13.5t-34 -13.5t-12 -32.5t12 -32.5t34 -13.5z" />
    <glyph glyph-name="uni030B" unicode="&#x30b;" horiz-adv-x="0" 
d="M-183 680q-37 -44 -78 -120h-81q18 48 56 120h103zM-32 680q-24 -30 -89 -120h-81q32 68 67 120h103z" />
    <glyph glyph-name="uni030C" unicode="&#x30c;" horiz-adv-x="0" 
d="M-114 680h82q-31 -73 -67 -120h-135q-36 47 -67 120h82q18 -30 53 -70q36 43 52 70z" />
    <glyph glyph-name="uni0312" unicode="&#x312;" horiz-adv-x="0" 
d="M-32 695q-14 -75 -14 -151h-98q1 78 49 151h63z" />
    <glyph glyph-name="uni0326" unicode="&#x326;" horiz-adv-x="0" 
d="M-144 -200q14 75 14 151h98q-1 -78 -49 -151h-63z" />
    <glyph glyph-name="uni0327" unicode="&#x327;" horiz-adv-x="0" 
d="M-116 -37q38 -2 61 -21t23 -53q0 -37 -26.5 -58.5t-70.5 -21.5q-58 0 -94 30l27 45q28 -21 64 -21q37 0 37 27q0 25 -42 25q-18 0 -32 -4l-17 24l35 74h57z" />
    <glyph glyph-name="uni0328" unicode="&#x328;" horiz-adv-x="0" 
d="M-70 21l38 -21q-56 -31 -56 -75q0 -34 46 -34h7v-67q-13 -3 -31 -3q-47 0 -72 22t-25 61q0 38 25 69t68 48z" />
    <glyph glyph-name="uni0335" unicode="&#x335;" horiz-adv-x="0" 
d="M-267 277h235v-86h-235v86z" />
    <glyph glyph-name="uni0336" unicode="&#x336;" horiz-adv-x="0" 
d="M-487 274h455v-80h-455v80z" />
    <glyph glyph-name="uni0337" unicode="&#x337;" horiz-adv-x="0" 
d="M-45 454l-234 -142v90l234 143v-91z" />
    <glyph glyph-name="uni0338" unicode="&#x338;" horiz-adv-x="0" 
d="M-25 665l-348 -678l-62 30l348 677z" />
    <glyph glyph-name="Wgrave" unicode="&#x1e80;" horiz-adv-x="696" 
d="M398 744h-91q-44 66 -89 120h113q39 -54 67 -120zM568 680h108q-45 -424 -111 -654q-5 -15 -11.5 -20.5t-23.5 -5.5h-64q-30 0 -34 24l-84 415l-83 -413q-3 -15 -10 -20.5t-24 -5.5h-66q-27 0 -34 24q-66 226 -111 656h113q23 -262 69 -509l96 509h103l96 -515
q46 236 71 515z" />
    <glyph glyph-name="wgrave" unicode="&#x1e81;" horiz-adv-x="587" 
d="M344 560h-91q-44 66 -89 120h113q39 -54 67 -120zM460 486h104q-35 -273 -100 -467q-6 -19 -26 -19h-49q-23 0 -27 19l-68 285l-68 -285q-4 -19 -26 -19h-50q-21 0 -27 19q-61 183 -100 467h108q23 -201 48 -316l69 316h95l69 -316q25 115 48 316z" />
    <glyph glyph-name="Wacute" unicode="&#x1e82;" horiz-adv-x="696" 
d="M478 864q-45 -54 -89 -120h-91q28 66 67 120h113zM568 680h108q-45 -424 -111 -654q-5 -15 -11.5 -20.5t-23.5 -5.5h-64q-30 0 -34 24l-84 415l-83 -413q-3 -15 -10 -20.5t-24 -5.5h-66q-27 0 -34 24q-66 226 -111 656h113q23 -262 69 -509l96 509h103l96 -515
q46 236 71 515z" />
    <glyph glyph-name="wacute" unicode="&#x1e83;" horiz-adv-x="587" 
d="M424 680q-45 -54 -89 -120h-91q28 66 67 120h113zM460 486h104q-35 -273 -100 -467q-6 -19 -26 -19h-49q-23 0 -27 19l-68 285l-68 -285q-4 -19 -26 -19h-50q-21 0 -27 19q-61 183 -100 467h108q23 -201 48 -316l69 316h95l69 -316q25 115 48 316z" />
    <glyph glyph-name="Wdieresis" unicode="&#x1e84;" horiz-adv-x="696" 
d="M269 741q-26 0 -42.5 16.5t-16.5 41.5t17 41.5t42 16.5q26 0 42.5 -16.5t16.5 -41.5q0 -26 -16.5 -42t-42.5 -16zM426 741q-26 0 -42.5 16.5t-16.5 41.5t17 41.5t42 16.5q26 0 42.5 -16.5t16.5 -41.5q0 -26 -16.5 -42t-42.5 -16zM568 680h108q-45 -424 -111 -654
q-5 -15 -11.5 -20.5t-23.5 -5.5h-64q-30 0 -34 24l-84 415l-83 -413q-3 -15 -10 -20.5t-24 -5.5h-66q-27 0 -34 24q-66 226 -111 656h113q23 -262 69 -509l96 509h103l96 -515q46 236 71 515z" />
    <glyph glyph-name="wdieresis" unicode="&#x1e85;" horiz-adv-x="587" 
d="M215 557q-26 0 -42.5 16.5t-16.5 41.5t17 41.5t42 16.5q26 0 42.5 -16.5t16.5 -41.5q0 -26 -16.5 -42t-42.5 -16zM372 557q-26 0 -42.5 16.5t-16.5 41.5t17 41.5t42 16.5q26 0 42.5 -16.5t16.5 -41.5q0 -26 -16.5 -42t-42.5 -16zM460 486h104q-35 -273 -100 -467
q-6 -19 -26 -19h-49q-23 0 -27 19l-68 285l-68 -285q-4 -19 -26 -19h-50q-21 0 -27 19q-61 183 -100 467h108q23 -201 48 -316l69 316h95l69 -316q25 115 48 316z" />
    <glyph glyph-name="Ygrave" unicode="&#x1ef2;" horiz-adv-x="442" 
d="M271 744h-91q-44 66 -89 120h113q39 -54 67 -120zM437 680q-59 -177 -159 -412v-268h-114v268q-98 227 -159 412h117q36 -115 101 -282q64 158 102 282h112z" />
    <glyph glyph-name="ygrave" unicode="&#x1ef3;" horiz-adv-x="414" 
d="M256 560h-91q-44 66 -89 120h113q39 -54 67 -120zM300 486h99q-27 -140 -97.5 -342t-124.5 -304h-106q37 68 83 182q-100 255 -139 464h106q25 -139 84 -331q61 178 95 331z" />
    <glyph glyph-name="endash" unicode="&#x2013;" horiz-adv-x="526" 
d="M45 340h436v-92h-436v92z" />
    <glyph glyph-name="emdash" unicode="&#x2014;" horiz-adv-x="758" 
d="M45 340h668v-92h-668v92z" />
    <glyph glyph-name="quoteleft" unicode="&#x2018;" horiz-adv-x="188" 
d="M32 449v37q0 95 68 194h56q-19 -100 -19 -201v-30h-105z" />
    <glyph glyph-name="quoteright" unicode="&#x2019;" horiz-adv-x="188" 
d="M156 680v-37q0 -95 -68 -194h-56q19 100 19 201v30h105z" />
    <glyph glyph-name="quotesinglbase" unicode="&#x201a;" horiz-adv-x="188" 
d="M156 117v-37q0 -95 -68 -194h-56q19 100 19 201v30h105z" />
    <glyph glyph-name="quotedblleft" unicode="&#x201c;" horiz-adv-x="343" 
d="M32 449v37q0 95 68 194h56q-19 -100 -19 -201v-30h-105zM187 449v37q0 95 68 194h56q-19 -100 -19 -201v-30h-105z" />
    <glyph glyph-name="quotedblright" unicode="&#x201d;" horiz-adv-x="343" 
d="M156 680v-37q0 -95 -68 -194h-56q19 100 19 201v30h105zM311 680v-37q0 -95 -68 -194h-56q19 100 19 201v30h105z" />
    <glyph glyph-name="quotedblbase" unicode="&#x201e;" horiz-adv-x="343" 
d="M156 117v-37q0 -95 -68 -194h-56q19 100 19 201v30h105zM311 117v-37q0 -95 -68 -194h-56q19 100 19 201v30h105z" />
    <glyph glyph-name="dagger" unicode="&#x2020;" horiz-adv-x="466" 
d="M416 486v-95h-131v-486h-106v486h-129v95h129v194h106v-194h131z" />
    <glyph glyph-name="daggerdbl" unicode="&#x2021;" horiz-adv-x="466" 
d="M416 391h-131v-159h131v-95h-131v-232h-106v232h-129v95h129v159h-129v95h129v194h106v-194h131v-95z" />
    <glyph glyph-name="bullet" unicode="&#x2022;" horiz-adv-x="340" 
d="M170 197q-55 0 -92.5 37.5t-37.5 92.5t37.5 92.5t92.5 37.5t92.5 -37.5t37.5 -92.5t-37.5 -92.5t-92.5 -37.5z" />
    <glyph glyph-name="ellipsis" unicode="&#x2026;" horiz-adv-x="590" 
d="M99 -6q-27 0 -47 19.5t-20 47.5t20 47.5t47 19.5t47 -19.5t20 -47.5t-20 -47.5t-47 -19.5zM295 -6q-27 0 -47 19.5t-20 47.5t20 47.5t47 19.5t47 -19.5t20 -47.5t-20 -47.5t-47 -19.5zM491 -6q-27 0 -47 19.5t-20 47.5t20 47.5t47 19.5t47 -19.5t20 -47.5t-20 -47.5
t-47 -19.5z" />
    <glyph glyph-name="perthousand" unicode="&#x2030;" horiz-adv-x="1038" 
d="M174 341q-62 0 -99 43.5t-37 130.5t37 130.5t99 43.5t99 -43.5t37 -130.5t-37 -130.5t-99 -43.5zM599 680l-393 -680h-85l393 680h85zM174 411q51 0 51 104t-51 104t-51 -104t51 -104zM546 -10q-62 0 -99 43.5t-37 130.5t37 130.5t99 43.5t99 -43.5t37 -130.5t-37 -130.5
t-99 -43.5zM864 -10q-62 0 -99 43.5t-37 130.5t37 130.5t99 43.5t99 -43.5t37 -130.5t-37 -130.5t-99 -43.5zM546 60q51 0 51 104t-51 104t-51 -104t51 -104zM864 60q51 0 51 104t-51 104t-51 -104t51 -104z" />
    <glyph glyph-name="guilsinglleft" unicode="&#x2039;" horiz-adv-x="342" 
d="M292 435l-138 -193l138 -194h-106l-136 194l136 193h106z" />
    <glyph glyph-name="guilsinglright" unicode="&#x203a;" horiz-adv-x="342" 
d="M50 435h106l136 -193l-136 -194h-106l138 194z" />
    <glyph glyph-name="fraction" unicode="&#x2044;" horiz-adv-x="251" 
d="M365 680l-393 -680h-85l393 680h85z" />
    <glyph glyph-name="Euro" unicode="&#x20ac;" 
d="M248 590q-36 0 -52.5 -34t-20.5 -113h140v-68h-141v-63h141v-68h-140q3 -83 19.5 -118.5t53.5 -35.5q32 0 45.5 22t17.5 65h98v-17q0 -71 -39 -119.5t-119 -48.5q-86 0 -133 55t-53 197h-47v68h46v63h-46v68h47q8 138 55 191.5t131 53.5q80 0 119 -48.5t39 -118.5v-18
h-98q-5 43 -18.5 65t-44.5 22z" />
    <glyph glyph-name="trademark" unicode="&#x2122;" horiz-adv-x="607" 
d="M32 620v60h206v-60h-70v-236h-66v236h-70zM485 680h77v-296h-62v189q-25 -63 -60 -132q-6 -11 -16 -11h-11q-9 0 -15 11q-36 70 -61 132v-189h-62v296h74q46 -115 71 -163q25 54 65 163z" />
    <glyph glyph-name="minus" unicode="&#x2212;" 
d="M30 367h360v-86h-360v86z" />
    <glyph glyph-name="approxequal" unicode="&#x2248;" 
d="M290 333q-34 0 -81 24.5t-75 24.5q-35 0 -71 -39l-33 57q26 33 48 45.5t52 12.5q36 0 84 -23.5t74 -23.5q34 0 69 37l33 -57q-27 -33 -49 -45.5t-51 -12.5zM290 191q-34 0 -81 23.5t-75 23.5q-37 0 -71 -37l-33 57q26 33 48 45.5t52 12.5q36 0 84 -23.5t74 -23.5
q34 0 69 37l33 -57q-27 -33 -49 -45.5t-51 -12.5z" />
    <glyph glyph-name="notequal" unicode="&#x2260;" 
d="M390 361h-123l-31 -74h154v-86h-189l-41 -98h-85l40 98h-85v86h121l30 74h-151v86h187l42 102h86l-42 -102h87v-86z" />
    <glyph glyph-name="lessequal" unicode="&#x2264;" 
d="M390 497v-90l-245 -83l245 -83v-90l-360 130v86zM30 117h360v-86h-360v86z" />
    <glyph glyph-name="greaterequal" unicode="&#x2265;" 
d="M30 497l360 -130v-86l-360 -130v90l245 83l-245 83v90zM390 117v-86h-360v86h360z" />
    <glyph glyph-name="i.loclTRK" horiz-adv-x="202" 
d="M101 554q-26 0 -44 17.5t-18 43.5t18 43.5t44 17.5t44 -17.5t18 -43.5t-18 -43.5t-44 -17.5zM153 486v-486h-104v486h104z" />
    <glyph glyph-name="one.pnum" horiz-adv-x="350" 
d="M179 680h81v-680h-110v517q-44 -36 -109 -64v101q87 66 138 126z" />
    <glyph glyph-name="two.dnom" horiz-adv-x="344" 
d="M153 72h151v-72h-263v65q11 11 48 44t60.5 56.5t44.5 59.5t21 69q0 52 -44 52q-47 0 -50 -68h-82q1 69 35 106t98 37q62 0 94 -33.5t32 -87.5q0 -47 -26.5 -94.5t-52 -73.5t-66.5 -60z" />
    <glyph glyph-name="four.dnom" horiz-adv-x="352" 
d="M330 149v-73h-41v-76h-81v76h-183v49q0 24 8 44q55 136 121 245h91q-83 -136 -135 -265h98v98h81v-98h41z" />
    <glyph glyph-name="one.numr" horiz-adv-x="298" 
d="M146 680h61v-414h-82v292q-22 -18 -83 -48v75q63 46 104 95z" />
    <glyph glyph-name="two.numr" horiz-adv-x="344" 
d="M153 340h151v-72h-263v65q11 11 48 44t60.5 56.5t44.5 59.5t21 69q0 52 -44 52q-47 0 -50 -68h-82q1 69 35 106t98 37q62 0 94 -33.5t32 -87.5q0 -47 -26.5 -94.5t-52 -73.5t-66.5 -60z" />
    <glyph glyph-name="three.numr" horiz-adv-x="325" 
d="M241 484q57 -28 57 -97q0 -59 -34 -93.5t-100 -34.5q-62 0 -96.5 32t-34.5 89h80q6 -48 52 -48q50 0 50 58q0 59 -70 59v61q66 0 66 59q0 51 -47 51q-43 0 -49 -50h-76q0 54 33.5 86.5t90.5 32.5q62 0 94.5 -31.5t32.5 -82.5q0 -67 -49 -91z" />
    <glyph glyph-name="caroncomb.alt" horiz-adv-x="0" 
d="M-32 700q-3 -105 -55 -181h-49q19 95 19 181h85z" />
    <glyph glyph-name="commaccentcomb.alt" horiz-adv-x="176" 
d="M144 730q-14 -75 -14 -151h-98q1 78 49 151h63z" />
    </font>
</defs>
</svg>
