<?xml version="1.0" encoding="UTF-8"?>
<svg xmlns="http://www.w3.org/2000/svg" xmlns:xlink="http://www.w3.org/1999/xlink" version="1.2" >
<font id="AIAEverestExtraBold">
<font-face  font-family="AIA Everest" units-per-em="1000" ascent="750" descent="-250" font-style="normal" font-weight="800" font-stretch="normal" cap-height="680" x-height="496" underline-position="-70" underline-thickness="120" />
<missing-glyph  horiz-adv-x="579" d="M100 780 L479 780 L479 -100 L100 -100 L100 780 Z " />
<glyph glyph-name="space" unicode="&#x20;" horiz-adv-x="230" d="" />
<glyph glyph-name="A" unicode="A" horiz-adv-x="659" d="M449 125 L208 125 L175 0 L10 0 Q54 162 115.5 352.5 Q177 543 225 659 Q230 671 237 675.5 Q244 680 261 680 L399 680 Q416 680 423.5 675.5 Q431 671 436 659 Q484 549 541.5 366.5 Q599 184 649 0 L482 0 L449 125 Z M407 275 Q360 438 330 525 Q299 435 251 275 L407 275 Z " />
<glyph glyph-name="Aacute" unicode="&#xc1;" horiz-adv-x="659" d="M449 125 L208 125 L175 0 L10 0 Q54 162 115.5 352.5 Q177 543 225 659 Q230 671 237 675.5 Q244 680 261 680 L399 680 Q416 680 423.5 675.5 Q431 671 436 659 Q484 549 541.5 366.5 Q599 184 649 0 L482 0 L449 125 Z M407 275 Q360 438 330 525 Q299 435 251 275 L407 275 Z M391 734 L261 734 Q289 804 328 859 L485 859 Q442 809 391 734 Z " />
<glyph glyph-name="Abreve" unicode="&#x102;" horiz-adv-x="659" d="M449 125 L208 125 L175 0 L10 0 Q54 162 115.5 352.5 Q177 543 225 659 Q230 671 237 675.5 Q244 680 261 680 L399 680 Q416 680 423.5 675.5 Q431 671 436 659 Q484 549 541.5 366.5 Q599 184 649 0 L482 0 L449 125 Z M407 275 Q360 438 330 525 Q299 435 251 275 L407 275 Z M488 854 Q488 790 445 756 Q402 722 334 722 Q266 722 223 756 Q180 790 180 854 L281 854 Q281 833 294 817.5 Q307 802 334 802 Q361 802 374.5 818 Q388 834 388 854 L488 854 L488 854 Z " />
<glyph glyph-name="Acircumflex" unicode="&#xc2;" horiz-adv-x="659" d="M449 125 L208 125 L175 0 L10 0 Q54 162 115.5 352.5 Q177 543 225 659 Q230 671 237 675.5 Q244 680 261 680 L399 680 Q416 680 423.5 675.5 Q431 671 436 659 Q484 549 541.5 366.5 Q599 184 649 0 L482 0 L449 125 Z M407 275 Q360 438 330 525 Q299 435 251 275 L407 275 Z M386 734 Q370 760 333 802 Q297 763 279 734 L158 734 Q184 792 235 854 L430 854 Q481 792 507 734 L386 734 Z " />
<glyph glyph-name="Adieresis" unicode="&#xc4;" horiz-adv-x="659" d="M449 125 L208 125 L175 0 L10 0 Q54 162 115.5 352.5 Q177 543 225 659 Q230 671 237 675.5 Q244 680 261 680 L399 680 Q416 680 423.5 675.5 Q431 671 436 659 Q484 549 541.5 366.5 Q599 184 649 0 L482 0 L449 125 Z M407 275 Q360 438 330 525 Q299 435 251 275 L407 275 Z M156 802 Q156 835 179 857 Q202 879 235 879 Q270 879 292.5 857.5 Q315 836 315 802 Q315 768 292.5 746.5 Q270 725 235 725 Q202 725 179 747 Q156 769 156 802 Z M351 802 Q351 835 374 857 Q397 879 430 879 Q465 879 487.5 857.5 Q510 836 510 802 Q510 768 487.5 746.5 Q465 725 430 725 Q397 725 374 747 Q351 769 351 802 Z " />
<glyph glyph-name="Agrave" unicode="&#xc0;" horiz-adv-x="659" d="M449 125 L208 125 L175 0 L10 0 Q54 162 115.5 352.5 Q177 543 225 659 Q230 671 237 675.5 Q244 680 261 680 L399 680 Q416 680 423.5 675.5 Q431 671 436 659 Q484 549 541.5 366.5 Q599 184 649 0 L482 0 L449 125 Z M407 275 Q360 438 330 525 Q299 435 251 275 L407 275 Z M331 859 Q370 804 398 734 L277 734 Q224 806 174 859 L331 859 Z " />
<glyph glyph-name="Amacron" unicode="&#x100;" horiz-adv-x="659" d="M449 125 L208 125 L175 0 L10 0 Q54 162 115.5 352.5 Q177 543 225 659 Q230 671 237 675.5 Q244 680 261 680 L399 680 Q416 680 423.5 675.5 Q431 671 436 659 Q484 549 541.5 366.5 Q599 184 649 0 L482 0 L449 125 Z M407 275 Q360 438 330 525 Q299 435 251 275 L407 275 Z M478 842 L478 736 L188 736 L188 842 L478 842 Z " />
<glyph glyph-name="Aogonek" unicode="&#x104;" horiz-adv-x="659" d="M640 -89 L646 -89 L646 -186 Q633 -189 608 -189 Q550 -189 517 -164.5 Q484 -140 484 -95 Q484 -39 538 0 L482 0 L449 125 L208 125 L175 0 L10 0 Q54 162 115.5 352.5 Q177 543 225 659 Q230 671 237 675.5 Q244 680 261 680 L399 680 Q416 680 423.5 675.5 Q431 671 436 659 Q484 549 541.5 366.5 Q599 184 649 0 Q598 -25 598 -58 Q598 -72 608 -80.5 Q618 -89 640 -89 Z M407 275 Q360 438 330 525 Q299 435 251 275 L407 275 Z " />
<glyph glyph-name="Aring" unicode="&#xc5;" horiz-adv-x="659" d="M449 125 L208 125 L175 0 L10 0 Q54 162 115.5 352.5 Q177 543 225 659 Q230 671 237 675.5 Q244 680 261 680 L399 680 Q416 680 423.5 675.5 Q431 671 436 659 Q484 549 541.5 366.5 Q599 184 649 0 L482 0 L449 125 Z M407 275 Q360 438 330 525 Q299 435 251 275 L407 275 Z M209 820 Q209 869 243 901 Q277 933 333 933 Q389 933 423 901 Q457 869 457 820 Q457 771 422.5 739 Q388 707 333 707 Q277 707 243 739 Q209 771 209 820 Z M386 820 Q386 842 372 857 Q358 872 333 872 Q308 872 294 857 Q280 842 280 820 Q280 798 294 783 Q308 768 333 768 Q358 768 372 783 Q386 798 386 820 Z " />
<glyph glyph-name="Atilde" unicode="&#xc3;" horiz-adv-x="659" d="M449 125 L208 125 L175 0 L10 0 Q54 162 115.5 352.5 Q177 543 225 659 Q230 671 237 675.5 Q244 680 261 680 L399 680 Q416 680 423.5 675.5 Q431 671 436 659 Q484 549 541.5 366.5 Q599 184 649 0 L482 0 L449 125 Z M407 275 Q360 438 330 525 Q299 435 251 275 L407 275 Z M402 728 Q379 728 361 733.5 Q343 739 321 749 Q305 757 294 760.5 Q283 764 272 764 Q257 764 248.5 755.5 Q240 747 239 728 L166 728 Q168 786 195 821 Q222 856 268 856 Q287 856 303 850.5 Q319 845 341 835 Q354 829 367.5 824 Q381 819 393 819 Q424 819 426 856 L499 856 Q497 796 472 762 Q447 728 402 728 Z " />
<glyph glyph-name="AE" unicode="&#xc6;" horiz-adv-x="894" d="M850 154 L850 0 L370 0 L370 125 L214 125 Q185 34 175 0 L10 0 Q36 109 119.5 326.5 Q203 544 262 658 Q269 671 275 675.5 Q281 680 298 680 L841 680 L841 526 L540 526 L540 423 L818 423 L818 269 L540 269 L540 154 L850 154 Z M370 275 L370 547 Q322 432 266 275 L370 275 Z " />
<glyph glyph-name="B" unicode="B" horiz-adv-x="630" d="M604 199 Q604 105 541 52.5 Q478 0 367 0 L58 0 L58 680 L368 680 Q463 680 521 632 Q579 584 579 503 Q579 451 556 415.5 Q533 380 497 363 Q545 344 574.5 302 Q604 260 604 199 Z M228 415 L331 415 Q370 415 392 433.5 Q414 452 414 485 Q414 517 391.5 533 Q369 549 331 549 L228 549 L228 415 Z M438 209 Q438 248 410 267.5 Q382 287 332 287 L228 287 L228 131 L333 131 Q386 131 412 149.5 Q438 168 438 209 Z " />
<glyph glyph-name="C" unicode="C" horiz-adv-x="615" d="M34 323 L34 357 Q34 530 112.5 611.5 Q191 693 317 693 Q396 693 453.5 665.5 Q511 638 543.5 590 Q576 542 582 481 L584 461 L411 461 Q388 539 316 539 Q255 539 229.5 486.5 Q204 434 204 354 L204 326 Q204 246 229.5 193.5 Q255 141 316 141 Q356 141 378.5 164.5 Q401 188 412 231 L586 231 L584 211 Q574 109 505 48 Q436 -13 317 -13 Q191 -13 112.5 68.5 Q34 150 34 323 Z " />
<glyph glyph-name="Cacute" unicode="&#x106;" horiz-adv-x="615" d="M34 323 L34 357 Q34 530 112.5 611.5 Q191 693 317 693 Q396 693 453.5 665.5 Q511 638 543.5 590 Q576 542 582 481 L584 461 L411 461 Q388 539 316 539 Q255 539 229.5 486.5 Q204 434 204 354 L204 326 Q204 246 229.5 193.5 Q255 141 316 141 Q356 141 378.5 164.5 Q401 188 412 231 L586 231 L584 211 Q574 109 505 48 Q436 -13 317 -13 Q191 -13 112.5 68.5 Q34 150 34 323 Z M380 734 L250 734 Q278 804 317 859 L474 859 Q431 809 380 734 Z " />
<glyph glyph-name="Ccaron" unicode="&#x10c;" horiz-adv-x="615" d="M34 323 L34 357 Q34 530 112.5 611.5 Q191 693 317 693 Q396 693 453.5 665.5 Q511 638 543.5 590 Q576 542 582 481 L584 461 L411 461 Q388 539 316 539 Q255 539 229.5 486.5 Q204 434 204 354 L204 326 Q204 246 229.5 193.5 Q255 141 316 141 Q356 141 378.5 164.5 Q401 188 412 231 L586 231 L584 211 Q574 109 505 48 Q436 -13 317 -13 Q191 -13 112.5 68.5 Q34 150 34 323 Z M496 854 Q470 796 419 734 L224 734 Q173 796 147 854 L268 854 Q286 825 322 786 Q359 828 375 854 L496 854 Z " />
<glyph glyph-name="Ccedilla" unicode="&#xc7;" horiz-adv-x="615" d="M586 231 L584 211 Q575 115 513 55 Q451 -5 345 -12 L332 -37 Q371 -43 395 -65 Q419 -87 419 -123 Q419 -168 387.5 -192 Q356 -216 306 -216 Q275 -216 246.5 -206.5 Q218 -197 200 -180 L235 -124 Q265 -146 300 -146 Q318 -146 329 -139.5 Q340 -133 340 -120 Q340 -107 327.5 -101 Q315 -95 297 -95 Q282 -95 262 -100 L242 -75 L274 -10 Q165 3 99.5 84 Q34 165 34 323 L34 357 Q34 530 112.5 611.5 Q191 693 317 693 Q396 693 453.5 665.5 Q511 638 543.5 590 Q576 542 582 481 L584 461 L411 461 Q388 539 316 539 Q255 539 229.5 486.5 Q204 434 204 354 L204 326 Q204 246 229.5 193.5 Q255 141 316 141 Q356 141 378.5 164.5 Q401 188 412 231 L586 231 Z " />
<glyph glyph-name="Cdotaccent" unicode="&#x10a;" horiz-adv-x="615" d="M34 323 L34 357 Q34 530 112.5 611.5 Q191 693 317 693 Q396 693 453.5 665.5 Q511 638 543.5 590 Q576 542 582 481 L584 461 L411 461 Q388 539 316 539 Q255 539 229.5 486.5 Q204 434 204 354 L204 326 Q204 246 229.5 193.5 Q255 141 316 141 Q356 141 378.5 164.5 Q401 188 412 231 L586 231 L584 211 Q574 109 505 48 Q436 -13 317 -13 Q191 -13 112.5 68.5 Q34 150 34 323 Z M236 802 Q236 838 261 860.5 Q286 883 322 883 Q358 883 383 860.5 Q408 838 408 802 Q408 766 383 743.5 Q358 721 322 721 Q286 721 261 743.5 Q236 766 236 802 Z " />
<glyph glyph-name="D" unicode="D" horiz-adv-x="625" d="M58 680 L274 680 Q412 680 501.5 604.5 Q591 529 591 355 L591 325 Q591 152 501.5 76 Q412 0 274 0 L58 0 L58 680 Z M283 154 Q348 154 384.5 198 Q421 242 421 328 L421 352 Q421 438 384.5 482 Q348 526 283 526 L228 526 L228 154 L283 154 Z " />
<glyph glyph-name="Eth" unicode="&#xd0;" horiz-adv-x="637" d="M603 355 L603 325 Q603 152 513.5 76 Q424 0 286 0 L70 0 L70 291 L11 291 L11 393 L70 393 L70 680 L286 680 Q424 680 513.5 604.5 Q603 529 603 355 Z M433 352 Q433 438 396 482 Q359 526 292 526 L240 526 L240 393 L336 393 L336 291 L240 291 L240 154 L292 154 Q359 154 396 198 Q433 242 433 328 L433 352 Z " />
<glyph glyph-name="Dcaron" unicode="&#x10e;" horiz-adv-x="625" d="M58 680 L274 680 Q412 680 501.5 604.5 Q591 529 591 355 L591 325 Q591 152 501.5 76 Q412 0 274 0 L58 0 L58 680 Z M283 154 Q348 154 384.5 198 Q421 242 421 328 L421 352 Q421 438 384.5 482 Q348 526 283 526 L228 526 L228 154 L283 154 Z M467 854 Q441 796 390 734 L195 734 Q144 796 118 854 L239 854 Q257 825 293 786 Q330 828 346 854 L467 854 Z " />
<glyph glyph-name="Dcroat" unicode="&#x110;" horiz-adv-x="637" d="M603 355 L603 325 Q603 152 513.5 76 Q424 0 286 0 L70 0 L70 291 L11 291 L11 393 L70 393 L70 680 L286 680 Q424 680 513.5 604.5 Q603 529 603 355 Z M433 352 Q433 438 396 482 Q359 526 292 526 L240 526 L240 393 L336 393 L336 291 L240 291 L240 154 L292 154 Q359 154 396 198 Q433 242 433 328 L433 352 Z " />
<glyph glyph-name="E" unicode="E" horiz-adv-x="582" d="M538 154 L538 0 L58 0 L58 680 L529 680 L529 526 L228 526 L228 423 L506 423 L506 269 L228 269 L228 154 L538 154 Z " />
<glyph glyph-name="Eacute" unicode="&#xc9;" horiz-adv-x="582" d="M538 154 L538 0 L58 0 L58 680 L529 680 L529 526 L228 526 L228 423 L506 423 L506 269 L228 269 L228 154 L538 154 Z M357 734 L227 734 Q255 804 294 859 L451 859 Q408 809 357 734 Z " />
<glyph glyph-name="Ecaron" unicode="&#x11a;" horiz-adv-x="582" d="M538 154 L538 0 L58 0 L58 680 L529 680 L529 526 L228 526 L228 423 L506 423 L506 269 L228 269 L228 154 L538 154 Z M473 854 Q447 796 396 734 L201 734 Q150 796 124 854 L245 854 Q263 825 299 786 Q336 828 352 854 L473 854 Z " />
<glyph glyph-name="Ecircumflex" unicode="&#xca;" horiz-adv-x="582" d="M538 154 L538 0 L58 0 L58 680 L529 680 L529 526 L228 526 L228 423 L506 423 L506 269 L228 269 L228 154 L538 154 Z M352 734 Q336 760 299 802 Q263 763 245 734 L124 734 Q150 792 201 854 L396 854 Q447 792 473 734 L352 734 Z " />
<glyph glyph-name="Edieresis" unicode="&#xcb;" horiz-adv-x="582" d="M538 154 L538 0 L58 0 L58 680 L529 680 L529 526 L228 526 L228 423 L506 423 L506 269 L228 269 L228 154 L538 154 Z M122 802 Q122 835 145 857 Q168 879 201 879 Q236 879 258.5 857.5 Q281 836 281 802 Q281 768 258.5 746.5 Q236 725 201 725 Q168 725 145 747 Q122 769 122 802 Z M317 802 Q317 835 340 857 Q363 879 396 879 Q431 879 453.5 857.5 Q476 836 476 802 Q476 768 453.5 746.5 Q431 725 396 725 Q363 725 340 747 Q317 769 317 802 Z " />
<glyph glyph-name="Edotaccent" unicode="&#x116;" horiz-adv-x="582" d="M538 154 L538 0 L58 0 L58 680 L529 680 L529 526 L228 526 L228 423 L506 423 L506 269 L228 269 L228 154 L538 154 Z M213 802 Q213 838 238 860.5 Q263 883 299 883 Q335 883 360 860.5 Q385 838 385 802 Q385 766 360 743.5 Q335 721 299 721 Q263 721 238 743.5 Q213 766 213 802 Z " />
<glyph glyph-name="Egrave" unicode="&#xc8;" horiz-adv-x="582" d="M538 154 L538 0 L58 0 L58 680 L529 680 L529 526 L228 526 L228 423 L506 423 L506 269 L228 269 L228 154 L538 154 Z M297 859 Q336 804 364 734 L243 734 Q190 806 140 859 L297 859 Z " />
<glyph glyph-name="Emacron" unicode="&#x112;" horiz-adv-x="582" d="M538 154 L538 0 L58 0 L58 680 L529 680 L529 526 L228 526 L228 423 L506 423 L506 269 L228 269 L228 154 L538 154 Z M444 842 L444 736 L154 736 L154 842 L444 842 Z " />
<glyph glyph-name="Eogonek" unicode="&#x118;" horiz-adv-x="582" d="M487 -58 Q487 -72 497 -80.5 Q507 -89 529 -89 L535 -89 L535 -186 Q522 -189 497 -189 Q439 -189 406 -164.5 Q373 -140 373 -95 Q373 -39 427 0 L58 0 L58 680 L529 680 L529 526 L228 526 L228 423 L506 423 L506 269 L228 269 L228 154 L538 154 L538 0 Q487 -25 487 -58 Z " />
<glyph glyph-name="F" unicode="F" horiz-adv-x="573" d="M228 526 L228 423 L506 423 L506 269 L228 269 L228 0 L58 0 L58 680 L529 680 L529 526 L228 526 Z " />
<glyph glyph-name="G" unicode="G" horiz-adv-x="643" d="M34 323 L34 357 Q34 474 73 549.5 Q112 625 178 659 Q244 693 326 693 Q408 693 468 664 Q528 635 562 587.5 Q596 540 603 484 L605 468 L427 468 Q407 538 329 538 Q261 538 232.5 486.5 Q204 435 204 354 L204 326 Q204 246 232.5 194 Q261 142 328 142 Q382 142 409.5 170 Q437 198 437 239 L437 246 L326 246 L326 398 L607 398 L607 288 Q607 132 530.5 59.5 Q454 -13 327 -13 Q245 -13 179 21 Q113 55 73.5 130.5 Q34 206 34 323 Z " />
<glyph glyph-name="Gbreve" unicode="&#x11e;" horiz-adv-x="643" d="M34 323 L34 357 Q34 474 73 549.5 Q112 625 178 659 Q244 693 326 693 Q408 693 468 664 Q528 635 562 587.5 Q596 540 603 484 L605 468 L427 468 Q407 538 329 538 Q261 538 232.5 486.5 Q204 435 204 354 L204 326 Q204 246 232.5 194 Q261 142 328 142 Q382 142 409.5 170 Q437 198 437 239 L437 246 L326 246 L326 398 L607 398 L607 288 Q607 132 530.5 59.5 Q454 -13 327 -13 Q245 -13 179 21 Q113 55 73.5 130.5 Q34 206 34 323 Z M483 854 Q483 790 440 756 Q397 722 329 722 Q261 722 218 756 Q175 790 175 854 L276 854 Q276 833 289 817.5 Q302 802 329 802 Q356 802 369.5 818 Q383 834 383 854 L483 854 L483 854 Z " />
<glyph glyph-name="Gcommaaccent" unicode="&#x122;" horiz-adv-x="643" d="M34 323 L34 357 Q34 474 73 549.5 Q112 625 178 659 Q244 693 326 693 Q408 693 468 664 Q528 635 562 587.5 Q596 540 603 484 L605 468 L427 468 Q407 538 329 538 Q261 538 232.5 486.5 Q204 435 204 354 L204 326 Q204 246 232.5 194 Q261 142 328 142 Q382 142 409.5 170 Q437 198 437 239 L437 246 L326 246 L326 398 L607 398 L607 288 Q607 132 530.5 59.5 Q454 -13 327 -13 Q245 -13 179 21 Q113 55 73.5 130.5 Q34 206 34 323 Z M262 -49 L394 -49 Q393 -127 345 -200 L248 -200 Q262 -125 262 -49 Z " />
<glyph glyph-name="Gdotaccent" unicode="&#x120;" horiz-adv-x="643" d="M34 323 L34 357 Q34 474 73 549.5 Q112 625 178 659 Q244 693 326 693 Q408 693 468 664 Q528 635 562 587.5 Q596 540 603 484 L605 468 L427 468 Q407 538 329 538 Q261 538 232.5 486.5 Q204 435 204 354 L204 326 Q204 246 232.5 194 Q261 142 328 142 Q382 142 409.5 170 Q437 198 437 239 L437 246 L326 246 L326 398 L607 398 L607 288 Q607 132 530.5 59.5 Q454 -13 327 -13 Q245 -13 179 21 Q113 55 73.5 130.5 Q34 206 34 323 Z M242 802 Q242 838 267 860.5 Q292 883 328 883 Q364 883 389 860.5 Q414 838 414 802 Q414 766 389 743.5 Q364 721 328 721 Q292 721 267 743.5 Q242 766 242 802 Z " />
<glyph glyph-name="H" unicode="H" horiz-adv-x="679" d="M621 680 L621 0 L451 0 L451 269 L228 269 L228 0 L58 0 L58 680 L228 680 L228 423 L451 423 L451 680 L621 680 Z " />
<glyph glyph-name="Hbar" unicode="&#x126;" horiz-adv-x="679" d="M667 492 L621 492 L621 0 L451 0 L451 269 L228 269 L228 0 L58 0 L58 492 L12 492 L12 590 L58 590 L58 680 L228 680 L228 590 L451 590 L451 680 L621 680 L621 590 L667 590 L667 492 Z M451 492 L228 492 L228 423 L451 423 L451 492 Z " />
<glyph glyph-name="I" unicode="I" horiz-adv-x="294" d="M232 0 L62 0 L62 680 L232 680 L232 0 Z " />
<glyph glyph-name="Iacute" unicode="&#xcd;" horiz-adv-x="294" d="M232 0 L62 0 L62 680 L232 680 L232 0 Z M205 734 L75 734 Q103 804 142 859 L299 859 Q256 809 205 734 Z " />
<glyph glyph-name="Icircumflex" unicode="&#xce;" horiz-adv-x="294" d="M232 0 L62 0 L62 680 L232 680 L232 0 Z M200 734 Q184 760 147 802 Q111 763 93 734 L-28 734 Q-2 792 49 854 L244 854 Q295 792 321 734 L200 734 Z " />
<glyph glyph-name="Idieresis" unicode="&#xcf;" horiz-adv-x="294" d="M232 0 L62 0 L62 680 L232 680 L232 0 Z M-30 802 Q-30 835 -7 857 Q16 879 49 879 Q84 879 106.5 857.5 Q129 836 129 802 Q129 768 106.5 746.5 Q84 725 49 725 Q16 725 -7 747 Q-30 769 -30 802 Z M165 802 Q165 835 188 857 Q211 879 244 879 Q279 879 301.5 857.5 Q324 836 324 802 Q324 768 301.5 746.5 Q279 725 244 725 Q211 725 188 747 Q165 769 165 802 Z " />
<glyph glyph-name="Idot" unicode="&#x130;" horiz-adv-x="294" d="M232 0 L62 0 L62 680 L232 680 L232 0 Z M61 802 Q61 838 86 860.5 Q111 883 147 883 Q183 883 208 860.5 Q233 838 233 802 Q233 766 208 743.5 Q183 721 147 721 Q111 721 86 743.5 Q61 766 61 802 Z " />
<glyph glyph-name="Igrave" unicode="&#xcc;" horiz-adv-x="294" d="M232 0 L62 0 L62 680 L232 680 L232 0 Z M145 859 Q184 804 212 734 L91 734 Q38 806 -12 859 L145 859 Z " />
<glyph glyph-name="Imacron" unicode="&#x12a;" horiz-adv-x="294" d="M232 0 L62 0 L62 680 L232 680 L232 0 Z M292 842 L292 736 L2 736 L2 842 L292 842 Z " />
<glyph glyph-name="Iogonek" unicode="&#x12e;" horiz-adv-x="294" d="M181 -58 Q181 -72 191 -80.5 Q201 -89 223 -89 L229 -89 L229 -186 Q216 -189 191 -189 Q133 -189 100 -164.5 Q67 -140 67 -95 Q67 -39 121 0 L62 0 L62 680 L232 680 L232 0 Q181 -25 181 -58 Z " />
<glyph glyph-name="J" unicode="J" horiz-adv-x="421" d="M100 144 Q147 144 171 167 Q195 190 195 240 L195 680 L365 680 L365 209 Q365 95 308 42.5 Q251 -10 149 -10 Q109 -10 74.5 -4.5 Q40 1 20 9 L20 156 Q58 144 100 144 Z " />
<glyph glyph-name="K" unicode="K" horiz-adv-x="647" d="M300 282 Q283 265 228 215 L228 0 L58 0 L58 680 L228 680 L228 413 Q361 562 434 680 L620 680 Q554 549 419 402 Q480 305 544 184.5 Q608 64 632 0 L449 0 Q421 65 381 142 Q341 219 300 282 Z " />
<glyph glyph-name="Kcommaaccent" unicode="&#x136;" horiz-adv-x="647" d="M300 282 Q283 265 228 215 L228 0 L58 0 L58 680 L228 680 L228 413 Q361 562 434 680 L620 680 Q554 549 419 402 Q480 305 544 184.5 Q608 64 632 0 L449 0 Q421 65 381 142 Q341 219 300 282 Z M247 -49 L379 -49 Q378 -127 330 -200 L233 -200 Q247 -125 247 -49 Z " />
<glyph glyph-name="L" unicode="L" horiz-adv-x="520" d="M498 154 L498 0 L58 0 L58 680 L228 680 L228 154 L498 154 Z " />
<glyph glyph-name="Lacute" unicode="&#x139;" horiz-adv-x="520" d="M498 154 L498 0 L58 0 L58 680 L228 680 L228 154 L498 154 Z M208 734 L78 734 Q106 804 145 859 L302 859 Q259 809 208 734 Z " />
<glyph glyph-name="Lcaron" unicode="&#x13d;" horiz-adv-x="520" d="M498 154 L498 0 L58 0 L58 680 L228 680 L228 154 L498 154 Z M337 500 L264 500 Q271 536 277 587.5 Q283 639 283 681 L393 681 Q391 620 374 574.5 Q357 529 337 500 Z " />
<glyph glyph-name="Lcommaaccent" unicode="&#x13b;" horiz-adv-x="520" d="M498 154 L498 0 L58 0 L58 680 L228 680 L228 154 L498 154 Z M217 -49 L349 -49 Q348 -127 300 -200 L203 -200 Q217 -125 217 -49 Z " />
<glyph glyph-name="Lslash" unicode="&#x141;" horiz-adv-x="543" d="M521 154 L521 0 L81 0 L81 197 L20 160 L20 290 L81 327 L81 680 L251 680 L251 431 L383 511 L383 380 L251 300 L251 154 L521 154 Z " />
<glyph glyph-name="M" unicode="M" horiz-adv-x="789" d="M731 680 L731 0 L569 0 L569 411 Q505 267 444 163 Q433 144 414 144 L375 144 Q365 144 359 148.5 Q353 153 347 163 Q281 282 220 414 L220 0 L58 0 L58 680 L250 680 Q303 554 397 361 Q494 564 540 680 L731 680 Z " />
<glyph glyph-name="N" unicode="N" horiz-adv-x="681" d="M623 680 L623 0 L472 0 L220 410 L220 0 L58 0 L58 680 L224 680 L461 296 L461 680 L623 680 Z " />
<glyph glyph-name="Nacute" unicode="&#x143;" horiz-adv-x="681" d="M623 680 L623 0 L472 0 L220 410 L220 0 L58 0 L58 680 L224 680 L461 296 L461 680 L623 680 Z M405 734 L275 734 Q303 804 342 859 L499 859 Q456 809 405 734 Z " />
<glyph glyph-name="Ncaron" unicode="&#x147;" horiz-adv-x="681" d="M623 680 L623 0 L472 0 L220 410 L220 0 L58 0 L58 680 L224 680 L461 296 L461 680 L623 680 Z M521 854 Q495 796 444 734 L249 734 Q198 796 172 854 L293 854 Q311 825 347 786 Q384 828 400 854 L521 854 Z " />
<glyph glyph-name="Ncommaaccent" unicode="&#x145;" horiz-adv-x="681" d="M623 680 L623 0 L472 0 L220 410 L220 0 L58 0 L58 680 L224 680 L461 296 L461 680 L623 680 Z M271 -49 L403 -49 Q402 -127 354 -200 L257 -200 Q271 -125 271 -49 Z " />
<glyph glyph-name="Eng" unicode="&#x14a;" horiz-adv-x="681" d="M623 680 L623 -4 Q623 -90 577 -129.5 Q531 -169 433 -169 Q373 -169 334 -155 L334 -32 Q367 -44 411 -44 Q438 -44 454.5 -34 Q471 -24 471 -2 L471 1 L220 408 L220 0 L58 0 L58 680 L224 680 L461 298 L461 680 L623 680 Z " />
<glyph glyph-name="Ntilde" unicode="&#xd1;" horiz-adv-x="681" d="M623 680 L623 0 L472 0 L220 410 L220 0 L58 0 L58 680 L224 680 L461 296 L461 680 L623 680 Z M416 728 Q393 728 375 733.5 Q357 739 335 749 Q319 757 308 760.5 Q297 764 286 764 Q271 764 262.5 755.5 Q254 747 253 728 L180 728 Q182 786 209 821 Q236 856 282 856 Q301 856 317 850.5 Q333 845 355 835 Q368 829 381.5 824 Q395 819 407 819 Q438 819 440 856 L513 856 Q511 796 486 762 Q461 728 416 728 Z " />
<glyph glyph-name="O" unicode="O" horiz-adv-x="652" d="M34 323 L34 357 Q34 530 115.5 611.5 Q197 693 326 693 Q455 693 536.5 611.5 Q618 530 618 357 L618 323 Q618 150 536.5 68.5 Q455 -13 326 -13 Q197 -13 115.5 68.5 Q34 150 34 323 Z M448 326 L448 354 Q448 435 420 487 Q392 539 326 539 Q260 539 232 487 Q204 435 204 354 L204 326 Q204 245 232 193 Q260 141 326 141 Q392 141 420 193 Q448 245 448 326 Z " />
<glyph glyph-name="Oacute" unicode="&#xd3;" horiz-adv-x="652" d="M34 323 L34 357 Q34 530 115.5 611.5 Q197 693 326 693 Q455 693 536.5 611.5 Q618 530 618 357 L618 323 Q618 150 536.5 68.5 Q455 -13 326 -13 Q197 -13 115.5 68.5 Q34 150 34 323 Z M448 326 L448 354 Q448 435 420 487 Q392 539 326 539 Q260 539 232 487 Q204 435 204 354 L204 326 Q204 245 232 193 Q260 141 326 141 Q392 141 420 193 Q448 245 448 326 Z M384 734 L254 734 Q282 804 321 859 L478 859 Q435 809 384 734 Z " />
<glyph glyph-name="Ocircumflex" unicode="&#xd4;" horiz-adv-x="652" d="M34 323 L34 357 Q34 530 115.5 611.5 Q197 693 326 693 Q455 693 536.5 611.5 Q618 530 618 357 L618 323 Q618 150 536.5 68.5 Q455 -13 326 -13 Q197 -13 115.5 68.5 Q34 150 34 323 Z M448 326 L448 354 Q448 435 420 487 Q392 539 326 539 Q260 539 232 487 Q204 435 204 354 L204 326 Q204 245 232 193 Q260 141 326 141 Q392 141 420 193 Q448 245 448 326 Z M379 734 Q363 760 326 802 Q290 763 272 734 L151 734 Q177 792 228 854 L423 854 Q474 792 500 734 L379 734 Z " />
<glyph glyph-name="Odieresis" unicode="&#xd6;" horiz-adv-x="652" d="M34 323 L34 357 Q34 530 115.5 611.5 Q197 693 326 693 Q455 693 536.5 611.5 Q618 530 618 357 L618 323 Q618 150 536.5 68.5 Q455 -13 326 -13 Q197 -13 115.5 68.5 Q34 150 34 323 Z M448 326 L448 354 Q448 435 420 487 Q392 539 326 539 Q260 539 232 487 Q204 435 204 354 L204 326 Q204 245 232 193 Q260 141 326 141 Q392 141 420 193 Q448 245 448 326 Z M149 802 Q149 835 172 857 Q195 879 228 879 Q263 879 285.5 857.5 Q308 836 308 802 Q308 768 285.5 746.5 Q263 725 228 725 Q195 725 172 747 Q149 769 149 802 Z M344 802 Q344 835 367 857 Q390 879 423 879 Q458 879 480.5 857.5 Q503 836 503 802 Q503 768 480.5 746.5 Q458 725 423 725 Q390 725 367 747 Q344 769 344 802 Z " />
<glyph glyph-name="Ograve" unicode="&#xd2;" horiz-adv-x="652" d="M34 323 L34 357 Q34 530 115.5 611.5 Q197 693 326 693 Q455 693 536.5 611.5 Q618 530 618 357 L618 323 Q618 150 536.5 68.5 Q455 -13 326 -13 Q197 -13 115.5 68.5 Q34 150 34 323 Z M448 326 L448 354 Q448 435 420 487 Q392 539 326 539 Q260 539 232 487 Q204 435 204 354 L204 326 Q204 245 232 193 Q260 141 326 141 Q392 141 420 193 Q448 245 448 326 Z M324 859 Q363 804 391 734 L270 734 Q217 806 167 859 L324 859 Z " />
<glyph glyph-name="Ohungarumlaut" unicode="&#x150;" horiz-adv-x="652" d="M34 323 L34 357 Q34 530 115.5 611.5 Q197 693 326 693 Q455 693 536.5 611.5 Q618 530 618 357 L618 323 Q618 150 536.5 68.5 Q455 -13 326 -13 Q197 -13 115.5 68.5 Q34 150 34 323 Z M448 326 L448 354 Q448 435 420 487 Q392 539 326 539 Q260 539 232 487 Q204 435 204 354 L204 326 Q204 245 232 193 Q260 141 326 141 Q392 141 420 193 Q448 245 448 326 Z M296 734 L185 734 Q203 782 241 854 L374 854 Q337 810 296 734 Z M466 734 L355 734 Q387 802 422 854 L555 854 Q531 824 466 734 Z " />
<glyph glyph-name="Omacron" unicode="&#x14c;" horiz-adv-x="652" d="M34 323 L34 357 Q34 530 115.5 611.5 Q197 693 326 693 Q455 693 536.5 611.5 Q618 530 618 357 L618 323 Q618 150 536.5 68.5 Q455 -13 326 -13 Q197 -13 115.5 68.5 Q34 150 34 323 Z M448 326 L448 354 Q448 435 420 487 Q392 539 326 539 Q260 539 232 487 Q204 435 204 354 L204 326 Q204 245 232 193 Q260 141 326 141 Q392 141 420 193 Q448 245 448 326 Z M471 842 L471 736 L181 736 L181 842 L471 842 Z " />
<glyph glyph-name="Oslash" unicode="&#xd8;" horiz-adv-x="652" d="M618 357 L618 323 Q618 150 536.5 68.5 Q455 -13 326 -13 Q262 -13 206 8 L182 -39 L100 0 L129 56 Q34 143 34 323 L34 357 Q34 530 115.5 611.5 Q197 693 326 693 Q393 693 445 672 L469 719 L554 680 L525 623 Q618 537 618 357 Z M217 228 L372 530 Q353 539 326 539 Q260 539 232 487 Q204 435 204 354 L204 326 Q204 270 217 228 Z M448 354 Q448 413 435 451 L280 150 Q300 141 326 141 Q392 141 420 193 Q448 245 448 326 L448 354 Z " />
<glyph glyph-name="Otilde" unicode="&#xd5;" horiz-adv-x="652" d="M34 323 L34 357 Q34 530 115.5 611.5 Q197 693 326 693 Q455 693 536.5 611.5 Q618 530 618 357 L618 323 Q618 150 536.5 68.5 Q455 -13 326 -13 Q197 -13 115.5 68.5 Q34 150 34 323 Z M448 326 L448 354 Q448 435 420 487 Q392 539 326 539 Q260 539 232 487 Q204 435 204 354 L204 326 Q204 245 232 193 Q260 141 326 141 Q392 141 420 193 Q448 245 448 326 Z M395 728 Q372 728 354 733.5 Q336 739 314 749 Q298 757 287 760.5 Q276 764 265 764 Q250 764 241.5 755.5 Q233 747 232 728 L159 728 Q161 786 188 821 Q215 856 261 856 Q280 856 296 850.5 Q312 845 334 835 Q347 829 360.5 824 Q374 819 386 819 Q417 819 419 856 L492 856 Q490 796 465 762 Q440 728 395 728 Z " />
<glyph glyph-name="OE" unicode="&#x152;" horiz-adv-x="959" d="M915 154 L915 0 L435 0 L435 41 Q387 -13 290 -13 Q177 -13 105.5 68.5 Q34 150 34 323 L34 357 Q34 530 105.5 611.5 Q177 693 290 693 Q341 693 375.5 679.5 Q410 666 435 636 L435 680 L906 680 L906 526 L605 526 L605 423 L883 423 L883 269 L605 269 L605 154 L915 154 Z M435 218 L435 462 Q405 539 330 539 Q262 539 233 487 Q204 435 204 354 L204 326 Q204 245 233 193 Q262 141 330 141 Q405 141 435 218 Z " />
<glyph glyph-name="P" unicode="P" horiz-adv-x="614" d="M589 454 Q589 382 558 331 Q527 280 473.5 254 Q420 228 353 228 L228 228 L228 0 L58 0 L58 680 L353 680 Q420 680 473.5 654 Q527 628 558 577 Q589 526 589 454 Z M421 454 Q421 492 396.5 512 Q372 532 331 532 L228 532 L228 376 L331 376 Q372 376 396.5 396 Q421 416 421 454 Z " />
<glyph glyph-name="Thorn" unicode="&#xde;" horiz-adv-x="593" d="M568 356 Q568 285 538 235 Q508 185 455.5 159.5 Q403 134 336 134 L228 134 L228 0 L58 0 L58 680 L228 680 L228 578 L336 578 Q403 578 455.5 552.5 Q508 527 538 477 Q568 427 568 356 Z M400 356 Q400 392 377 411 Q354 430 314 430 L228 430 L228 282 L314 282 Q354 282 377 301 Q400 320 400 356 Z " />
<glyph glyph-name="Q" unicode="Q" horiz-adv-x="652" d="M496 34 Q520 25 561 25 Q587 25 607 27 L607 -91 Q583 -98 545 -98 Q484 -98 428.5 -78.5 Q373 -59 339 -13 L326 -13 Q197 -13 115.5 68.5 Q34 150 34 323 L34 357 Q34 530 115.5 611.5 Q197 693 326 693 Q455 693 536.5 611.5 Q618 530 618 357 L618 323 Q618 216 586 144.5 Q554 73 496 34 Z M326 141 Q392 141 420 193 Q448 245 448 326 L448 354 Q448 435 420 487 Q392 539 326 539 Q260 539 232 487 Q204 435 204 354 L204 326 Q204 245 232 193 Q260 141 326 141 Z " />
<glyph glyph-name="R" unicode="R" horiz-adv-x="631" d="M432 0 Q411 46 374.5 113.5 Q338 181 301 236 L228 236 L228 0 L58 0 L58 680 L356 680 Q422 680 475 654.5 Q528 629 559 579 Q590 529 590 459 Q590 390 557.5 339.5 Q525 289 468 263 Q512 199 556.5 118.5 Q601 38 615 0 L432 0 Z M228 386 L337 386 Q376 386 399 405.5 Q422 425 422 460 Q422 495 399.5 513.5 Q377 532 337 532 L228 532 L228 386 Z " />
<glyph glyph-name="Racute" unicode="&#x154;" horiz-adv-x="631" d="M432 0 Q411 46 374.5 113.5 Q338 181 301 236 L228 236 L228 0 L58 0 L58 680 L356 680 Q422 680 475 654.5 Q528 629 559 579 Q590 529 590 459 Q590 390 557.5 339.5 Q525 289 468 263 Q512 199 556.5 118.5 Q601 38 615 0 L432 0 Z M228 386 L337 386 Q376 386 399 405.5 Q422 425 422 460 Q422 495 399.5 513.5 Q377 532 337 532 L228 532 L228 386 Z M361 734 L231 734 Q259 804 298 859 L455 859 Q412 809 361 734 Z " />
<glyph glyph-name="Rcaron" unicode="&#x158;" horiz-adv-x="631" d="M432 0 Q411 46 374.5 113.5 Q338 181 301 236 L228 236 L228 0 L58 0 L58 680 L356 680 Q422 680 475 654.5 Q528 629 559 579 Q590 529 590 459 Q590 390 557.5 339.5 Q525 289 468 263 Q512 199 556.5 118.5 Q601 38 615 0 L432 0 Z M228 386 L337 386 Q376 386 399 405.5 Q422 425 422 460 Q422 495 399.5 513.5 Q377 532 337 532 L228 532 L228 386 Z M477 854 Q451 796 400 734 L205 734 Q154 796 128 854 L249 854 Q267 825 303 786 Q340 828 356 854 L477 854 Z " />
<glyph glyph-name="Rcommaaccent" unicode="&#x156;" horiz-adv-x="631" d="M432 0 Q411 46 374.5 113.5 Q338 181 301 236 L228 236 L228 0 L58 0 L58 680 L356 680 Q422 680 475 654.5 Q528 629 559 579 Q590 529 590 459 Q590 390 557.5 339.5 Q525 289 468 263 Q512 199 556.5 118.5 Q601 38 615 0 L432 0 Z M228 386 L337 386 Q376 386 399 405.5 Q422 425 422 460 Q422 495 399.5 513.5 Q377 532 337 532 L228 532 L228 386 Z M263 -49 L395 -49 Q394 -127 346 -200 L249 -200 Q263 -125 263 -49 Z " />
<glyph glyph-name="S" unicode="S" horiz-adv-x="583" d="M363 484 Q359 510 335 528 Q311 546 276 546 Q242 546 223.5 530.5 Q205 515 205 491 Q205 473 218.5 461 Q232 449 251 442.5 Q270 436 317 422 L370 406 Q463 378 508.5 334 Q554 290 554 207 Q554 108 486.5 48.5 Q419 -11 297 -11 Q208 -11 148 16.5 Q88 44 58 90.5 Q28 137 25 193 L24 216 L201 216 Q204 178 230 155.5 Q256 133 300 133 Q339 133 361.5 148.5 Q384 164 384 193 Q384 214 373 226 Q362 238 345.5 244.5 Q329 251 289 264 L234 281 Q163 303 121 326.5 Q79 350 56.5 387 Q34 424 34 483 Q34 540 62.5 587.5 Q91 635 147 663 Q203 691 283 691 Q367 691 423 665 Q479 639 507 597 Q535 555 539 506 L541 484 L363 484 Z " />
<glyph glyph-name="Sacute" unicode="&#x15a;" horiz-adv-x="583" d="M363 484 Q359 510 335 528 Q311 546 276 546 Q242 546 223.5 530.5 Q205 515 205 491 Q205 473 218.5 461 Q232 449 251 442.5 Q270 436 317 422 L370 406 Q463 378 508.5 334 Q554 290 554 207 Q554 108 486.5 48.5 Q419 -11 297 -11 Q208 -11 148 16.5 Q88 44 58 90.5 Q28 137 25 193 L24 216 L201 216 Q204 178 230 155.5 Q256 133 300 133 Q339 133 361.5 148.5 Q384 164 384 193 Q384 214 373 226 Q362 238 345.5 244.5 Q329 251 289 264 L234 281 Q163 303 121 326.5 Q79 350 56.5 387 Q34 424 34 483 Q34 540 62.5 587.5 Q91 635 147 663 Q203 691 283 691 Q367 691 423 665 Q479 639 507 597 Q535 555 539 506 L541 484 L363 484 Z M350 734 L220 734 Q248 804 287 859 L444 859 Q401 809 350 734 Z " />
<glyph glyph-name="Scaron" unicode="&#x160;" horiz-adv-x="583" d="M363 484 Q359 510 335 528 Q311 546 276 546 Q242 546 223.5 530.5 Q205 515 205 491 Q205 473 218.5 461 Q232 449 251 442.5 Q270 436 317 422 L370 406 Q463 378 508.5 334 Q554 290 554 207 Q554 108 486.5 48.5 Q419 -11 297 -11 Q208 -11 148 16.5 Q88 44 58 90.5 Q28 137 25 193 L24 216 L201 216 Q204 178 230 155.5 Q256 133 300 133 Q339 133 361.5 148.5 Q384 164 384 193 Q384 214 373 226 Q362 238 345.5 244.5 Q329 251 289 264 L234 281 Q163 303 121 326.5 Q79 350 56.5 387 Q34 424 34 483 Q34 540 62.5 587.5 Q91 635 147 663 Q203 691 283 691 Q367 691 423 665 Q479 639 507 597 Q535 555 539 506 L541 484 L363 484 Z M466 854 Q440 796 389 734 L194 734 Q143 796 117 854 L238 854 Q256 825 292 786 Q329 828 345 854 L466 854 Z " />
<glyph glyph-name="Scedilla" unicode="&#x15e;" horiz-adv-x="583" d="M321 -10 L307 -37 Q346 -43 370 -65 Q394 -87 394 -123 Q394 -168 362.5 -192 Q331 -216 281 -216 Q250 -216 221.5 -206.5 Q193 -197 175 -180 L210 -124 Q240 -146 275 -146 Q293 -146 304 -139.5 Q315 -133 315 -120 Q315 -107 302.5 -101 Q290 -95 272 -95 Q257 -95 237 -100 L217 -75 L249 -9 Q142 2 85.5 58 Q29 114 25 193 L24 216 L201 216 Q204 178 230 155.5 Q256 133 300 133 Q339 133 361.5 148.5 Q384 164 384 193 Q384 214 373 226 Q362 238 345.5 244.5 Q329 251 289 264 L234 281 Q163 303 121 326.5 Q79 350 56.5 387 Q34 424 34 483 Q34 540 62.5 587.5 Q91 635 147 663 Q203 691 283 691 Q367 691 423 665 Q479 639 507 597 Q535 555 539 506 L541 484 L363 484 Q359 510 335 528 Q311 546 276 546 Q242 546 223.5 530.5 Q205 515 205 491 Q205 473 218.5 461 Q232 449 251 442.5 Q270 436 317 422 L370 406 Q463 378 508.5 334 Q554 290 554 207 Q554 113 493 54.5 Q432 -4 321 -10 Z " />
<glyph glyph-name="Scommaaccent" unicode="&#x218;" horiz-adv-x="583" d="M363 484 Q359 510 335 528 Q311 546 276 546 Q242 546 223.5 530.5 Q205 515 205 491 Q205 473 218.5 461 Q232 449 251 442.5 Q270 436 317 422 L370 406 Q463 378 508.5 334 Q554 290 554 207 Q554 108 486.5 48.5 Q419 -11 297 -11 Q208 -11 148 16.5 Q88 44 58 90.5 Q28 137 25 193 L24 216 L201 216 Q204 178 230 155.5 Q256 133 300 133 Q339 133 361.5 148.5 Q384 164 384 193 Q384 214 373 226 Q362 238 345.5 244.5 Q329 251 289 264 L234 281 Q163 303 121 326.5 Q79 350 56.5 387 Q34 424 34 483 Q34 540 62.5 587.5 Q91 635 147 663 Q203 691 283 691 Q367 691 423 665 Q479 639 507 597 Q535 555 539 506 L541 484 L363 484 Z M222 -49 L354 -49 Q353 -127 305 -200 L208 -200 Q222 -125 222 -49 Z " />
<glyph glyph-name="T" unicode="T" horiz-adv-x="558" d="M533 526 L364 526 L364 0 L194 0 L194 526 L25 526 L25 680 L533 680 L533 526 Z " />
<glyph glyph-name="Tbar" unicode="&#x166;" horiz-adv-x="558" d="M364 526 L364 391 L441 391 L441 289 L364 289 L364 0 L194 0 L194 289 L116 289 L116 391 L194 391 L194 526 L25 526 L25 680 L533 680 L533 526 L364 526 Z " />
<glyph glyph-name="Tcaron" unicode="&#x164;" horiz-adv-x="558" d="M533 526 L364 526 L364 0 L194 0 L194 526 L25 526 L25 680 L533 680 L533 526 Z M453 854 Q427 796 376 734 L181 734 Q130 796 104 854 L225 854 Q243 825 279 786 Q316 828 332 854 L453 854 Z " />
<glyph glyph-name="uni0162" unicode="&#x162;" horiz-adv-x="558" d="M317 0 L298 -37 Q337 -43 361 -65 Q385 -87 385 -123 Q385 -168 353.5 -192 Q322 -216 272 -216 Q241 -216 212.5 -206.5 Q184 -197 166 -180 L201 -124 Q231 -146 266 -146 Q284 -146 295 -139.5 Q306 -133 306 -120 Q306 -107 293.5 -101 Q281 -95 263 -95 Q248 -95 228 -100 L208 -75 L245 0 L194 0 L194 526 L25 526 L25 680 L533 680 L533 526 L364 526 L364 0 L317 0 Z " />
<glyph glyph-name="uni021A" unicode="&#x21a;" horiz-adv-x="558" d="M533 526 L364 526 L364 0 L194 0 L194 526 L25 526 L25 680 L533 680 L533 526 Z M213 -49 L345 -49 Q344 -127 296 -200 L199 -200 Q213 -125 213 -49 Z " />
<glyph glyph-name="U" unicode="U" horiz-adv-x="648" d="M592 680 L592 234 Q592 111 520 51 Q448 -9 324 -9 Q200 -9 128 51 Q56 111 56 234 L56 680 L226 680 L226 253 Q226 199 252.5 171 Q279 143 324 143 Q369 143 395.5 171 Q422 199 422 253 L422 680 L592 680 Z " />
<glyph glyph-name="Uacute" unicode="&#xda;" horiz-adv-x="648" d="M592 680 L592 234 Q592 111 520 51 Q448 -9 324 -9 Q200 -9 128 51 Q56 111 56 234 L56 680 L226 680 L226 253 Q226 199 252.5 171 Q279 143 324 143 Q369 143 395.5 171 Q422 199 422 253 L422 680 L592 680 Z M382 734 L252 734 Q280 804 319 859 L476 859 Q433 809 382 734 Z " />
<glyph glyph-name="Ucircumflex" unicode="&#xdb;" horiz-adv-x="648" d="M592 680 L592 234 Q592 111 520 51 Q448 -9 324 -9 Q200 -9 128 51 Q56 111 56 234 L56 680 L226 680 L226 253 Q226 199 252.5 171 Q279 143 324 143 Q369 143 395.5 171 Q422 199 422 253 L422 680 L592 680 Z M377 734 Q361 760 324 802 Q288 763 270 734 L149 734 Q175 792 226 854 L421 854 Q472 792 498 734 L377 734 Z " />
<glyph glyph-name="Udieresis" unicode="&#xdc;" horiz-adv-x="648" d="M592 680 L592 234 Q592 111 520 51 Q448 -9 324 -9 Q200 -9 128 51 Q56 111 56 234 L56 680 L226 680 L226 253 Q226 199 252.5 171 Q279 143 324 143 Q369 143 395.5 171 Q422 199 422 253 L422 680 L592 680 Z M147 802 Q147 835 170 857 Q193 879 226 879 Q261 879 283.5 857.5 Q306 836 306 802 Q306 768 283.5 746.5 Q261 725 226 725 Q193 725 170 747 Q147 769 147 802 Z M342 802 Q342 835 365 857 Q388 879 421 879 Q456 879 478.5 857.5 Q501 836 501 802 Q501 768 478.5 746.5 Q456 725 421 725 Q388 725 365 747 Q342 769 342 802 Z " />
<glyph glyph-name="Ugrave" unicode="&#xd9;" horiz-adv-x="648" d="M592 680 L592 234 Q592 111 520 51 Q448 -9 324 -9 Q200 -9 128 51 Q56 111 56 234 L56 680 L226 680 L226 253 Q226 199 252.5 171 Q279 143 324 143 Q369 143 395.5 171 Q422 199 422 253 L422 680 L592 680 Z M322 859 Q361 804 389 734 L268 734 Q215 806 165 859 L322 859 Z " />
<glyph glyph-name="Uhungarumlaut" unicode="&#x170;" horiz-adv-x="648" d="M592 680 L592 234 Q592 111 520 51 Q448 -9 324 -9 Q200 -9 128 51 Q56 111 56 234 L56 680 L226 680 L226 253 Q226 199 252.5 171 Q279 143 324 143 Q369 143 395.5 171 Q422 199 422 253 L422 680 L592 680 Z M294 734 L183 734 Q201 782 239 854 L372 854 Q335 810 294 734 Z M464 734 L353 734 Q385 802 420 854 L553 854 Q529 824 464 734 Z " />
<glyph glyph-name="Umacron" unicode="&#x16a;" horiz-adv-x="648" d="M592 680 L592 234 Q592 111 520 51 Q448 -9 324 -9 Q200 -9 128 51 Q56 111 56 234 L56 680 L226 680 L226 253 Q226 199 252.5 171 Q279 143 324 143 Q369 143 395.5 171 Q422 199 422 253 L422 680 L592 680 Z M469 842 L469 736 L179 736 L179 842 L469 842 Z " />
<glyph glyph-name="Uogonek" unicode="&#x172;" horiz-adv-x="648" d="M312 -92 Q312 -44 350 -8 Q341 -9 324 -9 Q200 -9 128 51 Q56 111 56 234 L56 680 L226 680 L226 253 Q226 199 252.5 171 Q279 143 324 143 Q369 143 395.5 171 Q422 199 422 253 L422 680 L592 680 L592 234 Q592 171 575 130.5 Q558 90 539 71.5 Q520 53 489 31 Q456 7 441 -12 Q426 -31 426 -52 Q426 -89 468 -89 L474 -89 L474 -186 Q460 -189 436 -189 Q377 -189 344.5 -163.5 Q312 -138 312 -92 Z " />
<glyph glyph-name="Uring" unicode="&#x16e;" horiz-adv-x="648" d="M592 680 L592 234 Q592 111 520 51 Q448 -9 324 -9 Q200 -9 128 51 Q56 111 56 234 L56 680 L226 680 L226 253 Q226 199 252.5 171 Q279 143 324 143 Q369 143 395.5 171 Q422 199 422 253 L422 680 L592 680 Z M200 820 Q200 869 234 901 Q268 933 324 933 Q380 933 414 901 Q448 869 448 820 Q448 771 413.5 739 Q379 707 324 707 Q268 707 234 739 Q200 771 200 820 Z M377 820 Q377 842 363 857 Q349 872 324 872 Q299 872 285 857 Q271 842 271 820 Q271 798 285 783 Q299 768 324 768 Q349 768 363 783 Q377 798 377 820 Z " />
<glyph glyph-name="V" unicode="V" horiz-adv-x="653" d="M643 680 Q602 523 539.5 331.5 Q477 140 428 21 Q423 9 416 4.5 Q409 0 392 0 L260 0 Q243 0 235.5 4.5 Q228 9 223 21 Q174 133 115 319.5 Q56 506 10 680 L185 680 Q212 570 250.5 436.5 Q289 303 326 190 Q363 299 401.5 431.5 Q440 564 470 680 L643 680 Z " />
<glyph glyph-name="W" unicode="W" horiz-adv-x="968" d="M946 680 Q909 501 864.5 318 Q820 135 782 21 Q778 9 770.5 4.5 Q763 0 746 0 L626 0 Q609 0 601.5 4.5 Q594 9 591 21 L484 413 L379 21 Q376 10 368 5 Q360 0 343 0 L223 0 Q206 0 199 4.5 Q192 9 188 21 Q150 141 102.5 331 Q55 521 22 680 L196 680 Q237 469 293 252 L406 680 L566 680 L681 253 Q740 485 776 680 L946 680 Z " />
<glyph glyph-name="Wacute" unicode="&#x1e82;" horiz-adv-x="968" d="M946 680 Q909 501 864.5 318 Q820 135 782 21 Q778 9 770.5 4.5 Q763 0 746 0 L626 0 Q609 0 601.5 4.5 Q594 9 591 21 L484 413 L379 21 Q376 10 368 5 Q360 0 343 0 L223 0 Q206 0 199 4.5 Q192 9 188 21 Q150 141 102.5 331 Q55 521 22 680 L196 680 Q237 469 293 252 L406 680 L566 680 L681 253 Q740 485 776 680 L946 680 Z M547 734 L417 734 Q445 804 484 859 L641 859 Q598 809 547 734 Z " />
<glyph glyph-name="Wcircumflex" unicode="&#x174;" horiz-adv-x="968" d="M946 680 Q909 501 864.5 318 Q820 135 782 21 Q778 9 770.5 4.5 Q763 0 746 0 L626 0 Q609 0 601.5 4.5 Q594 9 591 21 L484 413 L379 21 Q376 10 368 5 Q360 0 343 0 L223 0 Q206 0 199 4.5 Q192 9 188 21 Q150 141 102.5 331 Q55 521 22 680 L196 680 Q237 469 293 252 L406 680 L566 680 L681 253 Q740 485 776 680 L946 680 Z M542 734 Q526 760 489 802 Q453 763 435 734 L314 734 Q340 792 391 854 L586 854 Q637 792 663 734 L542 734 Z " />
<glyph glyph-name="Wdieresis" unicode="&#x1e84;" horiz-adv-x="968" d="M946 680 Q909 501 864.5 318 Q820 135 782 21 Q778 9 770.5 4.5 Q763 0 746 0 L626 0 Q609 0 601.5 4.5 Q594 9 591 21 L484 413 L379 21 Q376 10 368 5 Q360 0 343 0 L223 0 Q206 0 199 4.5 Q192 9 188 21 Q150 141 102.5 331 Q55 521 22 680 L196 680 Q237 469 293 252 L406 680 L566 680 L681 253 Q740 485 776 680 L946 680 Z M312 802 Q312 835 335 857 Q358 879 391 879 Q426 879 448.5 857.5 Q471 836 471 802 Q471 768 448.5 746.5 Q426 725 391 725 Q358 725 335 747 Q312 769 312 802 Z M507 802 Q507 835 530 857 Q553 879 586 879 Q621 879 643.5 857.5 Q666 836 666 802 Q666 768 643.5 746.5 Q621 725 586 725 Q553 725 530 747 Q507 769 507 802 Z " />
<glyph glyph-name="Wgrave" unicode="&#x1e80;" horiz-adv-x="968" d="M946 680 Q909 501 864.5 318 Q820 135 782 21 Q778 9 770.5 4.5 Q763 0 746 0 L626 0 Q609 0 601.5 4.5 Q594 9 591 21 L484 413 L379 21 Q376 10 368 5 Q360 0 343 0 L223 0 Q206 0 199 4.5 Q192 9 188 21 Q150 141 102.5 331 Q55 521 22 680 L196 680 Q237 469 293 252 L406 680 L566 680 L681 253 Q740 485 776 680 L946 680 Z M487 859 Q526 804 554 734 L433 734 Q380 806 330 859 L487 859 Z " />
<glyph glyph-name="X" unicode="X" horiz-adv-x="634" d="M440 0 Q384 119 316 234 Q271 158 190 0 L10 0 Q96 181 205 356 Q116 491 21 680 L203 680 Q258 573 318 477 Q379 576 432 680 L611 680 Q529 511 427 357 Q527 203 623 0 L440 0 Z " />
<glyph glyph-name="Y" unicode="Y" horiz-adv-x="623" d="M397 258 L397 0 L227 0 L227 258 Q86 494 12 680 L186 680 Q238 555 314 419 Q388 557 439 680 L611 680 Q570 575 517 472 Q464 369 397 258 Z " />
<glyph glyph-name="Yacute" unicode="&#xdd;" horiz-adv-x="623" d="M397 258 L397 0 L227 0 L227 258 Q86 494 12 680 L186 680 Q238 555 314 419 Q388 557 439 680 L611 680 Q570 575 517 472 Q464 369 397 258 Z M365 734 L235 734 Q263 804 302 859 L459 859 Q416 809 365 734 Z " />
<glyph glyph-name="Ycircumflex" unicode="&#x176;" horiz-adv-x="623" d="M397 258 L397 0 L227 0 L227 258 Q86 494 12 680 L186 680 Q238 555 314 419 Q388 557 439 680 L611 680 Q570 575 517 472 Q464 369 397 258 Z M360 734 Q344 760 307 802 Q271 763 253 734 L132 734 Q158 792 209 854 L404 854 Q455 792 481 734 L360 734 Z " />
<glyph glyph-name="Ydieresis" unicode="&#x178;" horiz-adv-x="623" d="M397 258 L397 0 L227 0 L227 258 Q86 494 12 680 L186 680 Q238 555 314 419 Q388 557 439 680 L611 680 Q570 575 517 472 Q464 369 397 258 Z M130 802 Q130 835 153 857 Q176 879 209 879 Q244 879 266.5 857.5 Q289 836 289 802 Q289 768 266.5 746.5 Q244 725 209 725 Q176 725 153 747 Q130 769 130 802 Z M325 802 Q325 835 348 857 Q371 879 404 879 Q439 879 461.5 857.5 Q484 836 484 802 Q484 768 461.5 746.5 Q439 725 404 725 Q371 725 348 747 Q325 769 325 802 Z " />
<glyph glyph-name="Ygrave" unicode="&#x1ef2;" horiz-adv-x="623" d="M397 258 L397 0 L227 0 L227 258 Q86 494 12 680 L186 680 Q238 555 314 419 Q388 557 439 680 L611 680 Q570 575 517 472 Q464 369 397 258 Z M305 859 Q344 804 372 734 L251 734 Q198 806 148 859 L305 859 Z " />
<glyph glyph-name="Z" unicode="Z" horiz-adv-x="578" d="M548 155 L548 0 L33 0 L33 142 L332 526 L47 526 L47 680 L545 680 L545 540 L246 155 L548 155 Z " />
<glyph glyph-name="Zacute" unicode="&#x179;" horiz-adv-x="578" d="M548 155 L548 0 L33 0 L33 142 L332 526 L47 526 L47 680 L545 680 L545 540 L246 155 L548 155 Z M355 734 L225 734 Q253 804 292 859 L449 859 Q406 809 355 734 Z " />
<glyph glyph-name="Zcaron" unicode="&#x17d;" horiz-adv-x="578" d="M548 155 L548 0 L33 0 L33 142 L332 526 L47 526 L47 680 L545 680 L545 540 L246 155 L548 155 Z M471 854 Q445 796 394 734 L199 734 Q148 796 122 854 L243 854 Q261 825 297 786 Q334 828 350 854 L471 854 Z " />
<glyph glyph-name="Zdotaccent" unicode="&#x17b;" horiz-adv-x="578" d="M548 155 L548 0 L33 0 L33 142 L332 526 L47 526 L47 680 L545 680 L545 540 L246 155 L548 155 Z M211 802 Q211 838 236 860.5 Q261 883 297 883 Q333 883 358 860.5 Q383 838 383 802 Q383 766 358 743.5 Q333 721 297 721 Q261 721 236 743.5 Q211 766 211 802 Z " />
<glyph glyph-name="a" unicode="a" horiz-adv-x="518" d="M502 120 L502 2 Q481 -6 447 -6 Q361 -6 336 56 Q318 26 283 8.5 Q248 -9 196 -9 Q114 -9 68.5 29 Q23 67 23 138 Q23 218 90 261.5 Q157 305 307 319 L307 324 Q307 349 293.5 363.5 Q280 378 252 378 Q226 378 211 364.5 Q196 351 193 332 L39 332 Q44 411 100 459 Q156 507 253 507 Q352 507 407.5 460 Q463 413 463 323 L463 174 Q463 143 471.5 131.5 Q480 120 502 120 Z M307 171 L307 217 Q181 201 181 148 Q181 129 196 119 Q211 109 236 109 Q269 109 288 125.5 Q307 142 307 171 Z " />
<glyph glyph-name="aacute" unicode="&#xe1;" horiz-adv-x="518" d="M502 120 L502 2 Q481 -6 447 -6 Q361 -6 336 56 Q318 26 283 8.5 Q248 -9 196 -9 Q114 -9 68.5 29 Q23 67 23 138 Q23 218 90 261.5 Q157 305 307 319 L307 324 Q307 349 293.5 363.5 Q280 378 252 378 Q226 378 211 364.5 Q196 351 193 332 L39 332 Q44 411 100 459 Q156 507 253 507 Q352 507 407.5 460 Q463 413 463 323 L463 174 Q463 143 471.5 131.5 Q480 120 502 120 Z M307 171 L307 217 Q181 201 181 148 Q181 129 196 119 Q211 109 236 109 Q269 109 288 125.5 Q307 142 307 171 Z M315 560 L185 560 Q213 630 252 685 L409 685 Q366 635 315 560 Z " />
<glyph glyph-name="abreve" unicode="&#x103;" horiz-adv-x="518" d="M502 120 L502 2 Q481 -6 447 -6 Q361 -6 336 56 Q318 26 283 8.5 Q248 -9 196 -9 Q114 -9 68.5 29 Q23 67 23 138 Q23 218 90 261.5 Q157 305 307 319 L307 324 Q307 349 293.5 363.5 Q280 378 252 378 Q226 378 211 364.5 Q196 351 193 332 L39 332 Q44 411 100 459 Q156 507 253 507 Q352 507 407.5 460 Q463 413 463 323 L463 174 Q463 143 471.5 131.5 Q480 120 502 120 Z M307 171 L307 217 Q181 201 181 148 Q181 129 196 119 Q211 109 236 109 Q269 109 288 125.5 Q307 142 307 171 Z M412 680 Q412 616 369 582 Q326 548 258 548 Q190 548 147 582 Q104 616 104 680 L205 680 Q205 659 218 643.5 Q231 628 258 628 Q285 628 298.5 644 Q312 660 312 680 L412 680 L412 680 Z " />
<glyph glyph-name="acircumflex" unicode="&#xe2;" horiz-adv-x="518" d="M502 120 L502 2 Q481 -6 447 -6 Q361 -6 336 56 Q318 26 283 8.5 Q248 -9 196 -9 Q114 -9 68.5 29 Q23 67 23 138 Q23 218 90 261.5 Q157 305 307 319 L307 324 Q307 349 293.5 363.5 Q280 378 252 378 Q226 378 211 364.5 Q196 351 193 332 L39 332 Q44 411 100 459 Q156 507 253 507 Q352 507 407.5 460 Q463 413 463 323 L463 174 Q463 143 471.5 131.5 Q480 120 502 120 Z M307 171 L307 217 Q181 201 181 148 Q181 129 196 119 Q211 109 236 109 Q269 109 288 125.5 Q307 142 307 171 Z M310 560 Q294 586 257 628 Q221 589 203 560 L82 560 Q108 618 159 680 L354 680 Q405 618 431 560 L310 560 Z " />
<glyph glyph-name="adieresis" unicode="&#xe4;" horiz-adv-x="518" d="M502 120 L502 2 Q481 -6 447 -6 Q361 -6 336 56 Q318 26 283 8.5 Q248 -9 196 -9 Q114 -9 68.5 29 Q23 67 23 138 Q23 218 90 261.5 Q157 305 307 319 L307 324 Q307 349 293.5 363.5 Q280 378 252 378 Q226 378 211 364.5 Q196 351 193 332 L39 332 Q44 411 100 459 Q156 507 253 507 Q352 507 407.5 460 Q463 413 463 323 L463 174 Q463 143 471.5 131.5 Q480 120 502 120 Z M307 171 L307 217 Q181 201 181 148 Q181 129 196 119 Q211 109 236 109 Q269 109 288 125.5 Q307 142 307 171 Z M80 628 Q80 661 103 683 Q126 705 159 705 Q194 705 216.5 683.5 Q239 662 239 628 Q239 594 216.5 572.5 Q194 551 159 551 Q126 551 103 573 Q80 595 80 628 Z M275 628 Q275 661 298 683 Q321 705 354 705 Q389 705 411.5 683.5 Q434 662 434 628 Q434 594 411.5 572.5 Q389 551 354 551 Q321 551 298 573 Q275 595 275 628 Z " />
<glyph glyph-name="agrave" unicode="&#xe0;" horiz-adv-x="518" d="M502 120 L502 2 Q481 -6 447 -6 Q361 -6 336 56 Q318 26 283 8.5 Q248 -9 196 -9 Q114 -9 68.5 29 Q23 67 23 138 Q23 218 90 261.5 Q157 305 307 319 L307 324 Q307 349 293.5 363.5 Q280 378 252 378 Q226 378 211 364.5 Q196 351 193 332 L39 332 Q44 411 100 459 Q156 507 253 507 Q352 507 407.5 460 Q463 413 463 323 L463 174 Q463 143 471.5 131.5 Q480 120 502 120 Z M307 171 L307 217 Q181 201 181 148 Q181 129 196 119 Q211 109 236 109 Q269 109 288 125.5 Q307 142 307 171 Z M255 685 Q294 630 322 560 L201 560 Q148 632 98 685 L255 685 Z " />
<glyph glyph-name="amacron" unicode="&#x101;" horiz-adv-x="518" d="M502 120 L502 2 Q481 -6 447 -6 Q361 -6 336 56 Q318 26 283 8.5 Q248 -9 196 -9 Q114 -9 68.5 29 Q23 67 23 138 Q23 218 90 261.5 Q157 305 307 319 L307 324 Q307 349 293.5 363.5 Q280 378 252 378 Q226 378 211 364.5 Q196 351 193 332 L39 332 Q44 411 100 459 Q156 507 253 507 Q352 507 407.5 460 Q463 413 463 323 L463 174 Q463 143 471.5 131.5 Q480 120 502 120 Z M307 171 L307 217 Q181 201 181 148 Q181 129 196 119 Q211 109 236 109 Q269 109 288 125.5 Q307 142 307 171 Z M402 668 L402 562 L112 562 L112 668 L402 668 Z " />
<glyph glyph-name="aogonek" unicode="&#x105;" horiz-adv-x="518" d="M331 -95 Q331 -35 390 3 Q353 17 336 56 Q318 26 283 8.5 Q248 -9 196 -9 Q114 -9 68.5 29 Q23 67 23 137 Q23 216 90.5 260.5 Q158 305 307 319 L307 324 Q307 349 293.5 363.5 Q280 378 252 378 Q226 378 211 364.5 Q196 351 193 332 L39 332 Q44 411 100 459 Q156 507 253 507 Q352 507 407.5 461 Q463 415 463 325 L463 177 Q463 145 471.5 132.5 Q480 120 502 120 L502 2 Q475 -10 460 -24 Q445 -38 445 -58 Q445 -72 455 -80.5 Q465 -89 487 -89 L493 -89 L493 -186 Q479 -189 455 -189 Q397 -189 364 -164.5 Q331 -140 331 -95 Z M307 171 L307 216 Q181 198 181 147 Q181 128 195.5 118.5 Q210 109 236 109 Q269 109 288 125.5 Q307 142 307 171 Z " />
<glyph glyph-name="aring" unicode="&#xe5;" horiz-adv-x="518" d="M502 120 L502 2 Q481 -6 447 -6 Q361 -6 336 56 Q318 26 283 8.5 Q248 -9 196 -9 Q114 -9 68.5 29 Q23 67 23 138 Q23 218 90 261.5 Q157 305 307 319 L307 324 Q307 349 293.5 363.5 Q280 378 252 378 Q226 378 211 364.5 Q196 351 193 332 L39 332 Q44 411 100 459 Q156 507 253 507 Q352 507 407.5 460 Q463 413 463 323 L463 174 Q463 143 471.5 131.5 Q480 120 502 120 Z M307 171 L307 217 Q181 201 181 148 Q181 129 196 119 Q211 109 236 109 Q269 109 288 125.5 Q307 142 307 171 Z M133 646 Q133 695 167 727 Q201 759 257 759 Q313 759 347 727 Q381 695 381 646 Q381 597 346.5 565 Q312 533 257 533 Q201 533 167 565 Q133 597 133 646 Z M310 646 Q310 668 296 683 Q282 698 257 698 Q232 698 218 683 Q204 668 204 646 Q204 624 218 609 Q232 594 257 594 Q282 594 296 609 Q310 624 310 646 Z " />
<glyph glyph-name="atilde" unicode="&#xe3;" horiz-adv-x="518" d="M502 120 L502 2 Q481 -6 447 -6 Q361 -6 336 56 Q318 26 283 8.5 Q248 -9 196 -9 Q114 -9 68.5 29 Q23 67 23 138 Q23 218 90 261.5 Q157 305 307 319 L307 324 Q307 349 293.5 363.5 Q280 378 252 378 Q226 378 211 364.5 Q196 351 193 332 L39 332 Q44 411 100 459 Q156 507 253 507 Q352 507 407.5 460 Q463 413 463 323 L463 174 Q463 143 471.5 131.5 Q480 120 502 120 Z M307 171 L307 217 Q181 201 181 148 Q181 129 196 119 Q211 109 236 109 Q269 109 288 125.5 Q307 142 307 171 Z M326 554 Q303 554 285 559.5 Q267 565 245 575 Q229 583 218 586.5 Q207 590 196 590 Q181 590 172.5 581.5 Q164 573 163 554 L90 554 Q92 612 119 647 Q146 682 192 682 Q211 682 227 676.5 Q243 671 265 661 Q278 655 291.5 650 Q305 645 317 645 Q348 645 350 682 L423 682 Q421 622 396 588 Q371 554 326 554 Z " />
<glyph glyph-name="ae" unicode="&#xe6;" horiz-adv-x="805" d="M464 205 Q468 169 488.5 147 Q509 125 547 125 Q603 125 620 169 L780 169 Q763 84 705.5 37.5 Q648 -9 547 -9 Q436 -9 373 59 Q351 27 309.5 9 Q268 -9 208 -9 Q122 -9 72.5 28.5 Q23 66 23 136 Q23 215 86.5 258 Q150 301 307 307 L307 325 Q307 351 292.5 364.5 Q278 378 251 378 Q200 378 191 332 L38 332 Q43 412 97 459.5 Q151 507 246 507 Q348 507 402 462 Q462 505 548 505 Q657 505 719 442 Q781 379 781 273 L781 205 L464 205 Z M465 305 L630 305 Q624 336 604.5 355 Q585 374 548 374 Q479 374 465 305 Z M307 172 L307 213 Q244 208 212.5 192.5 Q181 177 181 150 Q181 109 235 109 Q268 109 287.5 125.5 Q307 142 307 172 Z " />
<glyph glyph-name="b" unicode="b" horiz-adv-x="553" d="M528 262 L528 234 Q528 117 476 54 Q424 -9 337 -9 Q247 -9 202 58 L202 0 L50 0 L50 700 L210 700 L210 449 Q255 505 337 505 Q424 505 476 442 Q528 379 528 262 Z M368 262 Q368 307 349.5 336 Q331 365 289 365 Q248 365 229 337 Q210 309 210 268 L210 228 Q210 187 229 159 Q248 131 289 131 Q331 131 349.5 160.5 Q368 190 368 234 L368 262 Z " />
<glyph glyph-name="c" unicode="c" horiz-adv-x="503" d="M483 179 Q476 90 416.5 40.5 Q357 -9 260 -9 Q151 -9 88 53 Q25 115 25 232 L25 264 Q25 381 88 443 Q151 505 260 505 Q357 505 416 457.5 Q475 410 480 330 L481 316 L321 316 Q316 339 299.5 352 Q283 365 257 365 Q218 365 201.5 336.5 Q185 308 185 264 L185 232 Q185 188 201.5 159.5 Q218 131 257 131 Q286 131 302.5 147.5 Q319 164 324 193 L484 193 L483 179 Z " />
<glyph glyph-name="cacute" unicode="&#x107;" horiz-adv-x="503" d="M483 179 Q476 90 416.5 40.5 Q357 -9 260 -9 Q151 -9 88 53 Q25 115 25 232 L25 264 Q25 381 88 443 Q151 505 260 505 Q357 505 416 457.5 Q475 410 480 330 L481 316 L321 316 Q316 339 299.5 352 Q283 365 257 365 Q218 365 201.5 336.5 Q185 308 185 264 L185 232 Q185 188 201.5 159.5 Q218 131 257 131 Q286 131 302.5 147.5 Q319 164 324 193 L484 193 L483 179 Z M327 560 L197 560 Q225 630 264 685 L421 685 Q378 635 327 560 Z " />
<glyph glyph-name="ccaron" unicode="&#x10d;" horiz-adv-x="503" d="M483 179 Q476 90 416.5 40.5 Q357 -9 260 -9 Q151 -9 88 53 Q25 115 25 232 L25 264 Q25 381 88 443 Q151 505 260 505 Q357 505 416 457.5 Q475 410 480 330 L481 316 L321 316 Q316 339 299.5 352 Q283 365 257 365 Q218 365 201.5 336.5 Q185 308 185 264 L185 232 Q185 188 201.5 159.5 Q218 131 257 131 Q286 131 302.5 147.5 Q319 164 324 193 L484 193 L483 179 Z M443 680 Q417 622 366 560 L171 560 Q120 622 94 680 L215 680 Q233 651 269 612 Q306 654 322 680 L443 680 Z " />
<glyph glyph-name="ccedilla" unicode="&#xe7;" horiz-adv-x="503" d="M484 193 L483 179 Q477 97 425 48 Q373 -1 287 -8 L272 -37 Q311 -43 335 -65 Q359 -87 359 -123 Q359 -168 327.5 -192 Q296 -216 246 -216 Q215 -216 186.5 -206.5 Q158 -197 140 -180 L175 -124 Q205 -146 240 -146 Q258 -146 269 -139.5 Q280 -133 280 -120 Q280 -107 267.5 -101 Q255 -95 237 -95 Q222 -95 202 -100 L182 -75 L216 -6 Q127 6 76 66.5 Q25 127 25 232 L25 264 Q25 381 88 443 Q151 505 260 505 Q357 505 416 457.5 Q475 410 480 330 L481 316 L321 316 Q316 339 299.5 352 Q283 365 257 365 Q218 365 201.5 336.5 Q185 308 185 264 L185 232 Q185 188 201.5 159.5 Q218 131 257 131 Q286 131 302.5 147.5 Q319 164 324 193 L484 193 Z " />
<glyph glyph-name="cdotaccent" unicode="&#x10b;" horiz-adv-x="503" d="M483 179 Q476 90 416.5 40.5 Q357 -9 260 -9 Q151 -9 88 53 Q25 115 25 232 L25 264 Q25 381 88 443 Q151 505 260 505 Q357 505 416 457.5 Q475 410 480 330 L481 316 L321 316 Q316 339 299.5 352 Q283 365 257 365 Q218 365 201.5 336.5 Q185 308 185 264 L185 232 Q185 188 201.5 159.5 Q218 131 257 131 Q286 131 302.5 147.5 Q319 164 324 193 L484 193 L483 179 Z M183 628 Q183 664 208 686.5 Q233 709 269 709 Q305 709 330 686.5 Q355 664 355 628 Q355 592 330 569.5 Q305 547 269 547 Q233 547 208 569.5 Q183 592 183 628 Z " />
<glyph glyph-name="d" unicode="d" horiz-adv-x="553" d="M503 700 L503 0 L351 0 L351 58 Q306 -9 216 -9 Q129 -9 77 54 Q25 117 25 234 L25 262 Q25 379 77 442 Q129 505 216 505 Q298 505 343 449 L343 700 L503 700 Z M343 228 L343 268 Q343 309 324 337 Q305 365 264 365 Q222 365 203.5 336 Q185 307 185 262 L185 234 Q185 190 203.5 160.5 Q222 131 264 131 Q305 131 324 159 Q343 187 343 228 Z " />
<glyph glyph-name="eth" unicode="&#xf0;" horiz-adv-x="528" d="M503 283 L503 242 Q503 162 472.5 105.5 Q442 49 388 20 Q334 -9 264 -9 Q157 -9 91 54 Q25 117 25 234 L25 252 Q25 329 52.5 384 Q80 439 126.5 467.5 Q173 496 229 496 Q283 496 317 469 Q301 504 276 540 L174 512 L150 595 L216 613 Q164 667 113 700 L303 700 Q331 682 360 652 L443 674 L467 591 L418 578 Q457 517 480 441.5 Q503 366 503 283 Z M343 252 Q343 297 324.5 326 Q306 355 264 355 Q222 355 203.5 326 Q185 297 185 252 L185 234 Q185 190 203.5 160.5 Q222 131 264 131 Q306 131 324.5 160.5 Q343 190 343 234 L343 252 Z " />
<glyph glyph-name="dcaron" unicode="&#x10f;" horiz-adv-x="652" d="M503 700 L503 0 L351 0 L351 58 Q306 -9 216 -9 Q129 -9 77 54 Q25 117 25 234 L25 262 Q25 379 77 442 Q129 505 216 505 Q298 505 343 449 L343 700 L503 700 Z M343 228 L343 268 Q343 309 324 337 Q305 365 264 365 Q222 365 203.5 336 Q185 307 185 262 L185 234 Q185 190 203.5 160.5 Q222 131 264 131 Q305 131 324 159 Q343 187 343 228 Z M608 519 L535 519 Q542 555 548 606.5 Q554 658 554 700 L664 700 Q662 639 645 593.5 Q628 548 608 519 Z " />
<glyph glyph-name="dslash" unicode="&#x111;" horiz-adv-x="553" d="M552 533 L503 533 L503 0 L351 0 L351 58 Q306 -9 216 -9 Q129 -9 77 54 Q25 117 25 234 L25 262 Q25 379 77 442 Q129 505 216 505 Q298 505 343 449 L343 533 L227 533 L227 635 L343 635 L343 700 L503 700 L503 635 L552 635 L552 533 Z M343 228 L343 268 Q343 309 324 337 Q305 365 264 365 Q222 365 203.5 336 Q185 307 185 262 L185 234 Q185 190 203.5 160.5 Q222 131 264 131 Q305 131 324 159 Q343 187 343 228 Z " />
<glyph glyph-name="e" unicode="e" horiz-adv-x="522" d="M181 205 Q185 169 205.5 147 Q226 125 264 125 Q320 125 337 169 L497 169 Q480 84 422.5 37.5 Q365 -9 264 -9 Q156 -9 90.5 54 Q25 117 25 234 L25 262 Q25 379 91 442 Q157 505 265 505 Q374 505 436 442 Q498 379 498 273 L498 205 L181 205 Z M182 305 L347 305 Q341 336 321.5 355 Q302 374 265 374 Q196 374 182 305 Z " />
<glyph glyph-name="eacute" unicode="&#xe9;" horiz-adv-x="522" d="M181 205 Q185 169 205.5 147 Q226 125 264 125 Q320 125 337 169 L497 169 Q480 84 422.5 37.5 Q365 -9 264 -9 Q156 -9 90.5 54 Q25 117 25 234 L25 262 Q25 379 91 442 Q157 505 265 505 Q374 505 436 442 Q498 379 498 273 L498 205 L181 205 Z M182 305 L347 305 Q341 336 321.5 355 Q302 374 265 374 Q196 374 182 305 Z M329 560 L199 560 Q227 630 266 685 L423 685 Q380 635 329 560 Z " />
<glyph glyph-name="ecaron" unicode="&#x11b;" horiz-adv-x="522" d="M181 205 Q185 169 205.5 147 Q226 125 264 125 Q320 125 337 169 L497 169 Q480 84 422.5 37.5 Q365 -9 264 -9 Q156 -9 90.5 54 Q25 117 25 234 L25 262 Q25 379 91 442 Q157 505 265 505 Q374 505 436 442 Q498 379 498 273 L498 205 L181 205 Z M182 305 L347 305 Q341 336 321.5 355 Q302 374 265 374 Q196 374 182 305 Z M445 680 Q419 622 368 560 L173 560 Q122 622 96 680 L217 680 Q235 651 271 612 Q308 654 324 680 L445 680 Z " />
<glyph glyph-name="ecircumflex" unicode="&#xea;" horiz-adv-x="522" d="M181 205 Q185 169 205.5 147 Q226 125 264 125 Q320 125 337 169 L497 169 Q480 84 422.5 37.5 Q365 -9 264 -9 Q156 -9 90.5 54 Q25 117 25 234 L25 262 Q25 379 91 442 Q157 505 265 505 Q374 505 436 442 Q498 379 498 273 L498 205 L181 205 Z M182 305 L347 305 Q341 336 321.5 355 Q302 374 265 374 Q196 374 182 305 Z M324 560 Q308 586 271 628 Q235 589 217 560 L96 560 Q122 618 173 680 L368 680 Q419 618 445 560 L324 560 Z " />
<glyph glyph-name="edieresis" unicode="&#xeb;" horiz-adv-x="522" d="M181 205 Q185 169 205.5 147 Q226 125 264 125 Q320 125 337 169 L497 169 Q480 84 422.5 37.5 Q365 -9 264 -9 Q156 -9 90.5 54 Q25 117 25 234 L25 262 Q25 379 91 442 Q157 505 265 505 Q374 505 436 442 Q498 379 498 273 L498 205 L181 205 Z M182 305 L347 305 Q341 336 321.5 355 Q302 374 265 374 Q196 374 182 305 Z M94 628 Q94 661 117 683 Q140 705 173 705 Q208 705 230.5 683.5 Q253 662 253 628 Q253 594 230.5 572.5 Q208 551 173 551 Q140 551 117 573 Q94 595 94 628 Z M289 628 Q289 661 312 683 Q335 705 368 705 Q403 705 425.5 683.5 Q448 662 448 628 Q448 594 425.5 572.5 Q403 551 368 551 Q335 551 312 573 Q289 595 289 628 Z " />
<glyph glyph-name="edotaccent" unicode="&#x117;" horiz-adv-x="522" d="M181 205 Q185 169 205.5 147 Q226 125 264 125 Q320 125 337 169 L497 169 Q480 84 422.5 37.5 Q365 -9 264 -9 Q156 -9 90.5 54 Q25 117 25 234 L25 262 Q25 379 91 442 Q157 505 265 505 Q374 505 436 442 Q498 379 498 273 L498 205 L181 205 Z M182 305 L347 305 Q341 336 321.5 355 Q302 374 265 374 Q196 374 182 305 Z M185 628 Q185 664 210 686.5 Q235 709 271 709 Q307 709 332 686.5 Q357 664 357 628 Q357 592 332 569.5 Q307 547 271 547 Q235 547 210 569.5 Q185 592 185 628 Z " />
<glyph glyph-name="egrave" unicode="&#xe8;" horiz-adv-x="522" d="M181 205 Q185 169 205.5 147 Q226 125 264 125 Q320 125 337 169 L497 169 Q480 84 422.5 37.5 Q365 -9 264 -9 Q156 -9 90.5 54 Q25 117 25 234 L25 262 Q25 379 91 442 Q157 505 265 505 Q374 505 436 442 Q498 379 498 273 L498 205 L181 205 Z M182 305 L347 305 Q341 336 321.5 355 Q302 374 265 374 Q196 374 182 305 Z M269 685 Q308 630 336 560 L215 560 Q162 632 112 685 L269 685 Z " />
<glyph glyph-name="emacron" unicode="&#x113;" horiz-adv-x="522" d="M181 205 Q185 169 205.5 147 Q226 125 264 125 Q320 125 337 169 L497 169 Q480 84 422.5 37.5 Q365 -9 264 -9 Q156 -9 90.5 54 Q25 117 25 234 L25 262 Q25 379 91 442 Q157 505 265 505 Q374 505 436 442 Q498 379 498 273 L498 205 L181 205 Z M182 305 L347 305 Q341 336 321.5 355 Q302 374 265 374 Q196 374 182 305 Z M416 668 L416 562 L126 562 L126 668 L416 668 Z " />
<glyph glyph-name="eogonek" unicode="&#x119;" horiz-adv-x="522" d="M243 -96 Q243 -46 288 -8 Q280 -9 264 -9 Q156 -9 90.5 54 Q25 117 25 234 L25 262 Q25 379 91 442 Q157 505 265 505 Q374 505 436 442 Q498 379 498 273 L498 205 L181 205 Q185 169 205.5 147 Q226 125 264 125 Q320 125 337 169 L497 169 Q490 123 468.5 89 Q447 55 410 26 Q383 5 370 -13.5 Q357 -32 357 -53 Q357 -89 397 -89 L405 -89 L405 -186 Q392 -189 370 -189 Q310 -189 276.5 -166.5 Q243 -144 243 -96 Z M347 305 Q341 336 321.5 355 Q302 374 265 374 Q196 374 182 305 L347 305 Z " />
<glyph glyph-name="f" unicode="f" horiz-adv-x="351" d="M304 560 Q268 560 255.5 545.5 Q243 531 243 500 L243 496 L324 496 L324 363 L243 363 L243 0 L83 0 L83 363 L20 363 L20 496 L83 496 L83 540 Q83 622 129 663.5 Q175 705 274 705 Q308 705 328 700 L328 559 Q319 560 304 560 Z " />
<glyph glyph-name="g" unicode="g" horiz-adv-x="540" d="M492 496 L492 18 Q492 -85 428.5 -127 Q365 -169 264 -169 Q154 -169 99.5 -128 Q45 -87 38 -16 L37 -6 L203 -6 Q206 -27 222 -40.5 Q238 -54 268 -54 Q332 -54 332 12 L332 62 Q294 22 225 22 Q135 22 80.5 81 Q26 140 26 250 L26 278 Q26 388 80.5 446.5 Q135 505 225 505 Q300 505 338 458 L338 496 L492 496 Z M332 244 L332 284 Q332 320 315 342.5 Q298 365 260 365 Q222 365 204 340 Q186 315 186 278 L186 250 Q186 213 204 187.5 Q222 162 260 162 Q298 162 315 185.5 Q332 209 332 244 Z " />
<glyph glyph-name="gbreve" unicode="&#x11f;" horiz-adv-x="540" d="M492 496 L492 18 Q492 -85 428.5 -127 Q365 -169 264 -169 Q154 -169 99.5 -128 Q45 -87 38 -16 L37 -6 L203 -6 Q206 -27 222 -40.5 Q238 -54 268 -54 Q332 -54 332 12 L332 62 Q294 22 225 22 Q135 22 80.5 81 Q26 140 26 250 L26 278 Q26 388 80.5 446.5 Q135 505 225 505 Q300 505 338 458 L338 496 L492 496 Z M332 244 L332 284 Q332 320 315 342.5 Q298 365 260 365 Q222 365 204 340 Q186 315 186 278 L186 250 Q186 213 204 187.5 Q222 162 260 162 Q298 162 315 185.5 Q332 209 332 244 Z M425 680 Q425 616 382 582 Q339 548 271 548 Q203 548 160 582 Q117 616 117 680 L218 680 Q218 659 231 643.5 Q244 628 271 628 Q298 628 311.5 644 Q325 660 325 680 L425 680 L425 680 Z " />
<glyph glyph-name="gcommaaccent" unicode="&#x123;" horiz-adv-x="540" d="M492 496 L492 18 Q492 -85 428.5 -127 Q365 -169 264 -169 Q154 -169 99.5 -128 Q45 -87 38 -16 L37 -6 L203 -6 Q206 -27 222 -40.5 Q238 -54 268 -54 Q332 -54 332 12 L332 62 Q294 22 225 22 Q135 22 80.5 81 Q26 140 26 250 L26 278 Q26 388 80.5 446.5 Q135 505 225 505 Q300 505 338 458 L338 496 L492 496 Z M332 244 L332 284 Q332 320 315 342.5 Q298 365 260 365 Q222 365 204 340 Q186 315 186 278 L186 250 Q186 213 204 187.5 Q222 162 260 162 Q298 162 315 185.5 Q332 209 332 244 Z M330 564 L198 564 Q199 642 247 715 L344 715 Q330 640 330 564 Z " />
<glyph glyph-name="gdotaccent" unicode="&#x121;" horiz-adv-x="540" d="M492 496 L492 18 Q492 -85 428.5 -127 Q365 -169 264 -169 Q154 -169 99.5 -128 Q45 -87 38 -16 L37 -6 L203 -6 Q206 -27 222 -40.5 Q238 -54 268 -54 Q332 -54 332 12 L332 62 Q294 22 225 22 Q135 22 80.5 81 Q26 140 26 250 L26 278 Q26 388 80.5 446.5 Q135 505 225 505 Q300 505 338 458 L338 496 L492 496 Z M332 244 L332 284 Q332 320 315 342.5 Q298 365 260 365 Q222 365 204 340 Q186 315 186 278 L186 250 Q186 213 204 187.5 Q222 162 260 162 Q298 162 315 185.5 Q332 209 332 244 Z M184 628 Q184 664 209 686.5 Q234 709 270 709 Q306 709 331 686.5 Q356 664 356 628 Q356 592 331 569.5 Q306 547 270 547 Q234 547 209 569.5 Q184 592 184 628 Z " />
<glyph glyph-name="h" unicode="h" horiz-adv-x="552" d="M504 332 L504 0 L344 0 L344 290 Q344 365 279 365 Q247 365 228.5 345.5 Q210 326 210 289 L210 0 L50 0 L50 700 L210 700 L210 441 Q228 469 261 487 Q294 505 341 505 Q416 505 460 458.5 Q504 412 504 332 Z " />
<glyph glyph-name="hbar" unicode="&#x127;" horiz-adv-x="552" d="M504 332 L504 0 L344 0 L344 290 Q344 365 279 365 Q247 365 228.5 345.5 Q210 326 210 289 L210 0 L50 0 L50 533 L-10 533 L-10 635 L50 635 L50 700 L210 700 L210 635 L315 635 L315 533 L210 533 L210 441 Q228 469 261 487 Q294 505 341 505 Q416 505 460 458.5 Q504 412 504 332 Z " />
<glyph glyph-name="i" unicode="i" horiz-adv-x="260" d="M210 0 L50 0 L50 496 L210 496 L210 0 Z M44 628 Q44 664 69 686.5 Q94 709 130 709 Q166 709 191 686.5 Q216 664 216 628 Q216 592 191 569.5 Q166 547 130 547 Q94 547 69 569.5 Q44 592 44 628 Z " />
<glyph glyph-name="dotlessi" unicode="&#x131;" horiz-adv-x="260" d="M210 0 L50 0 L50 496 L210 496 L210 0 Z " />
<glyph glyph-name="iacute" unicode="&#xed;" horiz-adv-x="260" d="M210 0 L50 0 L50 496 L210 496 L210 0 Z M188 560 L58 560 Q86 630 125 685 L282 685 Q239 635 188 560 Z " />
<glyph glyph-name="icircumflex" unicode="&#xee;" horiz-adv-x="260" d="M210 0 L50 0 L50 496 L210 496 L210 0 Z M183 560 Q167 586 130 628 Q94 589 76 560 L-45 560 Q-19 618 32 680 L227 680 Q278 618 304 560 L183 560 Z " />
<glyph glyph-name="idieresis" unicode="&#xef;" horiz-adv-x="260" d="M210 0 L50 0 L50 496 L210 496 L210 0 Z M-47 628 Q-47 661 -24 683 Q-1 705 32 705 Q67 705 89.5 683.5 Q112 662 112 628 Q112 594 89.5 572.5 Q67 551 32 551 Q-1 551 -24 573 Q-47 595 -47 628 Z M148 628 Q148 661 171 683 Q194 705 227 705 Q262 705 284.5 683.5 Q307 662 307 628 Q307 594 284.5 572.5 Q262 551 227 551 Q194 551 171 573 Q148 595 148 628 Z " />
<glyph glyph-name="igrave" unicode="&#xec;" horiz-adv-x="260" d="M210 0 L50 0 L50 496 L210 496 L210 0 Z M128 685 Q167 630 195 560 L74 560 Q21 632 -29 685 L128 685 Z " />
<glyph glyph-name="imacron" unicode="&#x12b;" horiz-adv-x="260" d="M210 0 L50 0 L50 496 L210 496 L210 0 Z M275 668 L275 562 L-15 562 L-15 668 L275 668 Z " />
<glyph glyph-name="iogonek" unicode="&#x12f;" horiz-adv-x="260" d="M44 628 Q44 664 69 686.5 Q94 709 130 709 Q166 709 191 686.5 Q216 664 216 628 Q216 592 191 569.5 Q166 547 130 547 Q94 547 69 569.5 Q44 592 44 628 Z M50 496 L210 496 L210 0 Q159 -25 159 -58 Q159 -72 169 -80.5 Q179 -89 201 -89 L207 -89 L207 -186 Q194 -189 169 -189 Q111 -189 78 -164.5 Q45 -140 45 -95 Q45 -39 99 0 L50 0 L50 496 Z " />
<glyph glyph-name="j" unicode="j" horiz-adv-x="260" d="M44 628 Q44 664 69 686.5 Q94 709 130 709 Q166 709 191 686.5 Q216 664 216 628 Q216 592 191 569.5 Q166 547 130 547 Q94 547 69 569.5 Q44 592 44 628 Z M1 -25 Q27 -23 38.5 -4.5 Q50 14 50 51 L50 496 L210 496 L210 28 Q210 -78 157.5 -121.5 Q105 -165 1 -165 L1 -25 Z " />
<glyph glyph-name="k" unicode="k" horiz-adv-x="514" d="M254 188 Q236 171 200 141 L200 0 L50 0 L50 700 L200 700 L200 316 Q281 409 333 496 L500 496 Q444 391 361 297 Q409 224 453.5 141.5 Q498 59 522 0 L354 0 Q311 95 254 188 Z " />
<glyph glyph-name="kcommaaccent" unicode="&#x137;" horiz-adv-x="514" d="M254 188 Q236 171 200 141 L200 0 L50 0 L50 700 L200 700 L200 316 Q281 409 333 496 L500 496 Q444 391 361 297 Q409 224 453.5 141.5 Q498 59 522 0 L354 0 Q311 95 254 188 Z M213 -49 L345 -49 Q344 -127 296 -200 L199 -200 Q213 -125 213 -49 Z " />
<glyph glyph-name="l" unicode="l" horiz-adv-x="275" d="M207 195 Q207 155 217 141 Q227 127 254 128 L254 1 Q227 -8 194 -8 Q115 -8 81 26 Q47 60 47 131 L47 700 L207 700 L207 195 Z " />
<glyph glyph-name="lacute" unicode="&#x13a;" horiz-adv-x="275" d="M207 195 Q207 155 217 141 Q227 127 254 128 L254 1 Q227 -8 194 -8 Q115 -8 81 26 Q47 60 47 131 L47 700 L207 700 L207 195 Z M199 755 L69 755 Q97 825 136 880 L293 880 Q250 830 199 755 Z " />
<glyph glyph-name="lcaron" unicode="&#x13e;" horiz-adv-x="357" d="M207 195 Q207 155 217 141 Q227 127 254 128 L254 1 Q227 -8 194 -8 Q115 -8 81 26 Q47 60 47 131 L47 700 L207 700 L207 195 Z M313 519 L240 519 Q247 555 253 606.5 Q259 658 259 700 L369 700 Q367 639 350 593.5 Q333 548 313 519 Z " />
<glyph glyph-name="lcommaaccent" unicode="&#x13c;" horiz-adv-x="275" d="M207 195 Q207 155 217 141 Q227 127 254 128 L254 1 Q227 -8 194 -8 Q115 -8 81 26 Q47 60 47 131 L47 700 L207 700 L207 195 Z M100 -49 L232 -49 Q231 -127 183 -200 L86 -200 Q100 -125 100 -49 Z " />
<glyph glyph-name="lslash" unicode="&#x142;" horiz-adv-x="321" d="M229 343 L229 198 Q229 160 239 146 Q249 132 276 133 L276 5 Q252 -3 219 -3 Q140 -3 104.5 31 Q69 65 69 136 L69 258 L19 232 L19 352 L69 379 L69 700 L229 700 L229 464 L290 496 L290 375 L229 343 Z " />
<glyph glyph-name="m" unicode="m" horiz-adv-x="826" d="M778 332 L778 0 L618 0 L618 290 Q618 365 558 365 Q527 365 510.5 345 Q494 325 494 289 L494 0 L334 0 L334 290 Q334 365 274 365 Q243 365 226.5 345 Q210 325 210 289 L210 0 L50 0 L50 496 L202 496 L202 428 Q216 461 249.5 483 Q283 505 336 505 Q381 505 415 486 Q449 467 469 433 Q519 505 610 505 Q688 505 733 457.5 Q778 410 778 332 Z " />
<glyph glyph-name="n" unicode="n" horiz-adv-x="552" d="M504 332 L504 0 L344 0 L344 290 Q344 365 279 365 Q247 365 228.5 345.5 Q210 326 210 289 L210 0 L50 0 L50 496 L202 496 L202 427 Q217 460 252.5 482.5 Q288 505 341 505 Q416 505 460 458.5 Q504 412 504 332 Z " />
<glyph glyph-name="nacute" unicode="&#x144;" horiz-adv-x="552" d="M504 332 L504 0 L344 0 L344 290 Q344 365 279 365 Q247 365 228.5 345.5 Q210 326 210 289 L210 0 L50 0 L50 496 L202 496 L202 427 Q217 460 252.5 482.5 Q288 505 341 505 Q416 505 460 458.5 Q504 412 504 332 Z M344 560 L214 560 Q242 630 281 685 L438 685 Q395 635 344 560 Z " />
<glyph glyph-name="ncaron" unicode="&#x148;" horiz-adv-x="552" d="M504 332 L504 0 L344 0 L344 290 Q344 365 279 365 Q247 365 228.5 345.5 Q210 326 210 289 L210 0 L50 0 L50 496 L202 496 L202 427 Q217 460 252.5 482.5 Q288 505 341 505 Q416 505 460 458.5 Q504 412 504 332 Z M460 680 Q434 622 383 560 L188 560 Q137 622 111 680 L232 680 Q250 651 286 612 Q323 654 339 680 L460 680 Z " />
<glyph glyph-name="ncommaaccent" unicode="&#x146;" horiz-adv-x="552" d="M504 332 L504 0 L344 0 L344 290 Q344 365 279 365 Q247 365 228.5 345.5 Q210 326 210 289 L210 0 L50 0 L50 496 L202 496 L202 427 Q217 460 252.5 482.5 Q288 505 341 505 Q416 505 460 458.5 Q504 412 504 332 Z M206 -49 L338 -49 Q337 -127 289 -200 L192 -200 Q206 -125 206 -49 Z " />
<glyph glyph-name="eng" unicode="&#x14b;" horiz-adv-x="552" d="M504 332 L504 0 L344 0 L344 290 Q344 365 279 365 Q247 365 228.5 345.5 Q210 326 210 289 L210 0 L50 0 L50 496 L202 496 L202 427 Q217 460 252.5 482.5 Q288 505 341 505 Q416 505 460 458.5 Q504 412 504 332 Z " />
<glyph glyph-name="ntilde" unicode="&#xf1;" horiz-adv-x="552" d="M504 332 L504 0 L344 0 L344 290 Q344 365 279 365 Q247 365 228.5 345.5 Q210 326 210 289 L210 0 L50 0 L50 496 L202 496 L202 427 Q217 460 252.5 482.5 Q288 505 341 505 Q416 505 460 458.5 Q504 412 504 332 Z M355 554 Q332 554 314 559.5 Q296 565 274 575 Q258 583 247 586.5 Q236 590 225 590 Q210 590 201.5 581.5 Q193 573 192 554 L119 554 Q121 612 148 647 Q175 682 221 682 Q240 682 256 676.5 Q272 671 294 661 Q307 655 320.5 650 Q334 645 346 645 Q377 645 379 682 L452 682 Q450 622 425 588 Q400 554 355 554 Z " />
<glyph glyph-name="o" unicode="o" horiz-adv-x="528" d="M25 233 L25 263 Q25 380 90.5 443 Q156 506 264 506 Q372 506 437.5 443 Q503 380 503 263 L503 233 Q503 116 437.5 53 Q372 -10 264 -10 Q156 -10 90.5 53 Q25 116 25 233 Z M343 233 L343 263 Q343 308 325 337 Q307 366 264 366 Q221 366 203 337 Q185 308 185 263 L185 233 Q185 189 203 159.5 Q221 130 264 130 Q307 130 325 159.5 Q343 189 343 233 Z " />
<glyph glyph-name="oacute" unicode="&#xf3;" horiz-adv-x="528" d="M25 233 L25 263 Q25 380 90.5 443 Q156 506 264 506 Q372 506 437.5 443 Q503 380 503 263 L503 233 Q503 116 437.5 53 Q372 -10 264 -10 Q156 -10 90.5 53 Q25 116 25 233 Z M343 233 L343 263 Q343 308 325 337 Q307 366 264 366 Q221 366 203 337 Q185 308 185 263 L185 233 Q185 189 203 159.5 Q221 130 264 130 Q307 130 325 159.5 Q343 189 343 233 Z M322 560 L192 560 Q220 630 259 685 L416 685 Q373 635 322 560 Z " />
<glyph glyph-name="ocircumflex" unicode="&#xf4;" horiz-adv-x="528" d="M25 233 L25 263 Q25 380 90.5 443 Q156 506 264 506 Q372 506 437.5 443 Q503 380 503 263 L503 233 Q503 116 437.5 53 Q372 -10 264 -10 Q156 -10 90.5 53 Q25 116 25 233 Z M343 233 L343 263 Q343 308 325 337 Q307 366 264 366 Q221 366 203 337 Q185 308 185 263 L185 233 Q185 189 203 159.5 Q221 130 264 130 Q307 130 325 159.5 Q343 189 343 233 Z M317 560 Q301 586 264 628 Q228 589 210 560 L89 560 Q115 618 166 680 L361 680 Q412 618 438 560 L317 560 Z " />
<glyph glyph-name="odieresis" unicode="&#xf6;" horiz-adv-x="528" d="M25 233 L25 263 Q25 380 90.5 443 Q156 506 264 506 Q372 506 437.5 443 Q503 380 503 263 L503 233 Q503 116 437.5 53 Q372 -10 264 -10 Q156 -10 90.5 53 Q25 116 25 233 Z M343 233 L343 263 Q343 308 325 337 Q307 366 264 366 Q221 366 203 337 Q185 308 185 263 L185 233 Q185 189 203 159.5 Q221 130 264 130 Q307 130 325 159.5 Q343 189 343 233 Z M87 628 Q87 661 110 683 Q133 705 166 705 Q201 705 223.5 683.5 Q246 662 246 628 Q246 594 223.5 572.5 Q201 551 166 551 Q133 551 110 573 Q87 595 87 628 Z M282 628 Q282 661 305 683 Q328 705 361 705 Q396 705 418.5 683.5 Q441 662 441 628 Q441 594 418.5 572.5 Q396 551 361 551 Q328 551 305 573 Q282 595 282 628 Z " />
<glyph glyph-name="ograve" unicode="&#xf2;" horiz-adv-x="528" d="M25 233 L25 263 Q25 380 90.5 443 Q156 506 264 506 Q372 506 437.5 443 Q503 380 503 263 L503 233 Q503 116 437.5 53 Q372 -10 264 -10 Q156 -10 90.5 53 Q25 116 25 233 Z M343 233 L343 263 Q343 308 325 337 Q307 366 264 366 Q221 366 203 337 Q185 308 185 263 L185 233 Q185 189 203 159.5 Q221 130 264 130 Q307 130 325 159.5 Q343 189 343 233 Z M262 685 Q301 630 329 560 L208 560 Q155 632 105 685 L262 685 Z " />
<glyph glyph-name="ohungarumlaut" unicode="&#x151;" horiz-adv-x="528" d="M25 233 L25 263 Q25 380 90.5 443 Q156 506 264 506 Q372 506 437.5 443 Q503 380 503 263 L503 233 Q503 116 437.5 53 Q372 -10 264 -10 Q156 -10 90.5 53 Q25 116 25 233 Z M343 233 L343 263 Q343 308 325 337 Q307 366 264 366 Q221 366 203 337 Q185 308 185 263 L185 233 Q185 189 203 159.5 Q221 130 264 130 Q307 130 325 159.5 Q343 189 343 233 Z M234 560 L123 560 Q141 608 179 680 L312 680 Q275 636 234 560 Z M404 560 L293 560 Q325 628 360 680 L493 680 Q469 650 404 560 Z " />
<glyph glyph-name="omacron" unicode="&#x14d;" horiz-adv-x="528" d="M25 233 L25 263 Q25 380 90.5 443 Q156 506 264 506 Q372 506 437.5 443 Q503 380 503 263 L503 233 Q503 116 437.5 53 Q372 -10 264 -10 Q156 -10 90.5 53 Q25 116 25 233 Z M343 233 L343 263 Q343 308 325 337 Q307 366 264 366 Q221 366 203 337 Q185 308 185 263 L185 233 Q185 189 203 159.5 Q221 130 264 130 Q307 130 325 159.5 Q343 189 343 233 Z M409 668 L409 562 L119 562 L119 668 L409 668 Z " />
<glyph glyph-name="oslash" unicode="&#xf8;" horiz-adv-x="538" d="M513 263 L513 233 Q513 116 446 53 Q379 -10 269 -10 Q223 -10 182 2 L158 -44 L83 -11 L109 38 Q69 70 47 119 Q25 168 25 233 L25 263 Q25 380 92 443 Q159 506 269 506 Q314 506 350 496 L370 534 L445 501 L424 461 Q466 430 489.5 380 Q513 330 513 263 Z M187 187 L285 373 Q280 374 269 374 Q222 374 202 343.5 Q182 313 182 266 L182 230 Q182 203 187 187 Z M356 266 Q356 296 349 318 L247 124 Q259 122 269 122 Q316 122 336 153 Q356 184 356 230 L356 266 Z " />
<glyph glyph-name="otilde" unicode="&#xf5;" horiz-adv-x="528" d="M25 233 L25 263 Q25 380 90.5 443 Q156 506 264 506 Q372 506 437.5 443 Q503 380 503 263 L503 233 Q503 116 437.5 53 Q372 -10 264 -10 Q156 -10 90.5 53 Q25 116 25 233 Z M343 233 L343 263 Q343 308 325 337 Q307 366 264 366 Q221 366 203 337 Q185 308 185 263 L185 233 Q185 189 203 159.5 Q221 130 264 130 Q307 130 325 159.5 Q343 189 343 233 Z M333 554 Q310 554 292 559.5 Q274 565 252 575 Q236 583 225 586.5 Q214 590 203 590 Q188 590 179.5 581.5 Q171 573 170 554 L97 554 Q99 612 126 647 Q153 682 199 682 Q218 682 234 676.5 Q250 671 272 661 Q285 655 298.5 650 Q312 645 324 645 Q355 645 357 682 L430 682 Q428 622 403 588 Q378 554 333 554 Z " />
<glyph glyph-name="oe" unicode="&#x153;" horiz-adv-x="842" d="M501 205 Q505 169 525.5 147 Q546 125 584 125 Q640 125 657 169 L817 169 Q800 84 742.5 37.5 Q685 -9 584 -9 Q483 -9 423 48 Q362 -10 264 -10 Q156 -10 90.5 53 Q25 116 25 233 L25 263 Q25 380 90.5 443 Q156 506 264 506 Q362 506 423 447 Q484 505 585 505 Q694 505 756 442 Q818 379 818 273 L818 205 L501 205 Z M502 305 L667 305 Q661 336 641.5 355 Q622 374 585 374 Q516 374 502 305 Z M343 263 Q343 308 325 337 Q307 366 264 366 Q221 366 203 337 Q185 308 185 263 L185 233 Q185 189 203 159.5 Q221 130 264 130 Q307 130 325 159.5 Q343 189 343 233 L343 263 Z " />
<glyph glyph-name="p" unicode="p" horiz-adv-x="553" d="M528 262 L528 234 Q528 117 476 54 Q424 -9 337 -9 Q255 -9 210 47 L210 -160 L50 -160 L50 496 L202 496 L202 438 Q247 505 337 505 Q424 505 476 442 Q528 379 528 262 Z M368 262 Q368 306 349.5 335.5 Q331 365 289 365 Q248 365 229 337 Q210 309 210 268 L210 228 Q210 187 229 159 Q248 131 289 131 Q331 131 349.5 160 Q368 189 368 234 L368 262 Z " />
<glyph glyph-name="thorn" unicode="&#xfe;" horiz-adv-x="553" d="M528 262 L528 234 Q528 117 476 54 Q424 -9 337 -9 Q255 -9 210 47 L210 -160 L50 -160 L50 710 L210 710 L210 449 Q255 505 337 505 Q424 505 476 442 Q528 379 528 262 Z M368 262 Q368 306 349.5 335.5 Q331 365 289 365 Q248 365 229 337 Q210 309 210 268 L210 228 Q210 187 229 159 Q248 131 289 131 Q331 131 349.5 160 Q368 189 368 234 L368 262 Z " />
<glyph glyph-name="q" unicode="q" horiz-adv-x="553" d="M503 496 L503 -160 L343 -160 L343 47 Q298 -9 216 -9 Q129 -9 77 54 Q25 117 25 234 L25 262 Q25 379 77 442 Q129 505 216 505 Q306 505 351 438 L351 496 L503 496 Z M343 228 L343 268 Q343 309 324 337 Q305 365 264 365 Q222 365 203.5 335.5 Q185 306 185 262 L185 234 Q185 189 203.5 160 Q222 131 264 131 Q305 131 324 159 Q343 187 343 228 Z " />
<glyph glyph-name="r" unicode="r" horiz-adv-x="394" d="M379 496 L379 330 Q360 334 336 334 Q210 334 210 186 L210 0 L50 0 L50 496 L202 496 L202 381 Q212 429 244 464.5 Q276 500 339 500 Q363 500 379 496 Z " />
<glyph glyph-name="racute" unicode="&#x155;" horiz-adv-x="394" d="M379 496 L379 330 Q360 334 336 334 Q210 334 210 186 L210 0 L50 0 L50 496 L202 496 L202 381 Q212 429 244 464.5 Q276 500 339 500 Q363 500 379 496 Z M284 560 L154 560 Q182 630 221 685 L378 685 Q335 635 284 560 Z " />
<glyph glyph-name="rcaron" unicode="&#x159;" horiz-adv-x="394" d="M379 496 L379 330 Q360 334 336 334 Q210 334 210 186 L210 0 L50 0 L50 496 L202 496 L202 381 Q212 429 244 464.5 Q276 500 339 500 Q363 500 379 496 Z M400 680 Q374 622 323 560 L128 560 Q77 622 51 680 L172 680 Q190 651 226 612 Q263 654 279 680 L400 680 Z " />
<glyph glyph-name="rcommaaccent" unicode="&#x157;" horiz-adv-x="394" d="M379 496 L379 330 Q360 334 336 334 Q210 334 210 186 L210 0 L50 0 L50 496 L202 496 L202 381 Q212 429 244 464.5 Q276 500 339 500 Q363 500 379 496 Z M64 -49 L196 -49 Q195 -127 147 -200 L50 -200 Q64 -125 64 -49 Z " />
<glyph glyph-name="s" unicode="s" horiz-adv-x="482" d="M454 358 L455 345 L291 345 Q290 366 274 379 Q258 392 234 392 Q211 392 200 382.5 Q189 373 189 360 Q189 345 201.5 338 Q214 331 249 321 L305 306 Q393 283 428.5 247 Q464 211 464 151 Q464 79 408.5 34.5 Q353 -10 253 -10 Q147 -10 86.5 32 Q26 74 21 154 L20 170 L178 170 Q179 139 198.5 121.5 Q218 104 253 104 Q305 104 305 140 Q305 156 294 164 Q283 172 249 182 L192 198 Q133 214 98.5 231.5 Q64 249 46 277 Q28 305 28 349 Q28 390 50 426 Q72 462 118.5 484 Q165 506 234 506 Q337 506 393 467 Q449 428 454 358 Z " />
<glyph glyph-name="sacute" unicode="&#x15b;" horiz-adv-x="482" d="M454 358 L455 345 L291 345 Q290 366 274 379 Q258 392 234 392 Q211 392 200 382.5 Q189 373 189 360 Q189 345 201.5 338 Q214 331 249 321 L305 306 Q393 283 428.5 247 Q464 211 464 151 Q464 79 408.5 34.5 Q353 -10 253 -10 Q147 -10 86.5 32 Q26 74 21 154 L20 170 L178 170 Q179 139 198.5 121.5 Q218 104 253 104 Q305 104 305 140 Q305 156 294 164 Q283 172 249 182 L192 198 Q133 214 98.5 231.5 Q64 249 46 277 Q28 305 28 349 Q28 390 50 426 Q72 462 118.5 484 Q165 506 234 506 Q337 506 393 467 Q449 428 454 358 Z M303 560 L173 560 Q201 630 240 685 L397 685 Q354 635 303 560 Z " />
<glyph glyph-name="scaron" unicode="&#x161;" horiz-adv-x="482" d="M454 358 L455 345 L291 345 Q290 366 274 379 Q258 392 234 392 Q211 392 200 382.5 Q189 373 189 360 Q189 345 201.5 338 Q214 331 249 321 L305 306 Q393 283 428.5 247 Q464 211 464 151 Q464 79 408.5 34.5 Q353 -10 253 -10 Q147 -10 86.5 32 Q26 74 21 154 L20 170 L178 170 Q179 139 198.5 121.5 Q218 104 253 104 Q305 104 305 140 Q305 156 294 164 Q283 172 249 182 L192 198 Q133 214 98.5 231.5 Q64 249 46 277 Q28 305 28 349 Q28 390 50 426 Q72 462 118.5 484 Q165 506 234 506 Q337 506 393 467 Q449 428 454 358 Z M419 680 Q393 622 342 560 L147 560 Q96 622 70 680 L191 680 Q209 651 245 612 Q282 654 298 680 L419 680 Z " />
<glyph glyph-name="scedilla" unicode="&#x15f;" horiz-adv-x="482" d="M274 -8 L259 -37 Q298 -43 322 -65 Q346 -87 346 -123 Q346 -168 314.5 -192 Q283 -216 233 -216 Q202 -216 173.5 -206.5 Q145 -197 127 -180 L162 -124 Q192 -146 227 -146 Q245 -146 256 -139.5 Q267 -133 267 -120 Q267 -107 254.5 -101 Q242 -95 224 -95 Q209 -95 189 -100 L169 -75 L203 -6 Q120 3 72.5 43.5 Q25 84 21 154 L20 170 L178 170 Q179 139 198.5 121.5 Q218 104 253 104 Q305 104 305 140 Q305 156 294 164 Q283 172 249 182 L192 198 Q133 214 98.5 231.5 Q64 249 46 277 Q28 305 28 349 Q28 390 50 425.5 Q72 461 118.5 483 Q165 505 234 505 Q338 505 393.5 466.5 Q449 428 454 358 L455 345 L291 345 Q290 366 274 379 Q258 392 234 392 Q211 392 200 382.5 Q189 373 189 360 Q189 345 201.5 338 Q214 331 249 321 L305 306 Q393 283 428.5 247 Q464 211 464 151 Q464 83 414.5 39.5 Q365 -4 274 -8 Z " />
<glyph glyph-name="scommaaccent" unicode="&#x219;" horiz-adv-x="482" d="M454 358 L455 345 L291 345 Q290 366 274 379 Q258 392 234 392 Q211 392 200 382.5 Q189 373 189 360 Q189 345 201.5 338 Q214 331 249 321 L305 306 Q393 283 428.5 247 Q464 211 464 151 Q464 79 408.5 34.5 Q353 -10 253 -10 Q147 -10 86.5 32 Q26 74 21 154 L20 170 L178 170 Q179 139 198.5 121.5 Q218 104 253 104 Q305 104 305 140 Q305 156 294 164 Q283 172 249 182 L192 198 Q133 214 98.5 231.5 Q64 249 46 277 Q28 305 28 349 Q28 390 50 426 Q72 462 118.5 484 Q165 506 234 506 Q337 506 393 467 Q449 428 454 358 Z M174 -49 L306 -49 Q305 -127 257 -200 L160 -200 Q174 -125 174 -49 Z " />
<glyph glyph-name="germandbls" unicode="&#xdf;" horiz-adv-x="564" d="M541 207 Q541 101 476.5 48 Q412 -5 314 -5 Q276 -5 241 0 L241 142 Q262 135 291 135 Q331 135 356 154.5 Q381 174 381 218 Q381 265 346.5 282.5 Q312 300 256 300 L256 433 Q302 433 326.5 449.5 Q351 466 351 504 Q351 533 332.5 551.5 Q314 570 282 570 Q247 570 228.5 549 Q210 528 210 494 L210 0 L50 0 L50 486 Q50 590 109.5 649 Q169 708 281 708 Q388 708 449.5 656.5 Q511 605 511 518 Q511 467 490 432.5 Q469 398 435 382 Q485 364 513 320.5 Q541 277 541 207 Z " />
<glyph glyph-name="t" unicode="t" horiz-adv-x="355" d="M83 162 L83 363 L20 363 L20 496 L83 496 L83 623 L243 623 L243 496 L324 496 L324 363 L243 363 L243 185 Q243 158 257 146.5 Q271 135 301 135 Q315 135 324 136 L324 3 Q291 -6 253 -6 Q162 -6 122.5 34 Q83 74 83 162 Z " />
<glyph glyph-name="tbar" unicode="&#x167;" horiz-adv-x="355" d="M243 363 L243 306 L324 306 L324 213 L243 213 L243 186 Q243 159 257 147.5 Q271 136 301 136 Q315 136 324 137 L324 4 Q291 -5 253 -5 Q162 -5 122.5 35 Q83 75 83 163 L83 213 L20 213 L20 306 L83 306 L83 363 L20 363 L20 496 L83 496 L83 623 L243 623 L243 496 L324 496 L324 363 L243 363 Z " />
<glyph glyph-name="tcaron" unicode="&#x165;" horiz-adv-x="355" d="M83 162 L83 363 L20 363 L20 496 L83 496 L83 623 L243 623 L243 496 L324 496 L324 363 L243 363 L243 185 Q243 158 257 146.5 Q271 135 301 135 Q315 135 324 136 L324 3 Q291 -6 253 -6 Q162 -6 122.5 34 Q83 74 83 162 Z M354 542 L281 542 Q288 578 294 629.5 Q300 681 300 723 L410 723 Q408 662 391 616.5 Q374 571 354 542 Z " />
<glyph glyph-name="uni0163" unicode="&#x163;" horiz-adv-x="355" d="M243 363 L243 186 Q243 159 257 147.5 Q271 136 301 136 Q315 136 324 137 L324 4 Q291 -5 253 -5 L244 -5 L227 -37 Q266 -43 290 -65 Q314 -87 314 -123 Q314 -168 282.5 -192 Q251 -216 201 -216 Q170 -216 141.5 -206.5 Q113 -197 95 -180 L130 -124 Q160 -146 195 -146 Q213 -146 224 -139.5 Q235 -133 235 -120 Q235 -107 222.5 -101 Q210 -95 192 -95 Q177 -95 157 -100 L137 -75 L176 5 Q127 20 105 58.5 Q83 97 83 163 L83 363 L20 363 L20 496 L83 496 L83 623 L243 623 L243 496 L324 496 L324 363 L243 363 Z " />
<glyph glyph-name="uni021B" unicode="&#x21b;" horiz-adv-x="355" d="M83 162 L83 363 L20 363 L20 496 L83 496 L83 623 L243 623 L243 496 L324 496 L324 363 L243 363 L243 185 Q243 158 257 146.5 Q271 135 301 135 Q315 135 324 136 L324 3 Q291 -6 253 -6 Q162 -6 122.5 34 Q83 74 83 162 Z M142 -49 L274 -49 Q273 -127 225 -200 L128 -200 Q142 -125 142 -49 Z " />
<glyph glyph-name="u" unicode="u" horiz-adv-x="542" d="M492 496 L492 0 L340 0 L340 51 Q303 -9 219 -9 Q140 -9 94 36 Q48 81 48 161 L48 496 L208 496 L208 203 Q208 131 268 131 Q299 131 315.5 149.5 Q332 168 332 204 L332 496 L492 496 Z " />
<glyph glyph-name="uacute" unicode="&#xfa;" horiz-adv-x="542" d="M492 496 L492 0 L340 0 L340 51 Q303 -9 219 -9 Q140 -9 94 36 Q48 81 48 161 L48 496 L208 496 L208 203 Q208 131 268 131 Q299 131 315.5 149.5 Q332 168 332 204 L332 496 L492 496 Z M330 560 L200 560 Q228 630 267 685 L424 685 Q381 635 330 560 Z " />
<glyph glyph-name="ucircumflex" unicode="&#xfb;" horiz-adv-x="542" d="M492 496 L492 0 L340 0 L340 51 Q303 -9 219 -9 Q140 -9 94 36 Q48 81 48 161 L48 496 L208 496 L208 203 Q208 131 268 131 Q299 131 315.5 149.5 Q332 168 332 204 L332 496 L492 496 Z M325 560 Q309 586 272 628 Q236 589 218 560 L97 560 Q123 618 174 680 L369 680 Q420 618 446 560 L325 560 Z " />
<glyph glyph-name="udieresis" unicode="&#xfc;" horiz-adv-x="542" d="M492 496 L492 0 L340 0 L340 51 Q303 -9 219 -9 Q140 -9 94 36 Q48 81 48 161 L48 496 L208 496 L208 203 Q208 131 268 131 Q299 131 315.5 149.5 Q332 168 332 204 L332 496 L492 496 Z M95 628 Q95 661 118 683 Q141 705 174 705 Q209 705 231.5 683.5 Q254 662 254 628 Q254 594 231.5 572.5 Q209 551 174 551 Q141 551 118 573 Q95 595 95 628 Z M290 628 Q290 661 313 683 Q336 705 369 705 Q404 705 426.5 683.5 Q449 662 449 628 Q449 594 426.5 572.5 Q404 551 369 551 Q336 551 313 573 Q290 595 290 628 Z " />
<glyph glyph-name="ugrave" unicode="&#xf9;" horiz-adv-x="542" d="M492 496 L492 0 L340 0 L340 51 Q303 -9 219 -9 Q140 -9 94 36 Q48 81 48 161 L48 496 L208 496 L208 203 Q208 131 268 131 Q299 131 315.5 149.5 Q332 168 332 204 L332 496 L492 496 Z M270 685 Q309 630 337 560 L216 560 Q163 632 113 685 L270 685 Z " />
<glyph glyph-name="uhungarumlaut" unicode="&#x171;" horiz-adv-x="542" d="M492 496 L492 0 L340 0 L340 51 Q303 -9 219 -9 Q140 -9 94 36 Q48 81 48 161 L48 496 L208 496 L208 203 Q208 131 268 131 Q299 131 315.5 149.5 Q332 168 332 204 L332 496 L492 496 Z M242 560 L131 560 Q149 608 187 680 L320 680 Q283 636 242 560 Z M412 560 L301 560 Q333 628 368 680 L501 680 Q477 650 412 560 Z " />
<glyph glyph-name="umacron" unicode="&#x16b;" horiz-adv-x="542" d="M492 496 L492 0 L340 0 L340 51 Q303 -9 219 -9 Q140 -9 94 36 Q48 81 48 161 L48 496 L208 496 L208 203 Q208 131 268 131 Q299 131 315.5 149.5 Q332 168 332 204 L332 496 L492 496 Z M417 668 L417 562 L127 562 L127 668 L417 668 Z " />
<glyph glyph-name="uogonek" unicode="&#x173;" horiz-adv-x="542" d="M441 -58 Q441 -72 451 -80.5 Q461 -89 483 -89 L489 -89 L489 -186 Q475 -189 451 -189 Q393 -189 360 -164.5 Q327 -140 327 -95 Q327 -39 381 0 L340 0 L340 51 Q303 -9 219 -9 Q140 -9 94 36 Q48 81 48 161 L48 496 L208 496 L208 203 Q208 131 268 131 Q299 131 315.5 149.5 Q332 168 332 204 L332 496 L492 496 L492 0 Q441 -25 441 -58 Z " />
<glyph glyph-name="uring" unicode="&#x16f;" horiz-adv-x="542" d="M492 496 L492 0 L340 0 L340 51 Q303 -9 219 -9 Q140 -9 94 36 Q48 81 48 161 L48 496 L208 496 L208 203 Q208 131 268 131 Q299 131 315.5 149.5 Q332 168 332 204 L332 496 L492 496 Z M148 646 Q148 695 182 727 Q216 759 272 759 Q328 759 362 727 Q396 695 396 646 Q396 597 361.5 565 Q327 533 272 533 Q216 533 182 565 Q148 597 148 646 Z M325 646 Q325 668 311 683 Q297 698 272 698 Q247 698 233 683 Q219 668 219 646 Q219 624 233 609 Q247 594 272 594 Q297 594 311 609 Q325 624 325 646 Z " />
<glyph glyph-name="v" unicode="v" horiz-adv-x="523" d="M513 496 Q485 383 441.5 255 Q398 127 351 19 Q346 8 341.5 4 Q337 0 325 0 L198 0 Q186 0 181.5 4 Q177 8 172 19 Q124 129 80.5 257 Q37 385 10 496 L173 496 Q208 358 263 196 Q322 368 354 496 L513 496 Z " />
<glyph glyph-name="w" unicode="w" horiz-adv-x="772" d="M754 496 Q729 383 691 253.5 Q653 124 612 19 Q608 9 602 4.5 Q596 0 586 0 L477 0 Q465 0 459.5 4 Q454 8 451 19 L386 258 L321 19 Q318 8 312.5 4 Q307 0 295 0 L186 0 Q174 0 169 4 Q164 8 160 19 Q118 126 79.5 255.5 Q41 385 18 496 L179 496 Q204 382 246 228 L317 496 L459 496 L530 229 Q563 346 597 496 L754 496 Z " />
<glyph glyph-name="wacute" unicode="&#x1e83;" horiz-adv-x="772" d="M754 496 Q729 383 691 253.5 Q653 124 612 19 Q608 9 602 4.5 Q596 0 586 0 L477 0 Q465 0 459.5 4 Q454 8 451 19 L386 258 L321 19 Q318 8 312.5 4 Q307 0 295 0 L186 0 Q174 0 169 4 Q164 8 160 19 Q118 126 79.5 255.5 Q41 385 18 496 L179 496 Q204 382 246 228 L317 496 L459 496 L530 229 Q563 346 597 496 L754 496 Z M445 560 L315 560 Q343 630 382 685 L539 685 Q496 635 445 560 Z " />
<glyph glyph-name="wcircumflex" unicode="&#x175;" horiz-adv-x="772" d="M754 496 Q729 383 691 253.5 Q653 124 612 19 Q608 9 602 4.5 Q596 0 586 0 L477 0 Q465 0 459.5 4 Q454 8 451 19 L386 258 L321 19 Q318 8 312.5 4 Q307 0 295 0 L186 0 Q174 0 169 4 Q164 8 160 19 Q118 126 79.5 255.5 Q41 385 18 496 L179 496 Q204 382 246 228 L317 496 L459 496 L530 229 Q563 346 597 496 L754 496 Z M440 560 Q424 586 387 628 Q351 589 333 560 L212 560 Q238 618 289 680 L484 680 Q535 618 561 560 L440 560 Z " />
<glyph glyph-name="wdieresis" unicode="&#x1e85;" horiz-adv-x="772" d="M754 496 Q729 383 691 253.5 Q653 124 612 19 Q608 9 602 4.5 Q596 0 586 0 L477 0 Q465 0 459.5 4 Q454 8 451 19 L386 258 L321 19 Q318 8 312.5 4 Q307 0 295 0 L186 0 Q174 0 169 4 Q164 8 160 19 Q118 126 79.5 255.5 Q41 385 18 496 L179 496 Q204 382 246 228 L317 496 L459 496 L530 229 Q563 346 597 496 L754 496 Z M210 628 Q210 661 233 683 Q256 705 289 705 Q324 705 346.5 683.5 Q369 662 369 628 Q369 594 346.5 572.5 Q324 551 289 551 Q256 551 233 573 Q210 595 210 628 Z M405 628 Q405 661 428 683 Q451 705 484 705 Q519 705 541.5 683.5 Q564 662 564 628 Q564 594 541.5 572.5 Q519 551 484 551 Q451 551 428 573 Q405 595 405 628 Z " />
<glyph glyph-name="wgrave" unicode="&#x1e81;" horiz-adv-x="772" d="M754 496 Q729 383 691 253.5 Q653 124 612 19 Q608 9 602 4.5 Q596 0 586 0 L477 0 Q465 0 459.5 4 Q454 8 451 19 L386 258 L321 19 Q318 8 312.5 4 Q307 0 295 0 L186 0 Q174 0 169 4 Q164 8 160 19 Q118 126 79.5 255.5 Q41 385 18 496 L179 496 Q204 382 246 228 L317 496 L459 496 L530 229 Q563 346 597 496 L754 496 Z M385 685 Q424 630 452 560 L331 560 Q278 632 228 685 L385 685 Z " />
<glyph glyph-name="x" unicode="x" horiz-adv-x="518" d="M340 0 Q296 89 258 153 Q213 75 176 0 L6 0 Q63 118 152 256 Q66 380 11 496 L184 496 Q219 427 259 358 Q302 435 333 496 L504 496 Q462 402 364 258 Q454 120 512 0 L340 0 Z " />
<glyph glyph-name="y" unicode="y" horiz-adv-x="523" d="M513 496 Q492 397 444.5 263.5 Q397 130 345.5 12 Q294 -106 263 -160 L100 -160 Q135 -98 181 7 Q128 115 81 251.5 Q34 388 10 496 L173 496 Q205 356 261 197 Q314 341 354 496 L513 496 Z " />
<glyph glyph-name="yacute" unicode="&#xfd;" horiz-adv-x="523" d="M513 496 Q492 397 444.5 263.5 Q397 130 345.5 12 Q294 -106 263 -160 L100 -160 Q135 -98 181 7 Q128 115 81 251.5 Q34 388 10 496 L173 496 Q205 356 261 197 Q314 341 354 496 L513 496 Z M321 560 L191 560 Q219 630 258 685 L415 685 Q372 635 321 560 Z " />
<glyph glyph-name="ycircumflex" unicode="&#x177;" horiz-adv-x="523" d="M513 496 Q492 397 444.5 263.5 Q397 130 345.5 12 Q294 -106 263 -160 L100 -160 Q135 -98 181 7 Q128 115 81 251.5 Q34 388 10 496 L173 496 Q205 356 261 197 Q314 341 354 496 L513 496 Z M316 560 Q300 586 263 628 Q227 589 209 560 L88 560 Q114 618 165 680 L360 680 Q411 618 437 560 L316 560 Z " />
<glyph glyph-name="ydieresis" unicode="&#xff;" horiz-adv-x="523" d="M513 496 Q492 397 444.5 263.5 Q397 130 345.5 12 Q294 -106 263 -160 L100 -160 Q135 -98 181 7 Q128 115 81 251.5 Q34 388 10 496 L173 496 Q205 356 261 197 Q314 341 354 496 L513 496 Z M86 628 Q86 661 109 683 Q132 705 165 705 Q200 705 222.5 683.5 Q245 662 245 628 Q245 594 222.5 572.5 Q200 551 165 551 Q132 551 109 573 Q86 595 86 628 Z M281 628 Q281 661 304 683 Q327 705 360 705 Q395 705 417.5 683.5 Q440 662 440 628 Q440 594 417.5 572.5 Q395 551 360 551 Q327 551 304 573 Q281 595 281 628 Z " />
<glyph glyph-name="ygrave" unicode="&#x1ef3;" horiz-adv-x="523" d="M513 496 Q492 397 444.5 263.5 Q397 130 345.5 12 Q294 -106 263 -160 L100 -160 Q135 -98 181 7 Q128 115 81 251.5 Q34 388 10 496 L173 496 Q205 356 261 197 Q314 341 354 496 L513 496 Z M261 685 Q300 630 328 560 L207 560 Q154 632 104 685 L261 685 Z " />
<glyph glyph-name="z" unicode="z" horiz-adv-x="466" d="M441 138 L441 0 L25 0 L25 126 L239 358 L36 358 L36 496 L437 496 L437 369 L224 138 L441 138 Z " />
<glyph glyph-name="zacute" unicode="&#x17a;" horiz-adv-x="466" d="M441 138 L441 0 L25 0 L25 126 L239 358 L36 358 L36 496 L437 496 L437 369 L224 138 L441 138 Z M271 560 L141 560 Q169 630 208 685 L365 685 Q322 635 271 560 Z " />
<glyph glyph-name="zcaron" unicode="&#x17e;" horiz-adv-x="466" d="M441 138 L441 0 L25 0 L25 126 L239 358 L36 358 L36 496 L437 496 L437 369 L224 138 L441 138 Z M387 680 Q361 622 310 560 L115 560 Q64 622 38 680 L159 680 Q177 651 213 612 Q250 654 266 680 L387 680 Z " />
<glyph glyph-name="zdotaccent" unicode="&#x17c;" horiz-adv-x="466" d="M441 138 L441 0 L25 0 L25 126 L239 358 L36 358 L36 496 L437 496 L437 369 L224 138 L441 138 Z M127 628 Q127 664 152 686.5 Q177 709 213 709 Q249 709 274 686.5 Q299 664 299 628 Q299 592 274 569.5 Q249 547 213 547 Q177 547 152 569.5 Q127 592 127 628 Z " />
<glyph glyph-name="zero" unicode="0" horiz-adv-x="560" d="M34 318 L34 362 Q34 534 100 612.5 Q166 691 280 691 Q394 691 460 612.5 Q526 534 526 362 L526 318 Q526 146 460 67.5 Q394 -11 280 -11 Q166 -11 100 67.5 Q34 146 34 318 Z M361 321 L361 359 Q361 444 343.5 494 Q326 544 280 544 Q234 544 216.5 494 Q199 444 199 359 L199 321 Q199 236 216.5 186 Q234 136 280 136 Q326 136 343.5 186 Q361 236 361 321 Z " />
<glyph glyph-name="one" unicode="1" horiz-adv-x="560" d="M411 680 L411 0 L248 0 L248 465 Q216 440 174 420 Q132 400 97 391 L97 547 Q141 567 193.5 606 Q246 645 273 680 L411 680 Z " />
<glyph glyph-name="two" unicode="2" horiz-adv-x="560" d="M521 146 L521 0 L52 0 L52 130 Q126 182 186 230.5 Q246 279 295 343 Q344 407 344 468 Q344 504 327.5 524 Q311 544 278 544 Q243 544 224 518.5 Q205 493 200 442 L38 442 Q39 554 100.5 622.5 Q162 691 278 691 Q393 691 451 632 Q509 573 509 475 Q509 301 293 146 L521 146 Z " />
<glyph glyph-name="three" unicode="3" horiz-adv-x="560" d="M523 203 Q523 106 459.5 47.5 Q396 -11 283 -11 Q169 -11 104 48.5 Q39 108 34 203 L33 221 L198 221 Q200 181 223 158 Q246 135 282 135 Q317 135 339 155 Q361 175 361 212 Q361 254 331.5 271 Q302 288 252 288 L252 417 Q295 417 319 434 Q343 451 343 485 Q343 513 326.5 529 Q310 545 280 545 Q248 545 230 525.5 Q212 506 208 472 L43 472 Q49 578 112 634.5 Q175 691 280 691 Q348 691 399.5 667 Q451 643 479 600 Q507 557 507 501 Q507 449 486.5 413.5 Q466 378 433 357 Q474 337 498.5 298.5 Q523 260 523 203 Z " />
<glyph glyph-name="four" unicode="4" horiz-adv-x="560" d="M545 119 L483 119 L483 0 L320 0 L320 119 L27 119 L27 213 Q27 259 37 284 Q70 366 144.5 491 Q219 616 273 680 L468 680 Q400 596 321.5 471.5 Q243 347 204 255 L320 255 L320 398 L483 398 L483 255 L545 255 L545 119 Z " />
<glyph glyph-name="five" unicode="5" horiz-adv-x="560" d="M523 229 Q523 119 458 55 Q393 -9 282 -9 Q177 -9 114.5 42 Q52 93 44 174 L42 196 L202 196 Q204 158 224 140.5 Q244 123 283 123 Q319 123 339.5 150 Q360 177 360 228 Q360 328 279 328 Q254 328 236 317 Q218 306 210 289 L59 298 Q61 358 74 480 Q87 602 100 680 L490 680 L490 534 L234 534 Q227 493 221 433 Q262 460 320 460 Q413 460 468 398.5 Q523 337 523 229 Z " />
<glyph glyph-name="six" unicode="6" horiz-adv-x="560" d="M525 231 Q525 121 460.5 55 Q396 -11 281 -11 Q167 -11 103.5 52 Q40 115 40 226 L40 257 Q40 330 72 410 Q104 490 155 561 Q206 632 262 680 L468 680 Q404 624 355.5 570.5 Q307 517 275 458 Q295 460 307 460 Q408 460 466.5 397.5 Q525 335 525 231 Z M360 228 Q360 275 341 301.5 Q322 328 283 328 Q243 328 224 300 Q205 272 205 224 Q205 173 225 147 Q245 121 282 121 Q319 121 339.5 149 Q360 177 360 228 Z " />
<glyph glyph-name="seven" unicode="7" horiz-adv-x="560" d="M504 680 L504 543 Q474 432 398 264 Q322 96 269 0 L84 0 Q154 130 221.5 272.5 Q289 415 332 534 L43 534 L43 680 L504 680 Z " />
<glyph glyph-name="eight" unicode="8" horiz-adv-x="560" d="M530 188 Q530 95 461.5 42 Q393 -11 282 -11 Q168 -11 99.5 40.5 Q31 92 31 182 Q31 289 132 350 Q53 413 53 505 Q53 560 82 602 Q111 644 163.5 667.5 Q216 691 285 691 Q356 691 409 668 Q462 645 490.5 603 Q519 561 519 505 Q519 411 426 359 Q530 294 530 188 Z M217 504 Q217 481 233.5 461.5 Q250 442 298 420 Q359 450 359 502 Q359 528 340 545.5 Q321 563 286 563 Q254 563 235.5 545.5 Q217 528 217 504 Z M366 189 Q366 220 339.5 240 Q313 260 243 289 Q191 252 191 198 Q191 165 215.5 143 Q240 121 279 121 Q318 121 342 139.5 Q366 158 366 189 Z " />
<glyph glyph-name="nine" unicode="9" horiz-adv-x="560" d="M520 454 L520 423 Q520 350 488.5 270 Q457 190 406 119 Q355 48 299 0 L102 0 Q166 56 212.5 108 Q259 160 293 224 Q277 220 253 220 Q152 220 93.5 282.5 Q35 345 35 449 Q35 559 99.5 625 Q164 691 279 691 Q393 691 456.5 628 Q520 565 520 454 Z M277 352 Q317 352 336 380 Q355 408 355 456 Q355 507 335 533 Q315 559 278 559 Q241 559 220.5 531 Q200 503 200 452 Q200 405 219 378.5 Q238 352 277 352 Z " />
<glyph glyph-name="fraction" unicode="&#x2044;" horiz-adv-x="237" d="M-15 0 L-141 0 L252 680 L378 680 L-15 0 Z " />
<glyph glyph-name="onehalf" unicode="&#xbd;" horiz-adv-x="967" d="M238 680 L238 266 L121 266 L121 529 Q101 512 74 500 Q47 488 23 482 L23 581 Q54 600 85.5 626.5 Q117 653 139 680 L238 680 Z M299 0 L173 0 L566 680 L692 680 L299 0 Z M924 97 L924 0 L595 0 L595 80 Q615 94 646 112 Q698 144 727.5 166 Q757 188 777.5 218 Q798 248 798 285 Q798 306 787.5 318.5 Q777 331 755 331 Q734 331 721 313.5 Q708 296 706 268 L589 268 Q591 338 634.5 379.5 Q678 421 754 421 Q831 421 873.5 383.5 Q916 346 916 282 Q916 179 779 97 L924 97 Z " />
<glyph glyph-name="onequarter" unicode="&#xbc;" horiz-adv-x="915" d="M238 680 L238 266 L121 266 L121 529 Q101 512 74 500 Q47 488 23 482 L23 581 Q54 600 85.5 626.5 Q117 653 139 680 L238 680 Z M299 0 L173 0 L566 680 L692 680 L299 0 Z M896 71 L855 71 L855 0 L739 0 L739 71 L521 71 L521 118 Q521 151 530 173 Q553 228 596.5 296.5 Q640 365 681 414 L815 414 Q773 367 727 299.5 Q681 232 652 169 L739 169 L739 257 L855 257 L855 169 L896 169 L896 71 Z " />
<glyph glyph-name="threequarters" unicode="&#xbe;" horiz-adv-x="985" d="M367 389 Q367 330 323 294.5 Q279 259 198 259 Q119 259 74.5 293 Q30 327 30 390 L145 390 Q147 371 161 359 Q175 347 198 347 Q222 347 235.5 359 Q249 371 249 394 Q249 420 230 429.5 Q211 439 169 439 L169 520 Q208 520 226.5 530.5 Q245 541 245 566 Q245 584 232.5 594.5 Q220 605 198 605 Q176 605 163 591.5 Q150 578 147 560 L36 560 Q36 619 80.5 654 Q125 689 198 689 Q273 689 316 655.5 Q359 622 359 571 Q359 536 343 514.5 Q327 493 301 484 Q331 473 349 449 Q367 425 367 389 Z M369 0 L243 0 L636 680 L762 680 L369 0 Z M966 71 L925 71 L925 0 L809 0 L809 71 L591 71 L591 118 Q591 151 600 173 Q623 228 666.5 296.5 Q710 365 751 414 L885 414 Q843 367 797 299.5 Q751 232 722 169 L809 169 L809 257 L925 257 L925 169 L966 169 L966 71 Z " />
<glyph glyph-name="uni00B9" unicode="&#xb9;" horiz-adv-x="324" d="M238 720 L238 306 L121 306 L121 569 Q101 552 74 540 Q47 528 23 522 L23 621 Q54 640 85.5 666.5 Q117 693 139 720 L238 720 Z " />
<glyph glyph-name="uni00B2" unicode="&#xb2;" horiz-adv-x="419" d="M376 405 L376 308 L47 308 L47 388 Q67 402 98 420 Q150 452 179.5 474 Q209 496 229.5 526 Q250 556 250 593 Q250 614 239.5 626.5 Q229 639 207 639 Q186 639 173 621.5 Q160 604 158 576 L41 576 Q43 646 86.5 687.5 Q130 729 206 729 Q283 729 325.5 691.5 Q368 654 368 590 Q368 487 231 405 L376 405 Z " />
<glyph glyph-name="uni00B3" unicode="&#xb3;" horiz-adv-x="394" d="M367 429 Q367 370 323 334.5 Q279 299 198 299 Q119 299 74.5 333 Q30 367 30 430 L145 430 Q147 411 161 399 Q175 387 198 387 Q222 387 235.5 399 Q249 411 249 434 Q249 460 230 469.5 Q211 479 169 479 L169 560 Q208 560 226.5 570.5 Q245 581 245 606 Q245 624 232.5 634.5 Q220 645 198 645 Q176 645 163 631.5 Q150 618 147 600 L36 600 Q36 659 80.5 694 Q125 729 198 729 Q273 729 316 695.5 Q359 662 359 611 Q359 576 343 554.5 Q327 533 301 524 Q331 513 349 489 Q367 465 367 429 Z " />
<glyph glyph-name="asterisk" unicode="&#x2a;" horiz-adv-x="348" d="M238 544 Q311 513 333 506 Q328 491 312 462.5 Q296 434 286 425 Q273 436 206 488 Q212 431 221 387 Q203 383 174 383 Q147 383 127 387 Q136 431 142 488 Q97 455 62 425 Q51 436 35 464 Q19 492 15 506 Q60 521 110 544 Q50 570 15 581 Q20 596 36 624.5 Q52 653 62 662 Q99 630 142 599 Q132 678 127 700 Q140 704 174 704 Q209 704 221 700 Q214 667 207 600 Q267 645 286 662 Q297 651 313 623 Q329 595 333 581 Q302 571 238 544 Z " />
<glyph glyph-name="backslash" unicode="&#x5c;" horiz-adv-x="455" d="M171 700 L455 -20 L285 -20 L0 700 L171 700 Z " />
<glyph glyph-name="middot" unicode="&#xb7;" horiz-adv-x="264" d="M30 361 Q30 404 59.5 432.5 Q89 461 132 461 Q175 461 204.5 432.5 Q234 404 234 361 Q234 318 204 288.5 Q174 259 132 259 Q90 259 60 288.5 Q30 318 30 361 Z " />
<glyph glyph-name="bullet" unicode="&#x2022;" horiz-adv-x="380" d="M60 327 Q60 382 97.5 419.5 Q135 457 190 457 Q245 457 282.5 419.5 Q320 382 320 327 Q320 272 282.5 234.5 Q245 197 190 197 Q135 197 97.5 234.5 Q60 272 60 327 Z " />
<glyph glyph-name="colon" unicode="&#x3a;" horiz-adv-x="264" d="M30 91 Q30 134 59.5 162.5 Q89 191 132 191 Q175 191 204.5 162.5 Q234 134 234 91 Q234 48 204 18.5 Q174 -11 132 -11 Q90 -11 60 18.5 Q30 48 30 91 Z M30 406 Q30 449 59.5 477.5 Q89 506 132 506 Q175 506 204.5 477.5 Q234 449 234 406 Q234 363 204 333.5 Q174 304 132 304 Q90 304 60 333.5 Q30 363 30 406 Z " />
<glyph glyph-name="comma" unicode="&#x2c;" horiz-adv-x="234" d="M211 112 Q211 -8 120 -114 L15 -114 Q25 -62 31.5 -11 Q38 40 38 110 L38 162 L211 162 L211 112 Z " />
<glyph glyph-name="ellipsis" unicode="&#x2026;" horiz-adv-x="700" d="M481 91 Q481 134 510.5 162.5 Q540 191 583 191 Q626 191 655.5 162.5 Q685 134 685 91 Q685 48 655 18.5 Q625 -11 583 -11 Q541 -11 511 18.5 Q481 48 481 91 Z M248 91 Q248 134 277.5 162.5 Q307 191 350 191 Q393 191 422.5 162.5 Q452 134 452 91 Q452 48 422 18.5 Q392 -11 350 -11 Q308 -11 278 18.5 Q248 48 248 91 Z M15 91 Q15 134 44.5 162.5 Q74 191 117 191 Q160 191 189.5 162.5 Q219 134 219 91 Q219 48 189 18.5 Q159 -11 117 -11 Q75 -11 45 18.5 Q15 48 15 91 Z " />
<glyph glyph-name="exclam" unicode="&#x21;" horiz-adv-x="320" d="M228 240 L92 240 Q80 326 71.5 446.5 Q63 567 60 680 L260 680 Q257 567 248.5 446.5 Q240 326 228 240 Z M58 91 Q58 134 87.5 162.5 Q117 191 160 191 Q203 191 232.5 162.5 Q262 134 262 91 Q262 48 232 18.5 Q202 -11 160 -11 Q118 -11 88 18.5 Q58 48 58 91 Z " />
<glyph glyph-name="exclamdown" unicode="&#xa1;" horiz-adv-x="320" d="M262 399 Q262 356 232.5 327.5 Q203 299 160 299 Q117 299 87.5 327.5 Q58 356 58 399 Q58 442 88 471.5 Q118 501 160 501 Q202 501 232 471.5 Q262 442 262 399 Z M92 250 L228 250 Q240 164 248.5 43.5 Q257 -77 260 -190 L60 -190 Q63 -77 71.5 43.5 Q80 164 92 250 Z " />
<glyph glyph-name="numbersign" unicode="&#x23;" horiz-adv-x="560" d="M439 393 L425 289 L487 289 L487 191 L411 191 L384 0 L282 0 L309 191 L211 191 L184 0 L81 0 L108 191 L40 191 L40 289 L122 289 L136 393 L72 393 L72 492 L150 492 L177 680 L279 680 L253 492 L351 492 L378 680 L480 680 L453 492 L520 492 L520 393 L439 393 Z M337 393 L239 393 L224 289 L323 289 L337 393 Z " />
<glyph glyph-name="period" unicode="&#x2e;" horiz-adv-x="234" d="M15 91 Q15 134 44.5 162.5 Q74 191 117 191 Q160 191 189.5 162.5 Q219 134 219 91 Q219 48 189 18.5 Q159 -11 117 -11 Q75 -11 45 18.5 Q15 48 15 91 Z " />
<glyph glyph-name="question" unicode="&#x3f;" horiz-adv-x="428" d="M265 481 Q265 510 252.5 526 Q240 542 215 542 Q189 542 175.5 524.5 Q162 507 160 479 L10 479 L10 492 Q10 547 34 592.5 Q58 638 105 665.5 Q152 693 218 693 Q286 693 333.5 667.5 Q381 642 404.5 600 Q428 558 428 508 Q428 431 389.5 360.5 Q351 290 309 239 L147 239 Q265 395 265 481 Z M121 91 Q121 134 150.5 162.5 Q180 191 223 191 Q266 191 295.5 162.5 Q325 134 325 91 Q325 48 295 18.5 Q265 -11 223 -11 Q181 -11 151 18.5 Q121 48 121 91 Z " />
<glyph glyph-name="questiondown" unicode="&#xbf;" horiz-adv-x="398" d="M305 400 Q305 357 275.5 328.5 Q246 300 203 300 Q160 300 130.5 328.5 Q101 357 101 400 Q101 443 131 472.5 Q161 502 203 502 Q245 502 275 472.5 Q305 443 305 400 Z M163 10 Q163 -19 175.5 -35 Q188 -51 213 -51 Q239 -51 252.5 -33.5 Q266 -16 268 12 L418 12 L418 -1 Q418 -56 394 -101.5 Q370 -147 323 -174.5 Q276 -202 210 -202 Q142 -202 94.5 -176.5 Q47 -151 23.5 -109 Q0 -67 0 -17 Q0 60 38.5 130.5 Q77 201 119 252 L281 252 Q163 96 163 10 Z " />
<glyph glyph-name="quotedbl" unicode="&#x22;" horiz-adv-x="346" d="M151 680 Q151 610 146 548 Q141 486 133 448 L34 448 Q26 488 20.5 549.5 Q15 611 15 680 L151 680 Z M331 680 Q331 610 326 548 Q321 486 313 448 L214 448 Q206 488 200.5 549.5 Q195 611 195 680 L331 680 Z " />
<glyph glyph-name="quotesingle" unicode="&#x27;" horiz-adv-x="166" d="M151 680 Q151 610 146 548 Q141 486 133 448 L34 448 Q26 488 20.5 549.5 Q15 611 15 680 L151 680 Z " />
<glyph glyph-name="semicolon" unicode="&#x3b;" horiz-adv-x="266" d="M226 112 Q226 -8 135 -114 L30 -114 Q40 -62 46.5 -11 Q53 40 53 110 L53 162 L226 162 L226 112 Z M32 406 Q32 449 61.5 477.5 Q91 506 134 506 Q177 506 206.5 477.5 Q236 449 236 406 Q236 363 206 333.5 Q176 304 134 304 Q92 304 62 333.5 Q32 363 32 406 Z " />
<glyph glyph-name="slash" unicode="&#x2f;" horiz-adv-x="455" d="M170 -20 L0 -20 L284 700 L455 700 L170 -20 Z " />
<glyph glyph-name="underscore" unicode="&#x5f;" horiz-adv-x="502" d="M507 -70 L507 -190 L-5 -190 L-5 -70 L507 -70 Z " />
<glyph glyph-name="braceleft" unicode="&#x7b;" horiz-adv-x="359" d="M329 584 L300 584 Q267 584 252.5 573.5 Q238 563 238 531 L238 385 Q238 332 215.5 304 Q193 276 144 266 L144 264 Q193 255 215.5 226.5 Q238 198 238 145 L238 -5 Q238 -36 252 -45.5 Q266 -55 300 -55 L329 -55 L329 -151 L258 -151 Q180 -151 139.5 -122 Q99 -93 99 -12 L99 117 Q99 166 81.5 182.5 Q64 199 30 199 L30 331 Q64 331 81.5 348.5 Q99 366 99 415 L99 541 Q99 623 139.5 651.5 Q180 680 258 680 L329 680 L329 584 Z " />
<glyph glyph-name="braceright" unicode="&#x7d;" horiz-adv-x="359" d="M101 680 Q179 680 219.5 651.5 Q260 623 260 541 L260 415 Q260 366 277.5 348.5 Q295 331 329 331 L329 199 Q295 199 277.5 182.5 Q260 166 260 117 L260 -12 Q260 -93 219.5 -122 Q179 -151 101 -151 L30 -151 L30 -55 L59 -55 Q93 -55 107 -45.5 Q121 -36 121 -5 L121 145 Q121 198 143.5 226.5 Q166 255 215 264 L215 266 Q166 276 143.5 304 Q121 332 121 385 L121 531 Q121 563 106.5 573.5 Q92 584 59 584 L30 584 L30 680 L101 680 Z " />
<glyph glyph-name="bracketleft" unicode="&#x5b;" horiz-adv-x="333" d="M303 584 L199 584 L199 -55 L303 -55 L303 -151 L60 -151 L60 680 L303 680 L303 584 Z " />
<glyph glyph-name="bracketright" unicode="&#x5d;" horiz-adv-x="333" d="M273 680 L273 -151 L30 -151 L30 -55 L134 -55 L134 584 L30 584 L30 680 L273 680 Z " />
<glyph glyph-name="parenleft" unicode="&#x28;" horiz-adv-x="379" d="M222 680 L374 680 Q294 585 249.5 490 Q205 395 205 267 Q205 139 249.5 44 Q294 -51 374 -146 L222 -146 Q151 -81 98 21.5 Q45 124 45 267 Q45 410 98 512.5 Q151 615 222 680 Z " />
<glyph glyph-name="parenright" unicode="&#x29;" horiz-adv-x="379" d="M157 -146 L5 -146 Q85 -51 129.5 44 Q174 139 174 267 Q174 395 129.5 490 Q85 585 5 680 L157 680 Q228 615 281 512.5 Q334 410 334 267 Q334 124 281 21.5 Q228 -81 157 -146 Z " />
<glyph glyph-name="emdash" unicode="&#x2014;" horiz-adv-x="798" d="M763 366 L763 222 L35 222 L35 366 L763 366 Z " />
<glyph glyph-name="endash" unicode="&#x2013;" horiz-adv-x="586" d="M551 366 L551 222 L35 222 L35 366 L551 366 Z " />
<glyph glyph-name="hyphen" unicode="&#x2d;" horiz-adv-x="362" d="M327 368 L327 220 L35 220 L35 368 L327 368 Z " />
<glyph glyph-name="guillemotleft" unicode="&#xab;" horiz-adv-x="662" d="M454 242 L622 48 L456 48 L290 242 L456 435 L622 435 L454 242 Z M204 242 L372 48 L206 48 L40 242 L206 435 L372 435 L204 242 Z " />
<glyph glyph-name="guillemotright" unicode="&#xbb;" horiz-adv-x="662" d="M456 435 L622 242 L456 48 L290 48 L458 242 L290 435 L456 435 Z M206 435 L372 242 L206 48 L40 48 L208 242 L40 435 L206 435 Z " />
<glyph glyph-name="guilsinglleft" unicode="&#x2039;" horiz-adv-x="412" d="M204 242 L372 48 L206 48 L40 242 L206 435 L372 435 L204 242 Z " />
<glyph glyph-name="guilsinglright" unicode="&#x203a;" horiz-adv-x="412" d="M206 435 L372 242 L206 48 L40 48 L208 242 L40 435 L206 435 Z " />
<glyph glyph-name="quotedblbase" unicode="&#x201e;" horiz-adv-x="390" d="M180 113 Q180 47 157 -1.5 Q134 -50 102 -87 L15 -87 Q30 -12 30 113 L30 162 L180 162 L180 113 Z M375 113 Q375 47 352 -1.5 Q329 -50 297 -87 L210 -87 Q225 -12 225 113 L225 162 L375 162 L375 113 Z " />
<glyph glyph-name="quotedblleft" unicode="&#x201c;" horiz-adv-x="390" d="M210 480 Q210 546 233 594.5 Q256 643 288 680 L375 680 Q360 605 360 480 L360 431 L210 431 L210 480 Z M15 480 Q15 546 38 594.5 Q61 643 93 680 L180 680 Q165 605 165 480 L165 431 L15 431 L15 480 Z " />
<glyph glyph-name="quotedblright" unicode="&#x201d;" horiz-adv-x="390" d="M375 631 Q375 565 352 516.5 Q329 468 297 431 L210 431 Q225 506 225 631 L225 680 L375 680 L375 631 Z M180 631 Q180 565 157 516.5 Q134 468 102 431 L15 431 Q30 506 30 631 L30 680 L180 680 L180 631 Z " />
<glyph glyph-name="quoteleft" unicode="&#x2018;" horiz-adv-x="195" d="M15 480 Q15 546 38 594.5 Q61 643 93 680 L180 680 Q165 605 165 480 L165 431 L15 431 L15 480 Z " />
<glyph glyph-name="quoteright" unicode="&#x2019;" horiz-adv-x="195" d="M180 631 Q180 565 157 516.5 Q134 468 102 431 L15 431 Q30 506 30 631 L30 680 L180 680 L180 631 Z " />
<glyph glyph-name="quotesinglbase" unicode="&#x201a;" horiz-adv-x="195" d="M180 113 Q180 47 157 -1.5 Q134 -50 102 -87 L15 -87 Q30 -12 30 113 L30 162 L180 162 L180 113 Z " />
<glyph glyph-name="uni00A0" unicode="&#xa0;" horiz-adv-x="600" d="" />
<glyph glyph-name="cent" unicode="&#xa2;" horiz-adv-x="560" d="M511 193 L510 179 Q504 103 459.5 55.5 Q415 8 340 -5 L340 -80 L233 -80 L233 -5 Q148 10 100 70 Q52 130 52 232 L52 264 Q52 366 100 426 Q148 486 233 501 L233 576 L340 576 L340 501 Q415 488 458.5 443 Q502 398 507 330 L508 316 L348 316 Q343 339 326.5 352 Q310 365 284 365 Q245 365 228.5 336.5 Q212 308 212 264 L212 232 Q212 188 228.5 159.5 Q245 131 284 131 Q313 131 329.5 147.5 Q346 164 351 193 L511 193 Z " />
<glyph glyph-name="currency" unicode="&#xa4;" horiz-adv-x="560" d="M467 475 L422 431 Q452 390 452 332 Q452 274 422 233 L467 188 L423 145 L378 191 Q337 166 282 166 Q226 166 182 193 L136 145 L93 189 L139 234 Q111 274 111 332 Q111 390 140 430 L92 476 L136 519 L182 472 Q229 498 282 498 Q337 498 378 473 L423 519 L467 475 Z M204 332 Q204 294 225.5 272.5 Q247 251 282 251 Q316 251 337 272.5 Q358 294 358 332 Q358 370 337 391.5 Q316 413 282 413 Q247 413 225.5 391.5 Q204 370 204 332 Z " />
<glyph glyph-name="dollar" unicode="&#x24;" horiz-adv-x="560" d="M329 -8 L329 -80 L222 -80 L222 -6 Q129 9 81 64 Q33 119 30 194 L29 216 L194 216 Q197 175 222 151.5 Q247 128 290 128 Q329 128 350 144.5 Q371 161 371 193 Q371 216 360 229.5 Q349 243 331.5 250.5 Q314 258 279 269 L224 286 Q128 315 82 360.5 Q36 406 36 486 Q36 561 84.5 617.5 Q133 674 222 688 L222 766 L329 766 L329 687 Q416 673 463.5 621.5 Q511 570 517 506 L519 484 L351 484 Q347 512 324 531.5 Q301 551 266 551 Q232 551 214.5 534.5 Q197 518 197 492 Q197 464 222.5 449.5 Q248 435 307 417 L359 401 Q442 376 486.5 329.5 Q531 283 531 208 Q531 121 476.5 62 Q422 3 329 -8 Z " />
<glyph glyph-name="Euro" unicode="&#x20ac;" horiz-adv-x="560" d="M387 201 L549 201 L548 192 Q537 99 476 43.5 Q415 -12 319 -12 Q220 -12 156 48 Q92 108 76 237 L15 237 L15 323 L72 323 L72 364 L15 364 L15 450 L77 450 Q93 575 157.5 633.5 Q222 692 319 692 Q417 692 478 637 Q539 582 548 489 L549 479 L387 479 Q373 546 318 546 Q285 546 266.5 521.5 Q248 497 240 450 L372 450 L372 364 L235 364 L235 323 L372 323 L372 237 L240 237 Q247 186 265.5 159.5 Q284 133 318 133 Q347 133 363.5 150.5 Q380 168 387 201 Z " />
<glyph glyph-name="sterling" unicode="&#xa3;" horiz-adv-x="560" d="M234 146 L525 146 L525 0 L45 0 L45 130 Q89 162 106 188.5 Q123 215 125 262 L53 262 L53 384 L102 384 Q91 414 85 437 Q79 460 79 487 Q79 544 103.5 590.5 Q128 637 178 664.5 Q228 692 301 692 Q412 692 468 635 Q524 578 528 493 L529 474 L362 474 Q360 506 345 526 Q330 546 302 546 Q274 546 259 526 Q244 506 244 472 Q244 449 248 431.5 Q252 414 262 384 L428 384 L428 262 L284 262 L284 258 Q284 229 270.5 200 Q257 171 234 146 Z " />
<glyph glyph-name="yen" unicode="&#xa5;" horiz-adv-x="560" d="M434 410 L515 410 L515 324 L387 324 Q384 318 364 283 L515 283 L515 197 L363 197 L363 0 L198 0 L198 197 L46 197 L46 283 L197 283 Q177 318 174 324 L46 324 L46 410 L127 410 Q48 560 0 680 L170 680 Q210 581 282 449 Q347 572 391 680 L560 680 Q514 559 434 410 Z " />
<glyph glyph-name="approxequal" unicode="&#x2248;" horiz-adv-x="570" d="M287 356 Q252 365 229 369.5 Q206 374 183 374 Q156 374 137 366 Q118 358 102 340 L50 425 Q74 466 108.5 482 Q143 498 180 498 Q203 498 225.5 493.5 Q248 489 285 480 Q352 461 389 461 Q416 461 433.5 469.5 Q451 478 468 496 L520 410 Q496 369 460.5 353 Q425 337 390 337 Q352 337 287 356 Z M287 167 Q252 176 229 180.5 Q206 185 183 185 Q156 185 137 177 Q118 169 102 151 L50 236 Q74 277 108.5 293 Q143 309 180 309 Q203 309 225.5 304.5 Q248 300 285 291 Q352 272 389 272 Q416 272 433.5 280 Q451 288 468 306 L520 221 Q496 180 460.5 164 Q425 148 390 148 Q352 148 287 167 Z " />
<glyph glyph-name="asciitilde" unicode="&#x7e;" horiz-adv-x="570" d="M309 395 Q333 382 346 376 Q359 370 373 370 Q423 370 423 432 L520 432 Q520 350 488.5 296 Q457 242 378 242 Q351 242 330.5 250 Q310 258 281 275 Q258 290 240 297.5 Q222 305 200 305 Q174 305 160.5 287.5 Q147 270 147 243 L50 243 Q50 317 84 375 Q118 433 199 433 Q230 433 255 423 Q280 413 309 395 Z " />
<glyph glyph-name="divide" unicode="&#xf7;" horiz-adv-x="570" d="M520 389 L520 259 L50 259 L50 389 L520 389 Z M183 115 Q183 158 212.5 186.5 Q242 215 285 215 Q328 215 357.5 186.5 Q387 158 387 115 Q387 72 357 42.5 Q327 13 285 13 Q243 13 213 42.5 Q183 72 183 115 Z M183 525 Q183 568 212.5 596.5 Q242 625 285 625 Q328 625 357.5 596.5 Q387 568 387 525 Q387 482 357 452.5 Q327 423 285 423 Q243 423 213 452.5 Q183 482 183 525 Z " />
<glyph glyph-name="equal" unicode="&#x3d;" horiz-adv-x="570" d="M520 289 L520 159 L50 159 L50 289 L520 289 Z M520 489 L520 359 L50 359 L50 489 L520 489 Z " />
<glyph glyph-name="greater" unicode="&#x3e;" horiz-adv-x="570" d="M520 435 L520 293 L50 156 L50 297 L348 359 L50 422 L50 562 L520 435 Z " />
<glyph glyph-name="greaterequal" unicode="&#x2265;" horiz-adv-x="570" d="M520 435 L520 293 L50 156 L50 297 L348 359 L50 422 L50 562 L520 435 Z M520 9 L50 9 L50 139 L520 139 L520 9 Z " />
<glyph glyph-name="less" unicode="&#x3c;" horiz-adv-x="570" d="M520 422 L222 359 L520 297 L520 156 L50 293 L50 435 L520 562 L520 422 Z " />
<glyph glyph-name="lessequal" unicode="&#x2264;" horiz-adv-x="570" d="M520 139 L520 9 L50 9 L50 139 L520 139 Z M520 422 L222 359 L520 297 L520 156 L50 293 L50 435 L520 562 L520 422 Z " />
<glyph glyph-name="logicalnot" unicode="&#xac;" horiz-adv-x="570" d="M520 96 L382 96 L382 259 L50 259 L50 389 L520 389 L520 96 Z " />
<glyph glyph-name="minus" unicode="&#x2212;" horiz-adv-x="570" d="M520 389 L520 259 L50 259 L50 389 L520 389 Z " />
<glyph glyph-name="multiply" unicode="&#xd7;" horiz-adv-x="570" d="M377 324 L520 181 L428 89 L285 232 L142 89 L50 181 L193 324 L50 467 L142 559 L285 416 L428 559 L520 467 L377 324 Z " />
<glyph glyph-name="notequal" unicode="&#x2260;" horiz-adv-x="570" d="M357 349 L336 299 L520 299 L520 169 L282 169 L255 103 L130 103 L157 169 L50 169 L50 299 L211 299 L231 349 L50 349 L50 479 L285 479 L314 549 L440 549 L411 479 L520 479 L520 349 L357 349 Z " />
<glyph glyph-name="percent" unicode="&#x25;" horiz-adv-x="830" d="M20 510 Q20 569 44.5 609 Q69 649 109.5 669 Q150 689 196 689 Q242 689 282 669 Q322 649 347 609 Q372 569 372 510 Q372 451 347 411 Q322 371 282 351 Q242 331 196 331 Q150 331 109.5 351 Q69 371 44.5 411 Q20 451 20 510 Z M281 0 L155 0 L548 680 L674 680 L281 0 Z M258 510 Q258 548 241.5 568.5 Q225 589 196 589 Q167 589 150.5 568.5 Q134 548 134 510 Q134 472 150.5 451.5 Q167 431 196 431 Q225 431 241.5 451.5 Q258 472 258 510 Z M458 171 Q458 230 482.5 270 Q507 310 547.5 330 Q588 350 634 350 Q680 350 720 330 Q760 310 785 270 Q810 230 810 171 Q810 112 785 72 Q760 32 720 12 Q680 -8 634 -8 Q588 -8 547.5 12 Q507 32 482.5 72 Q458 112 458 171 Z M696 171 Q696 209 679.5 229.5 Q663 250 634 250 Q605 250 588.5 229.5 Q572 209 572 171 Q572 133 588.5 112.5 Q605 92 634 92 Q663 92 679.5 112.5 Q696 133 696 171 Z " />
<glyph glyph-name="perthousand" unicode="&#x2030;" horiz-adv-x="1200" d="M20 510 Q20 569 44.5 609 Q69 649 109.5 669 Q150 689 196 689 Q242 689 282 669 Q322 649 347 609 Q372 569 372 510 Q372 451 347 411 Q322 371 282 351 Q242 331 196 331 Q150 331 109.5 351 Q69 371 44.5 411 Q20 451 20 510 Z M281 0 L155 0 L548 680 L674 680 L281 0 Z M258 510 Q258 548 241.5 568.5 Q225 589 196 589 Q167 589 150.5 568.5 Q134 548 134 510 Q134 472 150.5 451.5 Q167 431 196 431 Q225 431 241.5 451.5 Q258 472 258 510 Z M458 171 Q458 230 482.5 270 Q507 310 547.5 330 Q588 350 634 350 Q680 350 720 330 Q760 310 785 270 Q810 230 810 171 Q810 112 785 72 Q760 32 720 12 Q680 -8 634 -8 Q588 -8 547.5 12 Q507 32 482.5 72 Q458 112 458 171 Z M828 171 Q828 230 852.5 270 Q877 310 917.5 330 Q958 350 1004 350 Q1050 350 1090 330 Q1130 310 1155 270 Q1180 230 1180 171 Q1180 112 1155 72 Q1130 32 1090 12 Q1050 -8 1004 -8 Q958 -8 917.5 12 Q877 32 852.5 72 Q828 112 828 171 Z M696 171 Q696 209 679.5 229.5 Q663 250 634 250 Q605 250 588.5 229.5 Q572 209 572 171 Q572 133 588.5 112.5 Q605 92 634 92 Q663 92 679.5 112.5 Q696 133 696 171 Z M1066 171 Q1066 209 1049.5 229.5 Q1033 250 1004 250 Q975 250 958.5 229.5 Q942 209 942 171 Q942 133 958.5 112.5 Q975 92 1004 92 Q1033 92 1049.5 112.5 Q1066 133 1066 171 Z " />
<glyph glyph-name="plus" unicode="&#x2b;" horiz-adv-x="570" d="M520 259 L351 259 L351 89 L219 89 L219 259 L50 259 L50 389 L219 389 L219 559 L351 559 L351 389 L520 389 L520 259 Z " />
<glyph glyph-name="plusminus" unicode="&#xb1;" horiz-adv-x="570" d="M520 476 L520 346 L351 346 L351 176 L219 176 L219 346 L50 346 L50 476 L219 476 L219 646 L351 646 L351 476 L520 476 Z M50 129 L520 129 L520 -1 L50 -1 L50 129 Z " />
<glyph glyph-name="bar" unicode="&#x7c;" horiz-adv-x="336" d="M236 -79 L100 -79 L100 736 L236 736 L236 -79 Z " />
<glyph glyph-name="brokenbar" unicode="&#xa6;" horiz-adv-x="336" d="M100 736 L236 736 L236 396 L100 396 L100 736 Z M236 -79 L100 -79 L100 261 L236 261 L236 -79 Z " />
<glyph glyph-name="at" unicode="&#x40;" horiz-adv-x="863" d="M613 445 L613 193 Q613 161 624.5 147 Q636 133 654 133 Q720 133 720 283 Q720 363 683 423 Q646 483 580.5 516 Q515 549 431 549 Q347 549 282.5 513 Q218 477 182.5 409.5 Q147 342 147 251 Q147 160 184.5 93.5 Q222 27 288.5 -8 Q355 -43 440 -43 Q492 -43 532 -33.5 Q572 -24 607 -3 L658 -84 Q609 -118 558 -131 Q507 -144 438 -144 Q324 -144 232 -93.5 Q140 -43 87 47 Q34 137 34 251 Q34 369 85.5 459.5 Q137 550 228 600 Q319 650 433 650 Q548 650 638 603 Q728 556 778.5 472.5 Q829 389 829 283 Q829 168 780.5 106 Q732 44 646 44 Q604 44 572 61 Q540 78 526 111 Q513 81 482 62.5 Q451 44 414 44 Q363 44 320.5 68 Q278 92 253.5 138.5 Q229 185 229 249 Q229 311 252 358 Q275 405 313 429.5 Q351 454 394 454 Q478 454 505 396 L505 445 L613 445 Z M497 249 Q497 301 478 329 Q459 357 424 357 Q389 357 368 329 Q347 301 347 249 Q347 196 368 168.5 Q389 141 423 141 Q458 141 477.5 169.5 Q497 198 497 249 Z " />
<glyph glyph-name="ampersand" unicode="&#x26;" horiz-adv-x="607" d="M449 0 Q440 6 430 16 Q370 -13 296 -13 Q203 -13 142 17 Q81 47 53 96 Q25 145 25 205 Q25 271 50 318.5 Q75 366 127 400 Q100 459 100 501 Q100 593 150 643 Q200 693 291 693 Q388 693 433 641 Q478 589 483 521 L484 506 L340 506 Q334 558 293 558 Q275 558 265.5 544 Q256 530 256 508 Q256 436 424 230 Q432 264 432 298 L432 314 L582 314 L582 294 Q582 184 532 107 Q597 34 637 0 L449 0 Z M322 126 Q245 214 197 282 Q184 256 184 225 Q184 179 213.5 151.5 Q243 124 295 124 Q306 124 322 126 Z " />
<glyph glyph-name="paragraph" unicode="&#xb6;" horiz-adv-x="569" d="M511 -170 L444 -170 L444 614 L342 614 L342 -170 L276 -170 L276 274 L234 274 Q178 274 132.5 298.5 Q87 323 60.5 366.5 Q34 410 34 465 L34 490 Q34 545 60.5 588.5 Q87 632 132.5 656 Q178 680 234 680 L511 680 L511 -170 Z " />
<glyph glyph-name="copyright" unicode="&#xa9;" horiz-adv-x="780" d="M34 340 Q34 441 79 521 Q124 601 205 646 Q286 691 390 691 Q494 691 575 646 Q656 601 701 521 Q746 441 746 340 Q746 239 701 159 Q656 79 575 34 Q494 -11 390 -11 Q286 -11 205 34 Q124 79 79 159 Q34 239 34 340 Z M666 340 Q666 423 631 487.5 Q596 552 533.5 588 Q471 624 390 624 Q309 624 246.5 588 Q184 552 149 487.5 Q114 423 114 340 Q114 257 149 192.5 Q184 128 246.5 92 Q309 56 390 56 Q471 56 533.5 92 Q596 128 631 192.5 Q666 257 666 340 Z M206 325 L206 355 Q206 413 231.5 455.5 Q257 498 299 520 Q341 542 390 542 Q437 542 476 523.5 Q515 505 538 474.5 Q561 444 564 409 L565 395 L470 395 Q466 423 445.5 440.5 Q425 458 392 458 Q347 458 323.5 430 Q300 402 300 351 L300 330 Q300 279 323.5 251 Q347 223 392 223 Q427 223 446.5 241 Q466 259 470 291 L565 291 L564 277 Q561 240 540 208.5 Q519 177 480 158 Q441 139 389 139 Q340 139 298 161.5 Q256 184 231 226.5 Q206 269 206 325 Z " />
<glyph glyph-name="registered" unicode="&#xae;" horiz-adv-x="470" d="M436 558 Q436 501 410.5 455 Q385 409 339 383 Q293 357 235 357 Q177 357 131.5 383 Q86 409 60.5 455 Q35 501 35 558 Q35 615 60.5 661 Q86 707 131.5 733 Q177 759 235 759 Q293 759 339 733 Q385 707 410.5 661 Q436 615 436 558 Z M390 558 Q390 627 347 672.5 Q304 718 235 718 Q166 718 123.5 672.5 Q81 627 81 558 Q81 489 123.5 443.5 Q166 398 235 398 Q304 398 347 443.5 Q390 489 390 558 Z M277 544 Q313 489 327 454 L279 454 Q259 500 233 539 L206 539 L206 454 L162 454 L162 671 L246 671 Q278 671 299.5 654 Q321 637 321 604 Q321 580 309.5 566 Q298 552 277 544 Z M207 575 L239 575 Q260 575 268.5 581.5 Q277 588 277 604 Q277 620 268 627 Q259 634 239 634 L207 634 L207 575 Z " />
<glyph glyph-name="section" unicode="&#xa7;" horiz-adv-x="531" d="M427 126 Q462 85 462 24 Q462 -18 440 -54.5 Q418 -91 375 -113 Q332 -135 272 -135 Q208 -135 162 -114.5 Q116 -94 92 -60.5 Q68 -27 66 10 L65 28 L207 28 Q209 2 225 -14 Q241 -30 272 -30 Q299 -30 314 -16 Q329 -2 329 19 Q329 47 307 62.5 Q285 78 235 97 Q227 100 216.5 104.5 Q206 109 192 115 Q129 143 96.5 162.5 Q64 182 44 214 Q24 246 24 298 Q24 340 44 374.5 Q64 409 99 432 Q64 473 64 534 Q64 576 86 612.5 Q108 649 151 671 Q194 693 254 693 Q318 693 364 672.5 Q410 652 434 618.5 Q458 585 460 548 L461 530 L319 530 Q317 556 301 572 Q285 588 254 588 Q227 588 212 574 Q197 560 197 539 Q197 511 219 495.5 Q241 480 291 461 Q299 458 309.5 453.5 Q320 449 334 443 Q397 415 429.5 395.5 Q462 376 482 344 Q502 312 502 260 Q502 218 482 183.5 Q462 149 427 126 Z M264 218 L293 207 L328 192 Q364 213 364 247 Q364 273 350.5 290 Q337 307 317 317 Q297 327 262 340 L233 351 L198 366 Q162 345 162 311 Q162 285 175.5 268 Q189 251 209 241 Q229 231 264 218 Z " />
<glyph glyph-name="trademark" unicode="&#x2122;" horiz-adv-x="745" d="M15 680 L288 680 L288 595 L198 595 L198 384 L105 384 L105 595 L15 595 L15 680 Z M724 680 L724 384 L638 384 L638 582 Q612 526 560 441 Q553 430 542 430 L515 430 Q505 430 498 441 Q449 515 419 581 L419 384 L333 384 L333 680 L456 680 Q485 618 529 540 Q570 611 598 680 L724 680 Z " />
<glyph glyph-name="degree" unicode="&#xb0;" horiz-adv-x="316" d="M15 553 Q15 614 55.5 653.5 Q96 693 158 693 Q220 693 260.5 653.5 Q301 614 301 553 Q301 492 260.5 452.5 Q220 413 158 413 Q96 413 55.5 452.5 Q15 492 15 553 Z M221 553 Q221 581 203.5 598.5 Q186 616 158 616 Q130 616 112.5 598.5 Q95 581 95 553 Q95 525 112.5 507.5 Q130 490 158 490 Q186 490 203.5 507.5 Q221 525 221 553 Z " />
<glyph glyph-name="asciicircum" unicode="&#x5e;" horiz-adv-x="570" d="M395 264 L285 510 L173 264 L20 264 L207 680 L363 680 L550 264 L395 264 Z " />
<glyph glyph-name="dagger" unicode="&#x2020;" horiz-adv-x="466" d="M426 366 L310 366 L310 -95 L154 -95 L154 366 L40 366 L40 496 L154 496 L154 680 L310 680 L310 496 L426 496 L426 366 Z " />
<glyph glyph-name="daggerdbl" unicode="&#x2021;" horiz-adv-x="466" d="M300 366 L300 242 L426 242 L426 112 L300 112 L300 -95 L164 -95 L164 112 L40 112 L40 242 L164 242 L164 366 L40 366 L40 496 L164 496 L164 680 L300 680 L300 496 L426 496 L426 366 L300 366 Z " />
<glyph glyph-name="uni0308" unicode="&#x308;" d="M-369 628 Q-369 661 -346 683 Q-323 705 -290 705 Q-255 705 -232.5 683.5 Q-210 662 -210 628 Q-210 594 -232.5 572.5 Q-255 551 -290 551 Q-323 551 -346 573 Q-369 595 -369 628 Z M-174 628 Q-174 661 -151 683 Q-128 705 -95 705 Q-60 705 -37.5 683.5 Q-15 662 -15 628 Q-15 594 -37.5 572.5 Q-60 551 -95 551 Q-128 551 -151 573 Q-174 595 -174 628 Z " />
<glyph glyph-name="uni0307" unicode="&#x307;" d="M-187 628 Q-187 664 -162 686.5 Q-137 709 -101 709 Q-65 709 -40 686.5 Q-15 664 -15 628 Q-15 592 -40 569.5 Q-65 547 -101 547 Q-137 547 -162 569.5 Q-187 592 -187 628 Z " />
<glyph glyph-name="gravecomb" unicode="&#x300;" d="M-82 685 Q-43 630 -15 560 L-136 560 Q-189 632 -239 685 L-82 685 Z " />
<glyph glyph-name="acutecomb" unicode="&#x301;" d="M-109 560 L-239 560 Q-211 630 -172 685 L-15 685 Q-58 635 -109 560 Z " />
<glyph glyph-name="uni030B" unicode="&#x30b;" d="M-274 560 L-385 560 Q-367 608 -329 680 L-196 680 Q-233 636 -274 560 Z M-104 560 L-215 560 Q-183 628 -148 680 L-15 680 Q-39 650 -104 560 Z " />
<glyph glyph-name="uni0302" unicode="&#x302;" d="M-136 560 Q-152 586 -189 628 Q-225 589 -243 560 L-364 560 Q-338 618 -287 680 L-92 680 Q-41 618 -15 560 L-136 560 Z " />
<glyph glyph-name="uni030C" unicode="&#x30c;" d="M-15 680 Q-41 622 -92 560 L-287 560 Q-338 622 -364 680 L-243 680 Q-225 651 -189 612 Q-152 654 -136 680 L-15 680 Z " />
<glyph glyph-name="uni0306" unicode="&#x306;" d="M-15 680 Q-15 616 -58 582 Q-101 548 -169 548 Q-237 548 -280 582 Q-323 616 -323 680 L-222 680 Q-222 659 -209 643.5 Q-196 628 -169 628 Q-142 628 -128.5 644 Q-115 660 -115 680 L-15 680 L-15 680 Z " />
<glyph glyph-name="uni030A" unicode="&#x30a;" d="M-263 646 Q-263 695 -229 727 Q-195 759 -139 759 Q-83 759 -49 727 Q-15 695 -15 646 Q-15 597 -49.5 565 Q-84 533 -139 533 Q-195 533 -229 565 Q-263 597 -263 646 Z M-86 646 Q-86 668 -100 683 Q-114 698 -139 698 Q-164 698 -178 683 Q-192 668 -192 646 Q-192 624 -178 609 Q-164 594 -139 594 Q-114 594 -100 609 Q-86 624 -86 646 Z " />
<glyph glyph-name="tildecomb" unicode="&#x303;" d="M-112 554 Q-135 554 -153 559.5 Q-171 565 -193 575 Q-209 583 -220 586.5 Q-231 590 -242 590 Q-257 590 -265.5 581.5 Q-274 573 -275 554 L-348 554 Q-346 612 -319 647 Q-292 682 -246 682 Q-227 682 -211 676.5 Q-195 671 -173 661 Q-160 655 -146.5 650 Q-133 645 -121 645 Q-90 645 -88 682 L-15 682 Q-17 622 -42 588 Q-67 554 -112 554 Z " />
<glyph glyph-name="uni0304" unicode="&#x304;" d="M-15 668 L-15 562 L-305 562 L-305 668 L-15 668 Z " />
<glyph glyph-name="uni0312" unicode="&#x312;" d="M-29 564 L-161 564 Q-160 642 -112 715 L-15 715 Q-29 640 -29 564 Z " />
<glyph glyph-name="uni0326" unicode="&#x326;" d="M-147 -49 L-15 -49 Q-16 -127 -64 -200 L-161 -200 Q-147 -125 -147 -49 Z " />
<glyph glyph-name="uni0327" unicode="&#x327;" d="M-15 -123 Q-15 -168 -46.5 -192 Q-78 -216 -128 -216 Q-159 -216 -187.5 -206.5 Q-216 -197 -234 -180 L-199 -124 Q-169 -146 -134 -146 Q-116 -146 -105 -139.5 Q-94 -133 -94 -120 Q-94 -107 -106.5 -101 Q-119 -95 -137 -95 Q-152 -95 -172 -100 L-192 -75 L-151 9 L-78 9 L-102 -37 Q-63 -43 -39 -65 Q-15 -87 -15 -123 Z " />
<glyph glyph-name="uni0328" unicode="&#x328;" d="M-15 0 Q-66 -25 -66 -58 Q-66 -72 -56 -80.5 Q-46 -89 -24 -89 L-18 -89 L-18 -186 Q-32 -189 -56 -189 Q-114 -189 -147 -164.5 Q-180 -140 -180 -95 Q-180 -52 -149.5 -20.5 Q-119 11 -67 29 L-15 0 Z " />
<glyph glyph-name="uni0335" unicode="&#x335;" d="M-15 285 L-15 183 L-340 183 L-340 285 L-15 285 Z " />
<glyph glyph-name="uni0336" unicode="&#x336;" d="M-15 274 L-15 194 L-470 194 L-470 274 L-15 274 Z " />
<glyph glyph-name="uni0337" unicode="&#x337;" d="M-279 292 L-279 422 L-45 565 L-45 434 L-279 292 Z " />
<glyph glyph-name="uni0338" unicode="&#x338;" d="M-374 -39 L-456 0 L-87 719 L-2 680 L-374 -39 Z " />
<glyph glyph-name="acute" unicode="&#xb4;" horiz-adv-x="254" d="M145 560 L15 560 Q43 630 82 685 L239 685 Q196 635 145 560 Z " />
<glyph glyph-name="breve" unicode="&#x2d8;" horiz-adv-x="338" d="M323 680 Q323 616 280 582 Q237 548 169 548 Q101 548 58 582 Q15 616 15 680 L116 680 Q116 659 129 643.5 Q142 628 169 628 Q196 628 209.5 644 Q223 660 223 680 L323 680 L323 680 Z " />
<glyph glyph-name="caron" unicode="&#x2c7;" horiz-adv-x="379" d="M364 680 Q338 622 287 560 L92 560 Q41 622 15 680 L136 680 Q154 651 190 612 Q227 654 243 680 L364 680 Z " />
<glyph glyph-name="cedilla" unicode="&#xb8;" horiz-adv-x="249" d="M234 -123 Q234 -168 202.5 -192 Q171 -216 121 -216 Q90 -216 61.5 -206.5 Q33 -197 15 -180 L50 -124 Q80 -146 115 -146 Q133 -146 144 -139.5 Q155 -133 155 -120 Q155 -107 142.5 -101 Q130 -95 112 -95 Q97 -95 77 -100 L57 -75 L98 9 L171 9 L147 -37 Q186 -43 210 -65 Q234 -87 234 -123 Z " />
<glyph glyph-name="circumflex" unicode="&#x2c6;" horiz-adv-x="379" d="M243 560 Q227 586 190 628 Q154 589 136 560 L15 560 Q41 618 92 680 L287 680 Q338 618 364 560 L243 560 Z " />
<glyph glyph-name="dieresis" unicode="&#xa8;" horiz-adv-x="384" d="M15 628 Q15 661 38 683 Q61 705 94 705 Q129 705 151.5 683.5 Q174 662 174 628 Q174 594 151.5 572.5 Q129 551 94 551 Q61 551 38 573 Q15 595 15 628 Z M210 628 Q210 661 233 683 Q256 705 289 705 Q324 705 346.5 683.5 Q369 662 369 628 Q369 594 346.5 572.5 Q324 551 289 551 Q256 551 233 573 Q210 595 210 628 Z " />
<glyph glyph-name="dotaccent" unicode="&#x2d9;" horiz-adv-x="202" d="M15 628 Q15 664 40 686.5 Q65 709 101 709 Q137 709 162 686.5 Q187 664 187 628 Q187 592 162 569.5 Q137 547 101 547 Q65 547 40 569.5 Q15 592 15 628 Z " />
<glyph glyph-name="grave" unicode="&#x60;" horiz-adv-x="254" d="M172 685 Q211 630 239 560 L118 560 Q65 632 15 685 L172 685 Z " />
<glyph glyph-name="hungarumlaut" unicode="&#x2dd;" horiz-adv-x="400" d="M126 560 L15 560 Q33 608 71 680 L204 680 Q167 636 126 560 Z M296 560 L185 560 Q217 628 252 680 L385 680 Q361 650 296 560 Z " />
<glyph glyph-name="overscore" unicode="&#xaf;" horiz-adv-x="320" d="M305 668 L305 562 L15 562 L15 668 L305 668 Z " />
<glyph glyph-name="ogonek" unicode="&#x2db;" horiz-adv-x="195" d="M180 0 Q129 -25 129 -58 Q129 -72 139 -80.5 Q149 -89 171 -89 L177 -89 L177 -186 Q163 -189 139 -189 Q81 -189 48 -164.5 Q15 -140 15 -95 Q15 -52 45.5 -20.5 Q76 11 128 29 L180 0 Z " />
<glyph glyph-name="ring" unicode="&#x2da;" horiz-adv-x="278" d="M15 646 Q15 695 49 727 Q83 759 139 759 Q195 759 229 727 Q263 695 263 646 Q263 597 228.5 565 Q194 533 139 533 Q83 533 49 565 Q15 597 15 646 Z M192 646 Q192 668 178 683 Q164 698 139 698 Q114 698 100 683 Q86 668 86 646 Q86 624 100 609 Q114 594 139 594 Q164 594 178 609 Q192 624 192 646 Z " />
<glyph glyph-name="tilde" unicode="&#x2dc;" horiz-adv-x="363" d="M251 554 Q228 554 210 559.5 Q192 565 170 575 Q154 583 143 586.5 Q132 590 121 590 Q106 590 97.5 581.5 Q89 573 88 554 L15 554 Q17 612 44 647 Q71 682 117 682 Q136 682 152 676.5 Q168 671 190 661 Q203 655 216.5 650 Q230 645 242 645 Q273 645 275 682 L348 682 Q346 622 321 588 Q296 554 251 554 Z " />
</font>
</svg>
