<?xml version="1.0" encoding="UTF-8"?>
<svg xmlns="http://www.w3.org/2000/svg" xmlns:xlink="http://www.w3.org/1999/xlink" version="1.2" >
<font id="AIA Everest Medium Italic">
<font-face  font-family="AIA Everest" units-per-em="1000" ascent="750" descent="-250" font-style="normal" font-weight="500" font-stretch="normal" slope="-13" cap-height="680" x-height="490" underline-position="-89" underline-thickness="82" />
<missing-glyph  horiz-adv-x="579" d="M100 780 L479 780 L479 -100 L100 -100 L100 780 Z " />
<glyph glyph-name="space" unicode="&#x20;" horiz-adv-x="230" d="" />
<glyph glyph-name="A" unicode="A" horiz-adv-x="635" d="M441 161 L166 161 Q135 102 85 0 L-36 0 Q39 149 147 343 Q255 537 333 659 Q340 671 348.5 675.5 Q357 680 374 680 L461 680 Q478 680 485 675.5 Q492 671 494 659 Q517 547 533.5 361 Q550 175 558 0 L447 0 Q445 77 441 161 Z M435 260 Q420 458 403 584 Q321 450 219 260 L435 260 Z " />
<glyph glyph-name="Aacute" unicode="&#xc1;" horiz-adv-x="635" d="M441 161 L166 161 Q135 102 85 0 L-36 0 Q39 149 147 343 Q255 537 333 659 Q340 671 348.5 675.5 Q357 680 374 680 L461 680 Q478 680 485 675.5 Q492 671 494 659 Q517 547 533.5 361 Q550 175 558 0 L447 0 Q445 77 441 161 Z M435 260 Q420 458 403 584 Q321 450 219 260 L435 260 Z M479 740 L378 740 Q419 805 473 862 L598 862 Q540 807 479 740 Z " />
<glyph glyph-name="Abreve" unicode="&#x102;" horiz-adv-x="635" d="M441 161 L166 161 Q135 102 85 0 L-36 0 Q39 149 147 343 Q255 537 333 659 Q340 671 348.5 675.5 Q357 680 374 680 L461 680 Q478 680 485 675.5 Q492 671 494 659 Q517 547 533.5 361 Q550 175 558 0 L447 0 Q445 77 441 161 Z M435 260 Q420 458 403 584 Q321 450 219 260 L435 260 Z M599 860 Q585 801 545 769 Q505 737 444 737 Q389 737 357.5 764 Q326 791 326 840 Q326 853 327 860 L400 860 Q397 836 408.5 819 Q420 802 450 802 Q506 802 524 860 L599 860 L599 860 Z " />
<glyph glyph-name="Acircumflex" unicode="&#xc2;" horiz-adv-x="635" d="M441 161 L166 161 Q135 102 85 0 L-36 0 Q39 149 147 343 Q255 537 333 659 Q340 671 348.5 675.5 Q357 680 374 680 L461 680 Q478 680 485 675.5 Q492 671 494 659 Q517 547 533.5 361 Q550 175 558 0 L447 0 Q445 77 441 161 Z M435 260 Q420 458 403 584 Q321 450 219 260 L435 260 Z M496 740 Q481 778 456 818 Q411 776 380 740 L289 740 Q308 769 335.5 801.5 Q363 834 389 860 L534 860 Q547 836 559 803 Q571 770 578 740 L496 740 Z " />
<glyph glyph-name="Adieresis" unicode="&#xc4;" horiz-adv-x="635" d="M441 161 L166 161 Q135 102 85 0 L-36 0 Q39 149 147 343 Q255 537 333 659 Q340 671 348.5 675.5 Q357 680 374 680 L461 680 Q478 680 485 675.5 Q492 671 494 659 Q517 547 533.5 361 Q550 175 558 0 L447 0 Q445 77 441 161 Z M435 260 Q420 458 403 584 Q321 450 219 260 L435 260 Z M287 807 Q287 834 305.5 851.5 Q324 869 351 869 Q378 869 396.5 851.5 Q415 834 415 807 Q415 780 396.5 762 Q378 744 351 744 Q324 744 305.5 762 Q287 780 287 807 Z M472 807 Q472 834 490.5 851.5 Q509 869 536 869 Q564 869 582.5 851.5 Q601 834 601 807 Q601 780 582.5 762 Q564 744 536 744 Q509 744 490.5 762 Q472 780 472 807 Z " />
<glyph glyph-name="Agrave" unicode="&#xc0;" horiz-adv-x="635" d="M441 161 L166 161 Q135 102 85 0 L-36 0 Q39 149 147 343 Q255 537 333 659 Q340 671 348.5 675.5 Q357 680 374 680 L461 680 Q478 680 485 675.5 Q492 671 494 659 Q517 547 533.5 361 Q550 175 558 0 L447 0 Q445 77 441 161 Z M435 260 Q420 458 403 584 Q321 450 219 260 L435 260 Z M432 862 Q457 811 471 740 L383 740 Q372 766 353 800.5 Q334 835 316 862 L432 862 Z " />
<glyph glyph-name="Amacron" unicode="&#x100;" horiz-adv-x="635" d="M441 161 L166 161 Q135 102 85 0 L-36 0 Q39 149 147 343 Q255 537 333 659 Q340 671 348.5 675.5 Q357 680 374 680 L461 680 Q478 680 485 675.5 Q492 671 494 659 Q517 547 533.5 361 Q550 175 558 0 L447 0 Q445 77 441 161 Z M435 260 Q420 458 403 584 Q321 450 219 260 L435 260 Z M582 836 L563 755 L311 755 L330 836 L582 836 Z " />
<glyph glyph-name="Aogonek" unicode="&#x104;" horiz-adv-x="635" d="M522 -105 L530 -105 L515 -174 Q500 -177 481 -177 Q441 -177 418.5 -157.5 Q396 -138 396 -108 Q396 -40 477 0 L447 0 Q445 77 441 161 L166 161 Q135 102 85 0 L-36 0 Q39 149 147 343 Q255 537 333 659 Q340 671 348.5 675.5 Q357 680 374 680 L461 680 Q478 680 485 675.5 Q492 671 494 659 Q517 547 533.5 361 Q550 175 558 0 Q526 -12 504 -34 Q482 -56 482 -78 Q482 -91 491 -98 Q500 -105 522 -105 Z M435 260 Q420 458 403 584 Q321 450 219 260 L435 260 Z " />
<glyph glyph-name="Aring" unicode="&#xc5;" horiz-adv-x="635" d="M441 161 L166 161 Q135 102 85 0 L-36 0 Q39 149 147 343 Q255 537 333 659 Q340 671 348.5 675.5 Q357 680 374 680 L461 680 Q478 680 485 675.5 Q492 671 494 659 Q517 547 533.5 361 Q550 175 558 0 L447 0 Q445 77 441 161 Z M435 260 Q420 458 403 584 Q321 450 219 260 L435 260 Z M340 819 Q340 863 369.5 890.5 Q399 918 447 918 Q495 918 524.5 890.5 Q554 863 554 819 Q554 776 524 748 Q494 720 447 720 Q399 720 369.5 748 Q340 776 340 819 Z M498 819 Q498 841 484.5 855.5 Q471 870 447 870 Q423 870 409.5 855.5 Q396 841 396 819 Q396 797 409.5 782.5 Q423 768 447 768 Q471 768 484.5 782.5 Q498 797 498 819 Z " />
<glyph glyph-name="Atilde" unicode="&#xc3;" horiz-adv-x="635" d="M441 161 L166 161 Q135 102 85 0 L-36 0 Q39 149 147 343 Q255 537 333 659 Q340 671 348.5 675.5 Q357 680 374 680 L461 680 Q478 680 485 675.5 Q492 671 494 659 Q517 547 533.5 361 Q550 175 558 0 L447 0 Q445 77 441 161 Z M435 260 Q420 458 403 584 Q321 450 219 260 L435 260 Z M507 740 Q485 740 468.5 747 Q452 754 432 767 Q417 777 406 781.5 Q395 786 384 786 Q366 786 355 774.5 Q344 763 337 740 L280 740 Q295 796 324.5 826 Q354 856 393 856 Q412 856 427 849.5 Q442 843 461 831 Q476 820 487 815 Q498 810 511 810 Q529 810 540.5 823 Q552 836 557 856 L614 856 Q599 799 572 769.5 Q545 740 507 740 Z " />
<glyph glyph-name="AE" unicode="&#xc6;" horiz-adv-x="874" d="M571 577 L530 397 L827 397 L803 295 L507 295 L463 103 L791 103 L767 0 L322 0 L359 161 L173 161 Q105 45 80 0 L-43 0 Q31 137 164 345.5 Q297 554 382 656 Q392 669 401 674.5 Q410 680 427 680 L914 680 L891 577 L571 577 Z M382 263 L461 604 Q369 480 235 263 L382 263 Z " />
<glyph glyph-name="B" unicode="B" horiz-adv-x="631" d="M580 219 Q580 149 546 100 Q512 51 452 25.5 Q392 0 316 0 L23 0 L179 680 L437 680 Q498 680 540 659 Q582 638 603.5 602.5 Q625 567 625 525 Q625 461 589 414 Q553 367 495 348 Q532 333 556 298.5 Q580 264 580 219 Z M232 397 L374 397 Q435 397 472 427 Q509 457 509 510 Q509 587 407 587 L275 587 L232 397 Z M465 217 Q465 257 437.5 281 Q410 305 357 305 L210 305 L162 93 L304 93 Q381 93 423 124.5 Q465 156 465 217 Z " />
<glyph glyph-name="C" unicode="C" horiz-adv-x="602" d="M57 225 Q57 279 71 344 L80 381 Q115 542 198.5 616.5 Q282 691 389 691 Q494 691 555 636.5 Q616 582 613 488 L497 488 Q491 535 464.5 561 Q438 587 381 587 Q308 587 262.5 525.5 Q217 464 195 368 L188 336 Q174 277 174 230 Q174 92 296 92 Q388 92 437 203 L559 203 Q522 93 452.5 40 Q383 -13 289 -13 Q173 -13 115 50 Q57 113 57 225 Z " />
<glyph glyph-name="Cacute" unicode="&#x106;" horiz-adv-x="602" d="M57 225 Q57 279 71 344 L80 381 Q115 542 198.5 616.5 Q282 691 389 691 Q494 691 555 636.5 Q616 582 613 488 L497 488 Q491 535 464.5 561 Q438 587 381 587 Q308 587 262.5 525.5 Q217 464 195 368 L188 336 Q174 277 174 230 Q174 92 296 92 Q388 92 437 203 L559 203 Q522 93 452.5 40 Q383 -13 289 -13 Q173 -13 115 50 Q57 113 57 225 Z M480 740 L379 740 Q420 805 474 862 L599 862 Q541 807 480 740 Z " />
<glyph glyph-name="Ccaron" unicode="&#x10c;" horiz-adv-x="602" d="M57 225 Q57 279 71 344 L80 381 Q115 542 198.5 616.5 Q282 691 389 691 Q494 691 555 636.5 Q616 582 613 488 L497 488 Q491 535 464.5 561 Q438 587 381 587 Q308 587 262.5 525.5 Q217 464 195 368 L188 336 Q174 277 174 230 Q174 92 296 92 Q388 92 437 203 L559 203 Q522 93 452.5 40 Q383 -13 289 -13 Q173 -13 115 50 Q57 113 57 225 Z M606 860 Q587 831 559.5 798.5 Q532 766 506 740 L361 740 Q347 765 335 798 Q323 831 317 860 L399 860 Q414 820 439 783 Q477 817 514 860 L606 860 Z " />
<glyph glyph-name="Ccedilla" unicode="&#xc7;" horiz-adv-x="602" d="M188 336 Q174 277 174 230 Q174 92 296 92 Q388 92 437 203 L559 203 Q522 93 452.5 40 Q383 -13 289 -13 L279 -13 L259 -40 Q291 -42 312 -59.5 Q333 -77 333 -106 Q333 -150 303.5 -174 Q274 -198 223 -198 Q192 -198 164 -188.5 Q136 -179 121 -164 L157 -123 Q167 -133 185 -138.5 Q203 -144 222 -144 Q244 -144 256.5 -135.5 Q269 -127 269 -112 Q269 -87 227 -87 Q211 -87 193 -92 L180 -69 L224 -7 Q140 10 98.5 70 Q57 130 57 225 Q57 277 71 344 L80 381 Q115 542 198.5 616.5 Q282 691 389 691 Q494 691 555 636.5 Q616 582 613 488 L497 488 Q491 535 464.5 561 Q438 587 381 587 Q308 587 262.5 525.5 Q217 464 195 368 L188 336 Z " />
<glyph glyph-name="Cdotaccent" unicode="&#x10a;" horiz-adv-x="602" d="M57 225 Q57 279 71 344 L80 381 Q115 542 198.5 616.5 Q282 691 389 691 Q494 691 555 636.5 Q616 582 613 488 L497 488 Q491 535 464.5 561 Q438 587 381 587 Q308 587 262.5 525.5 Q217 464 195 368 L188 336 Q174 277 174 230 Q174 92 296 92 Q388 92 437 203 L559 203 Q522 93 452.5 40 Q383 -13 289 -13 Q173 -13 115 50 Q57 113 57 225 Z M381 807 Q381 835 400 853 Q419 871 447 871 Q475 871 494 853 Q513 835 513 807 Q513 780 493.5 762 Q474 744 447 744 Q419 744 400 762 Q381 780 381 807 Z " />
<glyph glyph-name="D" unicode="D" horiz-adv-x="634" d="M179 680 L379 680 Q442 680 496 655.5 Q550 631 583.5 577.5 Q617 524 617 441 Q617 392 606 342 L600 312 Q534 0 244 0 L23 0 L179 680 Z M248 103 Q338 103 399.5 155.5 Q461 208 483 319 L489 346 Q498 391 498 426 Q498 501 461 539 Q424 577 356 577 L273 577 L164 103 L248 103 Z " />
<glyph glyph-name="Eth" unicode="&#xd0;" horiz-adv-x="646" d="M630 440 Q630 392 619 342 L612 312 Q548 0 257 0 L35 0 L105 304 L40 304 L58 381 L122 381 L191 680 L391 680 Q454 680 508 655.5 Q562 631 596 577 Q630 523 630 440 Z M510 426 Q510 501 473.5 539 Q437 577 369 577 L286 577 L241 381 L358 381 L340 304 L223 304 L176 103 L260 103 Q350 103 411.5 155.5 Q473 208 496 319 L501 346 Q510 391 510 426 Z " />
<glyph glyph-name="Dcaron" unicode="&#x10e;" horiz-adv-x="634" d="M179 680 L379 680 Q442 680 496 655.5 Q550 631 583.5 577.5 Q617 524 617 441 Q617 392 606 342 L600 312 Q534 0 244 0 L23 0 L179 680 Z M248 103 Q338 103 399.5 155.5 Q461 208 483 319 L489 346 Q498 391 498 426 Q498 501 461 539 Q424 577 356 577 L273 577 L164 103 L248 103 Z M582 860 Q563 831 535.5 798.5 Q508 766 482 740 L337 740 Q323 765 311 798 Q299 831 293 860 L375 860 Q390 820 415 783 Q453 817 490 860 L582 860 Z " />
<glyph glyph-name="Dcroat" unicode="&#x110;" horiz-adv-x="646" d="M630 440 Q630 392 619 342 L612 312 Q548 0 257 0 L35 0 L105 304 L40 304 L58 381 L122 381 L191 680 L391 680 Q454 680 508 655.5 Q562 631 596 577 Q630 523 630 440 Z M510 426 Q510 501 473.5 539 Q437 577 369 577 L286 577 L241 381 L358 381 L340 304 L223 304 L176 103 L260 103 Q350 103 411.5 155.5 Q473 208 496 319 L501 346 Q510 391 510 426 Z " />
<glyph glyph-name="E" unicode="E" horiz-adv-x="575" d="M272 577 L231 397 L528 397 L504 295 L208 295 L164 103 L492 103 L469 0 L23 0 L179 680 L616 680 L592 577 L272 577 Z " />
<glyph glyph-name="Eacute" unicode="&#xc9;" horiz-adv-x="575" d="M272 577 L231 397 L528 397 L504 295 L208 295 L164 103 L492 103 L469 0 L23 0 L179 680 L616 680 L592 577 L272 577 Z M461 740 L360 740 Q401 805 455 862 L580 862 Q522 807 461 740 Z " />
<glyph glyph-name="Ecaron" unicode="&#x11a;" horiz-adv-x="575" d="M272 577 L231 397 L528 397 L504 295 L208 295 L164 103 L492 103 L469 0 L23 0 L179 680 L616 680 L592 577 L272 577 Z M587 860 Q568 831 540.5 798.5 Q513 766 487 740 L342 740 Q328 765 316 798 Q304 831 298 860 L380 860 Q395 820 420 783 Q458 817 495 860 L587 860 Z " />
<glyph glyph-name="Ecircumflex" unicode="&#xca;" horiz-adv-x="575" d="M272 577 L231 397 L528 397 L504 295 L208 295 L164 103 L492 103 L469 0 L23 0 L179 680 L616 680 L592 577 L272 577 Z M478 740 Q463 778 438 818 Q393 776 362 740 L271 740 Q290 769 317.5 801.5 Q345 834 371 860 L516 860 Q529 836 541 803 Q553 770 560 740 L478 740 Z " />
<glyph glyph-name="Edieresis" unicode="&#xcb;" horiz-adv-x="575" d="M272 577 L231 397 L528 397 L504 295 L208 295 L164 103 L492 103 L469 0 L23 0 L179 680 L616 680 L592 577 L272 577 Z M269 807 Q269 834 287.5 851.5 Q306 869 333 869 Q360 869 378.5 851.5 Q397 834 397 807 Q397 780 378.5 762 Q360 744 333 744 Q306 744 287.5 762 Q269 780 269 807 Z M454 807 Q454 834 472.5 851.5 Q491 869 518 869 Q546 869 564.5 851.5 Q583 834 583 807 Q583 780 564.5 762 Q546 744 518 744 Q491 744 472.5 762 Q454 780 454 807 Z " />
<glyph glyph-name="Edotaccent" unicode="&#x116;" horiz-adv-x="575" d="M272 577 L231 397 L528 397 L504 295 L208 295 L164 103 L492 103 L469 0 L23 0 L179 680 L616 680 L592 577 L272 577 Z M362 807 Q362 835 381 853 Q400 871 428 871 Q456 871 475 853 Q494 835 494 807 Q494 780 474.5 762 Q455 744 428 744 Q400 744 381 762 Q362 780 362 807 Z " />
<glyph glyph-name="Egrave" unicode="&#xc8;" horiz-adv-x="575" d="M272 577 L231 397 L528 397 L504 295 L208 295 L164 103 L492 103 L469 0 L23 0 L179 680 L616 680 L592 577 L272 577 Z M414 862 Q439 811 453 740 L365 740 Q354 766 335 800.5 Q316 835 298 862 L414 862 Z " />
<glyph glyph-name="Emacron" unicode="&#x112;" horiz-adv-x="575" d="M272 577 L231 397 L528 397 L504 295 L208 295 L164 103 L492 103 L469 0 L23 0 L179 680 L616 680 L592 577 L272 577 Z M564 836 L545 755 L293 755 L312 836 L564 836 Z " />
<glyph glyph-name="Eogonek" unicode="&#x118;" horiz-adv-x="575" d="M272 577 L231 397 L528 397 L504 295 L208 295 L164 103 L492 103 L469 0 Q437 -12 415 -34 Q393 -56 393 -78 Q393 -91 402 -98 Q411 -105 433 -105 L441 -105 L425 -174 Q412 -177 392 -177 Q351 -177 329 -157.5 Q307 -138 307 -108 Q307 -40 388 0 L23 0 L179 680 L616 680 L592 577 L272 577 Z " />
<glyph glyph-name="F" unicode="F" horiz-adv-x="565" d="M272 577 L231 397 L528 397 L504 295 L208 295 L140 0 L23 0 L179 680 L616 680 L592 577 L272 577 Z " />
<glyph glyph-name="G" unicode="G" horiz-adv-x="631" d="M56 224 Q56 279 70 338 L78 374 Q151 692 398 692 Q464 692 515.5 668 Q567 644 596 599.5 Q625 555 624 496 L505 496 Q500 537 471 562.5 Q442 588 387 588 Q305 588 259.5 524.5 Q214 461 191 357 L184 327 Q172 272 172 235 Q172 170 201.5 131 Q231 92 296 92 Q420 92 463 248 L469 271 L327 271 L350 373 L608 373 L584 269 Q521 -12 286 -12 Q186 -12 121 47.5 Q56 107 56 224 Z " />
<glyph glyph-name="Gbreve" unicode="&#x11e;" horiz-adv-x="631" d="M56 224 Q56 279 70 338 L78 374 Q151 692 398 692 Q464 692 515.5 668 Q567 644 596 599.5 Q625 555 624 496 L505 496 Q500 537 471 562.5 Q442 588 387 588 Q305 588 259.5 524.5 Q214 461 191 357 L184 327 Q172 272 172 235 Q172 170 201.5 131 Q231 92 296 92 Q420 92 463 248 L469 271 L327 271 L350 373 L608 373 L584 269 Q521 -12 286 -12 Q186 -12 121 47.5 Q56 107 56 224 Z M588 860 Q574 801 534 769 Q494 737 433 737 Q378 737 346.5 764 Q315 791 315 840 Q315 853 316 860 L389 860 Q386 836 397.5 819 Q409 802 439 802 Q495 802 513 860 L588 860 L588 860 Z " />
<glyph glyph-name="uni0122" unicode="&#x122;" horiz-adv-x="631" d="M56 224 Q56 279 70 338 L78 374 Q151 692 398 692 Q464 692 515.5 668 Q567 644 596 599.5 Q625 555 624 496 L505 496 Q500 537 471 562.5 Q442 588 387 588 Q305 588 259.5 524.5 Q214 461 191 357 L184 327 Q172 272 172 235 Q172 170 201.5 131 Q231 92 296 92 Q420 92 463 248 L469 271 L327 271 L350 373 L608 373 L584 269 Q521 -12 286 -12 Q186 -12 121 47.5 Q56 107 56 224 Z M184 -52 L282 -52 Q271 -99 249 -134 Q227 -169 199 -200 L134 -200 Q167 -125 184 -52 Z " />
<glyph glyph-name="Gdotaccent" unicode="&#x120;" horiz-adv-x="631" d="M56 224 Q56 279 70 338 L78 374 Q151 692 398 692 Q464 692 515.5 668 Q567 644 596 599.5 Q625 555 624 496 L505 496 Q500 537 471 562.5 Q442 588 387 588 Q305 588 259.5 524.5 Q214 461 191 357 L184 327 Q172 272 172 235 Q172 170 201.5 131 Q231 92 296 92 Q420 92 463 248 L469 271 L327 271 L350 373 L608 373 L584 269 Q521 -12 286 -12 Q186 -12 121 47.5 Q56 107 56 224 Z M369 807 Q369 835 388 853 Q407 871 435 871 Q463 871 482 853 Q501 835 501 807 Q501 780 481.5 762 Q462 744 435 744 Q407 744 388 762 Q369 780 369 807 Z " />
<glyph glyph-name="H" unicode="H" horiz-adv-x="685" d="M704 680 L548 0 L431 0 L499 295 L208 295 L140 0 L23 0 L179 680 L296 680 L231 397 L522 397 L587 680 L704 680 Z " />
<glyph glyph-name="Hbar" unicode="&#x126;" horiz-adv-x="685" d="M707 500 L661 500 L546 0 L428 0 L496 295 L206 295 L138 0 L20 0 L135 500 L89 500 L107 578 L153 578 L176 680 L294 680 L271 578 L561 578 L584 680 L702 680 L679 578 L725 578 L707 500 Z M543 500 L253 500 L229 397 L519 397 L543 500 Z " />
<glyph glyph-name="I" unicode="I" horiz-adv-x="285" d="M145 0 L27 0 L183 680 L301 680 L145 0 Z " />
<glyph glyph-name="Iacute" unicode="&#xcd;" horiz-adv-x="285" d="M145 0 L27 0 L183 680 L301 680 L145 0 Z M301 740 L200 740 Q241 805 295 862 L420 862 Q362 807 301 740 Z " />
<glyph glyph-name="Icircumflex" unicode="&#xce;" horiz-adv-x="285" d="M145 0 L27 0 L183 680 L301 680 L145 0 Z M318 740 Q303 778 278 818 Q233 776 202 740 L111 740 Q130 769 157.5 801.5 Q185 834 211 860 L356 860 Q369 836 381 803 Q393 770 400 740 L318 740 Z " />
<glyph glyph-name="Idieresis" unicode="&#xcf;" horiz-adv-x="285" d="M145 0 L27 0 L183 680 L301 680 L145 0 Z M109 807 Q109 834 127.5 851.5 Q146 869 173 869 Q200 869 218.5 851.5 Q237 834 237 807 Q237 780 218.5 762 Q200 744 173 744 Q146 744 127.5 762 Q109 780 109 807 Z M294 807 Q294 834 312.5 851.5 Q331 869 358 869 Q386 869 404.5 851.5 Q423 834 423 807 Q423 780 404.5 762 Q386 744 358 744 Q331 744 312.5 762 Q294 780 294 807 Z " />
<glyph glyph-name="Idot" unicode="&#x130;" horiz-adv-x="285" d="M145 0 L27 0 L183 680 L301 680 L145 0 Z M202 807 Q202 835 221 853 Q240 871 268 871 Q296 871 315 853 Q334 835 334 807 Q334 780 314.5 762 Q295 744 268 744 Q240 744 221 762 Q202 780 202 807 Z " />
<glyph glyph-name="Igrave" unicode="&#xcc;" horiz-adv-x="285" d="M145 0 L27 0 L183 680 L301 680 L145 0 Z M254 862 Q279 811 293 740 L205 740 Q194 766 175 800.5 Q156 835 138 862 L254 862 Z " />
<glyph glyph-name="Imacron" unicode="&#x12a;" horiz-adv-x="285" d="M145 0 L27 0 L183 680 L301 680 L145 0 Z M404 836 L385 755 L133 755 L152 836 L404 836 Z " />
<glyph glyph-name="Iogonek" unicode="&#x12e;" horiz-adv-x="285" d="M69 -78 Q69 -91 78 -98 Q87 -105 109 -105 L117 -105 L102 -174 Q87 -177 68 -177 Q28 -177 5.5 -157.5 Q-17 -138 -17 -108 Q-17 -40 64 0 L27 0 L183 680 L301 680 L145 0 Q113 -12 91 -34 Q69 -56 69 -78 Z " />
<glyph glyph-name="J" unicode="J" horiz-adv-x="417" d="M87 96 Q141 96 169.5 123 Q198 150 214 216 L321 680 L438 680 L327 196 Q301 85 246 38 Q191 -9 96 -9 Q61 -9 23 -3 Q-15 3 -34 10 L-10 110 Q10 103 37 99.5 Q64 96 87 96 Z " />
<glyph glyph-name="K" unicode="K" horiz-adv-x="630" d="M423 396 Q465 302 505 183.5 Q545 65 556 0 L439 0 Q423 68 392.5 160 Q362 252 330 318 Q258 260 188 208 L140 0 L23 0 L179 680 L296 680 L220 349 Q442 536 561 680 L695 680 Q592 543 423 396 Z " />
<glyph glyph-name="uni0136" unicode="&#x136;" horiz-adv-x="630" d="M423 396 Q465 302 505 183.5 Q545 65 556 0 L439 0 Q423 68 392.5 160 Q362 252 330 318 Q258 260 188 208 L140 0 L23 0 L179 680 L296 680 L220 349 Q442 536 561 680 L695 680 Q592 543 423 396 Z M224 -52 L322 -52 Q311 -99 289 -134 Q267 -169 239 -200 L174 -200 Q207 -125 224 -52 Z " />
<glyph glyph-name="L" unicode="L" horiz-adv-x="531" d="M468 103 L445 0 L23 0 L179 680 L296 680 L164 103 L468 103 Z " />
<glyph glyph-name="Lacute" unicode="&#x139;" horiz-adv-x="531" d="M468 103 L445 0 L23 0 L179 680 L296 680 L164 103 L468 103 Z M302 740 L201 740 Q242 805 296 862 L421 862 Q363 807 302 740 Z " />
<glyph glyph-name="Lcaron" unicode="&#x13d;" horiz-adv-x="531" d="M468 103 L445 0 L23 0 L179 680 L296 680 L164 103 L468 103 Z M375 503 L324 503 Q366 602 384 681 L470 681 Q445 582 375 503 Z " />
<glyph glyph-name="uni013B" unicode="&#x13b;" horiz-adv-x="531" d="M468 103 L445 0 L23 0 L179 680 L296 680 L164 103 L468 103 Z M176 -52 L274 -52 Q263 -99 241 -134 Q219 -169 191 -200 L126 -200 Q159 -125 176 -52 Z " />
<glyph glyph-name="Lslash" unicode="&#x141;" horiz-adv-x="561" d="M498 103 L475 0 L53 0 L105 227 L24 184 L47 283 L128 326 L209 680 L326 680 L261 397 L418 481 L394 381 L238 298 L194 103 L498 103 Z " />
<glyph glyph-name="M" unicode="M" horiz-adv-x="789" d="M808 680 L652 0 L540 0 L656 503 Q526 306 417 169 Q401 150 383 150 L361 150 Q351 150 346 154.5 Q341 159 338 169 Q287 327 251 504 L135 0 L23 0 L179 680 L310 680 Q326 601 351.5 492.5 Q377 384 401 299 Q465 386 538.5 493.5 Q612 601 661 680 L808 680 Z " />
<glyph glyph-name="N" unicode="N" horiz-adv-x="687" d="M706 680 L550 0 L446 0 L254 518 L135 0 L23 0 L179 680 L298 680 L481 189 L594 680 L706 680 Z " />
<glyph glyph-name="Nacute" unicode="&#x143;" horiz-adv-x="687" d="M706 680 L550 0 L446 0 L254 518 L135 0 L23 0 L179 680 L298 680 L481 189 L594 680 L706 680 Z M504 740 L403 740 Q444 805 498 862 L623 862 Q565 807 504 740 Z " />
<glyph glyph-name="Ncaron" unicode="&#x147;" horiz-adv-x="687" d="M706 680 L550 0 L446 0 L254 518 L135 0 L23 0 L179 680 L298 680 L481 189 L594 680 L706 680 Z M630 860 Q611 831 583.5 798.5 Q556 766 530 740 L385 740 Q371 765 359 798 Q347 831 341 860 L423 860 Q438 820 463 783 Q501 817 538 860 L630 860 Z " />
<glyph glyph-name="uni0145" unicode="&#x145;" horiz-adv-x="687" d="M706 680 L550 0 L446 0 L254 518 L135 0 L23 0 L179 680 L298 680 L481 189 L594 680 L706 680 Z M228 -52 L326 -52 Q315 -99 293 -134 Q271 -169 243 -200 L178 -200 Q211 -125 228 -52 Z " />
<glyph glyph-name="Eng" unicode="&#x14a;" horiz-adv-x="687" d="M706 680 L550 -2 Q531 -87 481 -128 Q431 -169 348 -169 Q321 -169 290.5 -165 Q260 -161 245 -154 L267 -64 Q298 -76 344 -76 Q423 -76 441 -5 L444 7 L254 517 L135 0 L23 0 L179 680 L298 680 L482 189 L594 680 L706 680 Z " />
<glyph glyph-name="Ntilde" unicode="&#xd1;" horiz-adv-x="687" d="M706 680 L550 0 L446 0 L254 518 L135 0 L23 0 L179 680 L298 680 L481 189 L594 680 L706 680 Z M532 740 Q510 740 493.5 747 Q477 754 457 767 Q442 777 431 781.5 Q420 786 409 786 Q391 786 380 774.5 Q369 763 362 740 L305 740 Q320 796 349.5 826 Q379 856 418 856 Q437 856 452 849.5 Q467 843 486 831 Q501 820 512 815 Q523 810 536 810 Q554 810 565.5 823 Q577 836 582 856 L639 856 Q624 799 597 769.5 Q570 740 532 740 Z " />
<glyph glyph-name="O" unicode="O" horiz-adv-x="648" d="M56 226 Q56 281 71 345 L80 383 Q117 543 201 618 Q285 693 395 693 Q515 693 574.5 630 Q634 567 634 456 Q634 400 619 335 L611 297 Q573 137 489 62 Q405 -13 296 -13 Q176 -13 116 50.5 Q56 114 56 226 Z M496 311 L503 342 Q517 401 517 446 Q517 514 485.5 551 Q454 588 387 588 Q310 588 263.5 527 Q217 466 194 369 L187 338 Q173 279 173 233 Q173 166 204.5 129 Q236 92 303 92 Q380 92 426.5 153 Q473 214 496 311 Z " />
<glyph glyph-name="Oacute" unicode="&#xd3;" horiz-adv-x="648" d="M56 226 Q56 281 71 345 L80 383 Q117 543 201 618 Q285 693 395 693 Q515 693 574.5 630 Q634 567 634 456 Q634 400 619 335 L611 297 Q573 137 489 62 Q405 -13 296 -13 Q176 -13 116 50.5 Q56 114 56 226 Z M496 311 L503 342 Q517 401 517 446 Q517 514 485.5 551 Q454 588 387 588 Q310 588 263.5 527 Q217 466 194 369 L187 338 Q173 279 173 233 Q173 166 204.5 129 Q236 92 303 92 Q380 92 426.5 153 Q473 214 496 311 Z M482 740 L381 740 Q422 805 476 862 L601 862 Q543 807 482 740 Z " />
<glyph glyph-name="Ocircumflex" unicode="&#xd4;" horiz-adv-x="648" d="M56 226 Q56 281 71 345 L80 383 Q117 543 201 618 Q285 693 395 693 Q515 693 574.5 630 Q634 567 634 456 Q634 400 619 335 L611 297 Q573 137 489 62 Q405 -13 296 -13 Q176 -13 116 50.5 Q56 114 56 226 Z M496 311 L503 342 Q517 401 517 446 Q517 514 485.5 551 Q454 588 387 588 Q310 588 263.5 527 Q217 466 194 369 L187 338 Q173 279 173 233 Q173 166 204.5 129 Q236 92 303 92 Q380 92 426.5 153 Q473 214 496 311 Z M499 740 Q484 778 459 818 Q414 776 383 740 L292 740 Q311 769 338.5 801.5 Q366 834 392 860 L537 860 Q550 836 562 803 Q574 770 581 740 L499 740 Z " />
<glyph glyph-name="Odieresis" unicode="&#xd6;" horiz-adv-x="648" d="M56 226 Q56 281 71 345 L80 383 Q117 543 201 618 Q285 693 395 693 Q515 693 574.5 630 Q634 567 634 456 Q634 400 619 335 L611 297 Q573 137 489 62 Q405 -13 296 -13 Q176 -13 116 50.5 Q56 114 56 226 Z M496 311 L503 342 Q517 401 517 446 Q517 514 485.5 551 Q454 588 387 588 Q310 588 263.5 527 Q217 466 194 369 L187 338 Q173 279 173 233 Q173 166 204.5 129 Q236 92 303 92 Q380 92 426.5 153 Q473 214 496 311 Z M290 807 Q290 834 308.5 851.5 Q327 869 354 869 Q381 869 399.5 851.5 Q418 834 418 807 Q418 780 399.5 762 Q381 744 354 744 Q327 744 308.5 762 Q290 780 290 807 Z M475 807 Q475 834 493.5 851.5 Q512 869 539 869 Q567 869 585.5 851.5 Q604 834 604 807 Q604 780 585.5 762 Q567 744 539 744 Q512 744 493.5 762 Q475 780 475 807 Z " />
<glyph glyph-name="Ograve" unicode="&#xd2;" horiz-adv-x="648" d="M56 226 Q56 281 71 345 L80 383 Q117 543 201 618 Q285 693 395 693 Q515 693 574.5 630 Q634 567 634 456 Q634 400 619 335 L611 297 Q573 137 489 62 Q405 -13 296 -13 Q176 -13 116 50.5 Q56 114 56 226 Z M496 311 L503 342 Q517 401 517 446 Q517 514 485.5 551 Q454 588 387 588 Q310 588 263.5 527 Q217 466 194 369 L187 338 Q173 279 173 233 Q173 166 204.5 129 Q236 92 303 92 Q380 92 426.5 153 Q473 214 496 311 Z M435 862 Q460 811 474 740 L386 740 Q375 766 356 800.5 Q337 835 319 862 L435 862 Z " />
<glyph glyph-name="Ohungarumlaut" unicode="&#x150;" horiz-adv-x="648" d="M56 226 Q56 281 71 345 L80 383 Q117 543 201 618 Q285 693 395 693 Q515 693 574.5 630 Q634 567 634 456 Q634 400 619 335 L611 297 Q573 137 489 62 Q405 -13 296 -13 Q176 -13 116 50.5 Q56 114 56 226 Z M496 311 L503 342 Q517 401 517 446 Q517 514 485.5 551 Q454 588 387 588 Q310 588 263.5 527 Q217 466 194 369 L187 338 Q173 279 173 233 Q173 166 204.5 129 Q236 92 303 92 Q380 92 426.5 153 Q473 214 496 311 Z M405 740 L322 740 Q346 780 406 860 L511 860 Q466 817 405 740 Z M583 771 Q573 759 554 740 L471 740 Q514 802 566 860 L671 860 Q645 834 622.5 811 Q600 788 583 771 Z " />
<glyph glyph-name="Omacron" unicode="&#x14c;" horiz-adv-x="648" d="M56 226 Q56 281 71 345 L80 383 Q117 543 201 618 Q285 693 395 693 Q515 693 574.5 630 Q634 567 634 456 Q634 400 619 335 L611 297 Q573 137 489 62 Q405 -13 296 -13 Q176 -13 116 50.5 Q56 114 56 226 Z M496 311 L503 342 Q517 401 517 446 Q517 514 485.5 551 Q454 588 387 588 Q310 588 263.5 527 Q217 466 194 369 L187 338 Q173 279 173 233 Q173 166 204.5 129 Q236 92 303 92 Q380 92 426.5 153 Q473 214 496 311 Z M585 836 L566 755 L314 755 L333 836 L585 836 Z " />
<glyph glyph-name="Oslash" unicode="&#xd8;" horiz-adv-x="648" d="M591 610 Q634 551 634 456 Q634 400 619 335 L611 297 Q573 137 489 62 Q405 -13 296 -13 Q208 -13 152 22 L110 -35 L56 3 L103 66 Q56 126 56 225 Q56 281 71 345 L80 383 Q117 543 201 618 Q285 693 395 693 Q485 693 542 656 L585 714 L641 677 L591 610 Z M173 234 Q173 199 182 172 L473 563 Q440 588 387 588 Q310 588 263.5 527 Q217 466 194 369 L187 338 Q173 279 173 234 Z M517 445 Q517 472 510 502 L221 114 Q252 92 303 92 Q380 92 426.5 153 Q473 214 496 311 L503 342 Q517 401 517 445 Z " />
<glyph glyph-name="Otilde" unicode="&#xd5;" horiz-adv-x="648" d="M56 226 Q56 281 71 345 L80 383 Q117 543 201 618 Q285 693 395 693 Q515 693 574.5 630 Q634 567 634 456 Q634 400 619 335 L611 297 Q573 137 489 62 Q405 -13 296 -13 Q176 -13 116 50.5 Q56 114 56 226 Z M496 311 L503 342 Q517 401 517 446 Q517 514 485.5 551 Q454 588 387 588 Q310 588 263.5 527 Q217 466 194 369 L187 338 Q173 279 173 233 Q173 166 204.5 129 Q236 92 303 92 Q380 92 426.5 153 Q473 214 496 311 Z M510 740 Q488 740 471.5 747 Q455 754 435 767 Q420 777 409 781.5 Q398 786 387 786 Q369 786 358 774.5 Q347 763 340 740 L283 740 Q298 796 327.5 826 Q357 856 396 856 Q415 856 430 849.5 Q445 843 464 831 Q479 820 490 815 Q501 810 514 810 Q532 810 543.5 823 Q555 836 560 856 L617 856 Q602 799 575 769.5 Q548 740 510 740 Z " />
<glyph glyph-name="OE" unicode="&#x152;" horiz-adv-x="958" d="M656 577 L615 397 L911 397 L888 295 L592 295 L548 103 L875 103 L852 0 L406 0 L416 46 Q351 -13 269 -13 Q162 -13 109.5 49 Q57 111 57 221 Q57 277 71 345 L80 383 Q116 543 198.5 618 Q281 693 388 693 Q498 693 549 623 L562 680 L999 680 L976 577 L656 577 Z M449 186 L521 502 Q506 543 471.5 565.5 Q437 588 387 588 Q310 588 263.5 527 Q217 466 194 369 L187 338 Q173 279 173 233 Q173 166 204.5 129 Q236 92 303 92 Q394 92 449 186 Z " />
<glyph glyph-name="P" unicode="P" horiz-adv-x="606" d="M626 499 Q626 427 593.5 370.5 Q561 314 500 282.5 Q439 251 358 251 L198 251 L140 0 L23 0 L179 680 L419 680 Q477 680 524 658.5 Q571 637 598.5 596 Q626 555 626 499 Z M508 485 Q508 530 478.5 555 Q449 580 399 580 L273 580 L221 351 L358 351 Q430 351 469 387 Q508 423 508 485 Z " />
<glyph glyph-name="Thorn" unicode="&#xde;" horiz-adv-x="594" d="M588 384 Q588 312 555.5 255.5 Q523 199 462 167.5 Q401 136 320 136 L171 136 L140 0 L23 0 L179 680 L296 680 L270 565 L381 565 Q438 565 485 543 Q532 521 560 480 Q588 439 588 384 Z M470 370 Q470 415 440.5 440 Q411 465 361 465 L247 465 L194 236 L320 236 Q392 236 431 272 Q470 308 470 370 Z " />
<glyph glyph-name="Q" unicode="Q" horiz-adv-x="648" d="M634 456 Q634 400 619 335 L611 297 Q562 90 430 19 Q457 -6 526 -6 Q548 -6 566 -4 L546 -90 Q524 -96 490 -96 Q433 -96 385.5 -76.5 Q338 -57 319 -12 Q311 -13 296 -13 Q176 -13 116 50.5 Q56 114 56 226 Q56 281 71 345 L80 383 Q117 543 201 618 Q285 693 395 693 Q515 693 574.5 630 Q634 567 634 456 Z M517 446 Q517 514 485.5 551 Q454 588 387 588 Q310 588 263.5 527 Q217 466 194 369 L187 338 Q173 279 173 233 Q173 166 204.5 129 Q236 92 303 92 Q380 92 426.5 153 Q473 214 496 311 L503 342 Q517 401 517 446 Z " />
<glyph glyph-name="R" unicode="R" horiz-adv-x="626" d="M436 282 Q467 219 498 133 Q529 47 540 0 L420 0 Q404 57 376 135 Q348 213 319 270 L202 270 L140 0 L23 0 L179 680 L419 680 Q508 680 567 634.5 Q626 589 626 508 Q626 421 575.5 361 Q525 301 436 282 Z M508 495 Q508 536 479 558 Q450 580 399 580 L273 580 L225 370 L359 370 Q432 370 470 403 Q508 436 508 495 Z " />
<glyph glyph-name="Racute" unicode="&#x154;" horiz-adv-x="626" d="M436 282 Q467 219 498 133 Q529 47 540 0 L420 0 Q404 57 376 135 Q348 213 319 270 L202 270 L140 0 L23 0 L179 680 L419 680 Q508 680 567 634.5 Q626 589 626 508 Q626 421 575.5 361 Q525 301 436 282 Z M508 495 Q508 536 479 558 Q450 580 399 580 L273 580 L225 370 L359 370 Q432 370 470 403 Q508 436 508 495 Z M460 740 L359 740 Q400 805 454 862 L579 862 Q521 807 460 740 Z " />
<glyph glyph-name="Rcaron" unicode="&#x158;" horiz-adv-x="626" d="M436 282 Q467 219 498 133 Q529 47 540 0 L420 0 Q404 57 376 135 Q348 213 319 270 L202 270 L140 0 L23 0 L179 680 L419 680 Q508 680 567 634.5 Q626 589 626 508 Q626 421 575.5 361 Q525 301 436 282 Z M508 495 Q508 536 479 558 Q450 580 399 580 L273 580 L225 370 L359 370 Q432 370 470 403 Q508 436 508 495 Z M586 860 Q567 831 539.5 798.5 Q512 766 486 740 L341 740 Q327 765 315 798 Q303 831 297 860 L379 860 Q394 820 419 783 Q457 817 494 860 L586 860 Z " />
<glyph glyph-name="uni0156" unicode="&#x156;" horiz-adv-x="626" d="M436 282 Q467 219 498 133 Q529 47 540 0 L420 0 Q404 57 376 135 Q348 213 319 270 L202 270 L140 0 L23 0 L179 680 L419 680 Q508 680 567 634.5 Q626 589 626 508 Q626 421 575.5 361 Q525 301 436 282 Z M508 495 Q508 536 479 558 Q450 580 399 580 L273 580 L225 370 L359 370 Q432 370 470 403 Q508 436 508 495 Z M212 -52 L310 -52 Q299 -99 277 -134 Q255 -169 227 -200 L162 -200 Q195 -125 212 -52 Z " />
<glyph glyph-name="S" unicode="S" horiz-adv-x="575" d="M23 204 L140 204 Q136 150 175 119 Q214 88 280 88 Q336 88 370 116.5 Q404 145 404 191 Q404 225 384 245.5 Q364 266 313 288 L259 312 Q180 348 143 387 Q106 426 106 484 Q106 543 135.5 590 Q165 637 218 663.5 Q271 690 339 690 Q407 690 461.5 667 Q516 644 546 602 Q576 560 573 504 L455 504 Q455 542 421 566 Q387 590 335 590 Q284 590 253.5 564 Q223 538 223 498 Q223 468 247.5 446.5 Q272 425 323 403 L377 380 Q444 351 482.5 310 Q521 269 521 210 Q521 144 490.5 94.5 Q460 45 405 17.5 Q350 -10 278 -10 Q158 -10 88 45.5 Q18 101 23 204 Z " />
<glyph glyph-name="Sacute" unicode="&#x15a;" horiz-adv-x="575" d="M23 204 L140 204 Q136 150 175 119 Q214 88 280 88 Q336 88 370 116.5 Q404 145 404 191 Q404 225 384 245.5 Q364 266 313 288 L259 312 Q180 348 143 387 Q106 426 106 484 Q106 543 135.5 590 Q165 637 218 663.5 Q271 690 339 690 Q407 690 461.5 667 Q516 644 546 602 Q576 560 573 504 L455 504 Q455 542 421 566 Q387 590 335 590 Q284 590 253.5 564 Q223 538 223 498 Q223 468 247.5 446.5 Q272 425 323 403 L377 380 Q444 351 482.5 310 Q521 269 521 210 Q521 144 490.5 94.5 Q460 45 405 17.5 Q350 -10 278 -10 Q158 -10 88 45.5 Q18 101 23 204 Z M439 740 L338 740 Q379 805 433 862 L558 862 Q500 807 439 740 Z " />
<glyph glyph-name="Scaron" unicode="&#x160;" horiz-adv-x="575" d="M23 204 L140 204 Q136 150 175 119 Q214 88 280 88 Q336 88 370 116.5 Q404 145 404 191 Q404 225 384 245.5 Q364 266 313 288 L259 312 Q180 348 143 387 Q106 426 106 484 Q106 543 135.5 590 Q165 637 218 663.5 Q271 690 339 690 Q407 690 461.5 667 Q516 644 546 602 Q576 560 573 504 L455 504 Q455 542 421 566 Q387 590 335 590 Q284 590 253.5 564 Q223 538 223 498 Q223 468 247.5 446.5 Q272 425 323 403 L377 380 Q444 351 482.5 310 Q521 269 521 210 Q521 144 490.5 94.5 Q460 45 405 17.5 Q350 -10 278 -10 Q158 -10 88 45.5 Q18 101 23 204 Z M565 860 Q546 831 518.5 798.5 Q491 766 465 740 L320 740 Q306 765 294 798 Q282 831 276 860 L358 860 Q373 820 398 783 Q436 817 473 860 L565 860 Z " />
<glyph glyph-name="Scedilla" unicode="&#x15e;" horiz-adv-x="575" d="M223 498 Q223 468 247.5 446.5 Q272 425 323 403 L377 380 Q444 351 482.5 310 Q521 269 521 210 Q521 144 490.5 94.5 Q460 45 405 17.5 Q350 -10 278 -10 L270 -10 L248 -40 Q279 -42 300 -59.5 Q321 -77 321 -106 Q321 -150 291.5 -174 Q262 -198 211 -198 Q180 -198 152 -188.5 Q124 -179 109 -164 L145 -123 Q155 -133 173 -138.5 Q191 -144 210 -144 Q232 -144 244.5 -135.5 Q257 -127 257 -112 Q257 -87 216 -87 Q199 -87 181 -92 L169 -69 L214 -5 Q122 8 70.5 62 Q19 116 23 204 L140 204 Q136 150 175 119 Q214 88 280 88 Q336 88 370 116.5 Q404 145 404 191 Q404 225 384 245.5 Q364 266 313 288 L259 312 Q180 348 143 387 Q106 426 106 484 Q106 543 135.5 590 Q165 637 218 663.5 Q271 690 339 690 Q407 690 461.5 667 Q516 644 546 602 Q576 560 573 504 L455 504 Q455 542 421 566 Q387 590 335 590 Q284 590 253.5 564 Q223 538 223 498 Z " />
<glyph glyph-name="uni0218" unicode="&#x218;" horiz-adv-x="575" d="M23 204 L140 204 Q136 150 175 119 Q214 88 280 88 Q336 88 370 116.5 Q404 145 404 191 Q404 225 384 245.5 Q364 266 313 288 L259 312 Q180 348 143 387 Q106 426 106 484 Q106 543 135.5 590 Q165 637 218 663.5 Q271 690 339 690 Q407 690 461.5 667 Q516 644 546 602 Q576 560 573 504 L455 504 Q455 542 421 566 Q387 590 335 590 Q284 590 253.5 564 Q223 538 223 498 Q223 468 247.5 446.5 Q272 425 323 403 L377 380 Q444 351 482.5 310 Q521 269 521 210 Q521 144 490.5 94.5 Q460 45 405 17.5 Q350 -10 278 -10 Q158 -10 88 45.5 Q18 101 23 204 Z M186 -52 L284 -52 Q273 -99 251 -134 Q229 -169 201 -200 L136 -200 Q169 -125 186 -52 Z " />
<glyph glyph-name="T" unicode="T" horiz-adv-x="548" d="M595 577 L406 577 L273 0 L156 0 L288 577 L99 577 L123 680 L618 680 L595 577 Z " />
<glyph glyph-name="Tbar" unicode="&#x166;" horiz-adv-x="548" d="M406 577 L360 379 L451 379 L433 302 L343 302 L273 0 L156 0 L225 302 L133 302 L151 379 L243 379 L288 577 L99 577 L123 680 L618 680 L595 577 L406 577 Z " />
<glyph glyph-name="Tcaron" unicode="&#x164;" horiz-adv-x="548" d="M595 577 L406 577 L273 0 L156 0 L288 577 L99 577 L123 680 L618 680 L595 577 Z M555 860 Q536 831 508.5 798.5 Q481 766 455 740 L310 740 Q296 765 284 798 Q272 831 266 860 L348 860 Q363 820 388 783 Q426 817 463 860 L555 860 Z " />
<glyph glyph-name="uni0162" unicode="&#x162;" horiz-adv-x="548" d="M618 680 L595 577 L406 577 L273 0 L244 0 L215 -39 Q247 -42 268 -59.5 Q289 -77 289 -106 Q289 -150 259.5 -174 Q230 -198 179 -198 Q148 -198 120 -188.5 Q92 -179 77 -164 L113 -123 Q123 -133 141 -138.5 Q159 -144 178 -144 Q200 -144 212.5 -135.5 Q225 -127 225 -112 Q225 -87 183 -87 Q166 -87 149 -92 L136 -69 L185 0 L156 0 L288 577 L99 577 L123 680 L618 680 Z " />
<glyph glyph-name="uni021A" unicode="&#x21a;" horiz-adv-x="548" d="M595 577 L406 577 L273 0 L156 0 L288 577 L99 577 L123 680 L618 680 L595 577 Z M153 -52 L251 -52 Q240 -99 218 -134 Q196 -169 168 -200 L103 -200 Q136 -125 153 -52 Z " />
<glyph glyph-name="U" unicode="U" horiz-adv-x="661" d="M682 680 L576 222 Q548 103 480 47 Q412 -9 298 -9 Q196 -9 132 38 Q68 85 68 178 Q68 211 77 248 L177 680 L295 680 L193 243 Q187 218 187 197 Q187 146 219.5 119.5 Q252 93 307 93 Q369 93 406.5 127.5 Q444 162 461 234 L564 680 L682 680 Z " />
<glyph glyph-name="Uacute" unicode="&#xda;" horiz-adv-x="661" d="M682 680 L576 222 Q548 103 480 47 Q412 -9 298 -9 Q196 -9 132 38 Q68 85 68 178 Q68 211 77 248 L177 680 L295 680 L193 243 Q187 218 187 197 Q187 146 219.5 119.5 Q252 93 307 93 Q369 93 406.5 127.5 Q444 162 461 234 L564 680 L682 680 Z M487 740 L386 740 Q427 805 481 862 L606 862 Q548 807 487 740 Z " />
<glyph glyph-name="Ucircumflex" unicode="&#xdb;" horiz-adv-x="661" d="M682 680 L576 222 Q548 103 480 47 Q412 -9 298 -9 Q196 -9 132 38 Q68 85 68 178 Q68 211 77 248 L177 680 L295 680 L193 243 Q187 218 187 197 Q187 146 219.5 119.5 Q252 93 307 93 Q369 93 406.5 127.5 Q444 162 461 234 L564 680 L682 680 Z M504 740 Q489 778 464 818 Q419 776 388 740 L297 740 Q316 769 343.5 801.5 Q371 834 397 860 L542 860 Q555 836 567 803 Q579 770 586 740 L504 740 Z " />
<glyph glyph-name="Udieresis" unicode="&#xdc;" horiz-adv-x="661" d="M682 680 L576 222 Q548 103 480 47 Q412 -9 298 -9 Q196 -9 132 38 Q68 85 68 178 Q68 211 77 248 L177 680 L295 680 L193 243 Q187 218 187 197 Q187 146 219.5 119.5 Q252 93 307 93 Q369 93 406.5 127.5 Q444 162 461 234 L564 680 L682 680 Z M295 807 Q295 834 313.5 851.5 Q332 869 359 869 Q386 869 404.5 851.5 Q423 834 423 807 Q423 780 404.5 762 Q386 744 359 744 Q332 744 313.5 762 Q295 780 295 807 Z M480 807 Q480 834 498.5 851.5 Q517 869 544 869 Q572 869 590.5 851.5 Q609 834 609 807 Q609 780 590.5 762 Q572 744 544 744 Q517 744 498.5 762 Q480 780 480 807 Z " />
<glyph glyph-name="Ugrave" unicode="&#xd9;" horiz-adv-x="661" d="M682 680 L576 222 Q548 103 480 47 Q412 -9 298 -9 Q196 -9 132 38 Q68 85 68 178 Q68 211 77 248 L177 680 L295 680 L193 243 Q187 218 187 197 Q187 146 219.5 119.5 Q252 93 307 93 Q369 93 406.5 127.5 Q444 162 461 234 L564 680 L682 680 Z M440 862 Q465 811 479 740 L391 740 Q380 766 361 800.5 Q342 835 324 862 L440 862 Z " />
<glyph glyph-name="Uhungarumlaut" unicode="&#x170;" horiz-adv-x="661" d="M682 680 L576 222 Q548 103 480 47 Q412 -9 298 -9 Q196 -9 132 38 Q68 85 68 178 Q68 211 77 248 L177 680 L295 680 L193 243 Q187 218 187 197 Q187 146 219.5 119.5 Q252 93 307 93 Q369 93 406.5 127.5 Q444 162 461 234 L564 680 L682 680 Z M410 740 L327 740 Q351 780 411 860 L516 860 Q471 817 410 740 Z M588 771 Q578 759 559 740 L476 740 Q519 802 571 860 L676 860 Q650 834 627.5 811 Q605 788 588 771 Z " />
<glyph glyph-name="Umacron" unicode="&#x16a;" horiz-adv-x="661" d="M682 680 L576 222 Q548 103 480 47 Q412 -9 298 -9 Q196 -9 132 38 Q68 85 68 178 Q68 211 77 248 L177 680 L295 680 L193 243 Q187 218 187 197 Q187 146 219.5 119.5 Q252 93 307 93 Q369 93 406.5 127.5 Q444 162 461 234 L564 680 L682 680 Z M590 836 L571 755 L319 755 L338 836 L590 836 Z " />
<glyph glyph-name="Uogonek" unicode="&#x172;" horiz-adv-x="661" d="M682 680 L576 222 Q556 138 516 87.5 Q476 37 412 9 Q372 -9 350.5 -31.5 Q329 -54 329 -78 Q329 -92 338 -98.5 Q347 -105 369 -105 L377 -105 L361 -174 Q348 -177 328 -177 Q287 -177 265 -158 Q243 -139 243 -109 Q243 -46 310 -9 L295 -9 Q194 -8 131 39 Q68 86 68 178 Q68 211 77 248 L177 680 L295 680 L193 243 Q187 218 187 197 Q187 146 219.5 119.5 Q252 93 307 93 Q369 93 406.5 127.5 Q444 162 461 234 L564 680 L682 680 Z " />
<glyph glyph-name="Uring" unicode="&#x16e;" horiz-adv-x="661" d="M682 680 L576 222 Q548 103 480 47 Q412 -9 298 -9 Q196 -9 132 38 Q68 85 68 178 Q68 211 77 248 L177 680 L295 680 L193 243 Q187 218 187 197 Q187 146 219.5 119.5 Q252 93 307 93 Q369 93 406.5 127.5 Q444 162 461 234 L564 680 L682 680 Z M348 819 Q348 863 377.5 890.5 Q407 918 455 918 Q503 918 532.5 890.5 Q562 863 562 819 Q562 776 532 748 Q502 720 455 720 Q407 720 377.5 748 Q348 776 348 819 Z M506 819 Q506 841 492.5 855.5 Q479 870 455 870 Q431 870 417.5 855.5 Q404 841 404 819 Q404 797 417.5 782.5 Q431 768 455 768 Q479 768 492.5 782.5 Q506 797 506 819 Z " />
<glyph glyph-name="V" unicode="V" horiz-adv-x="622" d="M695 680 Q615 518 509.5 326.5 Q404 135 329 21 Q321 9 313 4.5 Q305 0 288 0 L211 0 Q194 0 187 4.5 Q180 9 178 21 Q156 133 139.5 319.5 Q123 506 115 680 L232 680 Q234 555 245.5 397.5 Q257 240 272 121 Q340 237 422.5 392.5 Q505 548 570 680 L695 680 Z " />
<glyph glyph-name="W" unicode="W" horiz-adv-x="948" d="M1009 680 Q945 533 851 341 Q757 149 687 21 Q681 9 672.5 4.5 Q664 0 647 0 L576 0 Q559 0 552.5 4.5 Q546 9 545 21 L524 501 L284 21 Q279 10 270 5 Q261 0 244 0 L171 0 Q154 0 148 4.5 Q142 9 140 21 Q129 118 124 266.5 Q119 415 119 567 Q119 645 120 680 L235 680 Q233 586 233 526 Q233 334 243 142 L509 680 L615 680 L637 148 Q700 270 768.5 417 Q837 564 885 680 L1009 680 Z " />
<glyph glyph-name="Wacute" unicode="&#x1e82;" horiz-adv-x="948" d="M1009 680 Q945 533 851 341 Q757 149 687 21 Q681 9 672.5 4.5 Q664 0 647 0 L576 0 Q559 0 552.5 4.5 Q546 9 545 21 L524 501 L284 21 Q279 10 270 5 Q261 0 244 0 L171 0 Q154 0 148 4.5 Q142 9 140 21 Q129 118 124 266.5 Q119 415 119 567 Q119 645 120 680 L235 680 Q233 586 233 526 Q233 334 243 142 L509 680 L615 680 L637 148 Q700 270 768.5 417 Q837 564 885 680 L1009 680 Z M618 740 L517 740 Q558 805 612 862 L737 862 Q679 807 618 740 Z " />
<glyph glyph-name="Wcircumflex" unicode="&#x174;" horiz-adv-x="948" d="M1009 680 Q945 533 851 341 Q757 149 687 21 Q681 9 672.5 4.5 Q664 0 647 0 L576 0 Q559 0 552.5 4.5 Q546 9 545 21 L524 501 L284 21 Q279 10 270 5 Q261 0 244 0 L171 0 Q154 0 148 4.5 Q142 9 140 21 Q129 118 124 266.5 Q119 415 119 567 Q119 645 120 680 L235 680 Q233 586 233 526 Q233 334 243 142 L509 680 L615 680 L637 148 Q700 270 768.5 417 Q837 564 885 680 L1009 680 Z M635 740 Q620 778 595 818 Q550 776 519 740 L428 740 Q447 769 474.5 801.5 Q502 834 528 860 L673 860 Q686 836 698 803 Q710 770 717 740 L635 740 Z " />
<glyph glyph-name="Wdieresis" unicode="&#x1e84;" horiz-adv-x="948" d="M1009 680 Q945 533 851 341 Q757 149 687 21 Q681 9 672.5 4.5 Q664 0 647 0 L576 0 Q559 0 552.5 4.5 Q546 9 545 21 L524 501 L284 21 Q279 10 270 5 Q261 0 244 0 L171 0 Q154 0 148 4.5 Q142 9 140 21 Q129 118 124 266.5 Q119 415 119 567 Q119 645 120 680 L235 680 Q233 586 233 526 Q233 334 243 142 L509 680 L615 680 L637 148 Q700 270 768.5 417 Q837 564 885 680 L1009 680 Z M426 807 Q426 834 444.5 851.5 Q463 869 490 869 Q517 869 535.5 851.5 Q554 834 554 807 Q554 780 535.5 762 Q517 744 490 744 Q463 744 444.5 762 Q426 780 426 807 Z M611 807 Q611 834 629.5 851.5 Q648 869 675 869 Q703 869 721.5 851.5 Q740 834 740 807 Q740 780 721.5 762 Q703 744 675 744 Q648 744 629.5 762 Q611 780 611 807 Z " />
<glyph glyph-name="Wgrave" unicode="&#x1e80;" horiz-adv-x="948" d="M1009 680 Q945 533 851 341 Q757 149 687 21 Q681 9 672.5 4.5 Q664 0 647 0 L576 0 Q559 0 552.5 4.5 Q546 9 545 21 L524 501 L284 21 Q279 10 270 5 Q261 0 244 0 L171 0 Q154 0 148 4.5 Q142 9 140 21 Q129 118 124 266.5 Q119 415 119 567 Q119 645 120 680 L235 680 Q233 586 233 526 Q233 334 243 142 L509 680 L615 680 L637 148 Q700 270 768.5 417 Q837 564 885 680 L1009 680 Z M571 862 Q596 811 610 740 L522 740 Q511 766 492 800.5 Q473 835 455 862 L571 862 Z " />
<glyph glyph-name="X" unicode="X" horiz-adv-x="602" d="M401 352 Q478 161 518 0 L401 0 Q387 62 363 136 Q339 210 312 278 Q262 221 212.5 154.5 Q163 88 101 0 L-29 0 Q104 195 254 364 Q190 508 142 680 L258 680 Q288 557 340 432 Q444 547 535 680 L666 680 Q554 516 401 352 Z " />
<glyph glyph-name="Y" unicode="Y" horiz-adv-x="588" d="M346 256 L287 0 L169 0 L229 262 Q146 487 111 680 L223 680 Q255 516 309 360 Q419 501 535 680 L663 680 Q523 458 346 256 Z " />
<glyph glyph-name="Yacute" unicode="&#xdd;" horiz-adv-x="588" d="M346 256 L287 0 L169 0 L229 262 Q146 487 111 680 L223 680 Q255 516 309 360 Q419 501 535 680 L663 680 Q523 458 346 256 Z M444 740 L343 740 Q384 805 438 862 L563 862 Q505 807 444 740 Z " />
<glyph glyph-name="Ycircumflex" unicode="&#x176;" horiz-adv-x="588" d="M346 256 L287 0 L169 0 L229 262 Q146 487 111 680 L223 680 Q255 516 309 360 Q419 501 535 680 L663 680 Q523 458 346 256 Z M461 740 Q446 778 421 818 Q376 776 345 740 L254 740 Q273 769 300.5 801.5 Q328 834 354 860 L499 860 Q512 836 524 803 Q536 770 543 740 L461 740 Z " />
<glyph glyph-name="Ydieresis" unicode="&#x178;" horiz-adv-x="588" d="M346 256 L287 0 L169 0 L229 262 Q146 487 111 680 L223 680 Q255 516 309 360 Q419 501 535 680 L663 680 Q523 458 346 256 Z M252 807 Q252 834 270.5 851.5 Q289 869 316 869 Q343 869 361.5 851.5 Q380 834 380 807 Q380 780 361.5 762 Q343 744 316 744 Q289 744 270.5 762 Q252 780 252 807 Z M437 807 Q437 834 455.5 851.5 Q474 869 501 869 Q529 869 547.5 851.5 Q566 834 566 807 Q566 780 547.5 762 Q529 744 501 744 Q474 744 455.5 762 Q437 780 437 807 Z " />
<glyph glyph-name="Ygrave" unicode="&#x1ef2;" horiz-adv-x="588" d="M346 256 L287 0 L169 0 L229 262 Q146 487 111 680 L223 680 Q255 516 309 360 Q419 501 535 680 L663 680 Q523 458 346 256 Z M397 862 Q422 811 436 740 L348 740 Q337 766 318 800.5 Q299 835 281 862 L397 862 Z " />
<glyph glyph-name="Z" unicode="Z" horiz-adv-x="578" d="M612 591 L147 103 L502 103 L479 0 L-19 0 L1 90 L465 577 L128 577 L151 680 L632 680 L612 591 Z " />
<glyph glyph-name="Zacute" unicode="&#x179;" horiz-adv-x="578" d="M612 591 L147 103 L502 103 L479 0 L-19 0 L1 90 L465 577 L128 577 L151 680 L632 680 L612 591 Z M451 740 L350 740 Q391 805 445 862 L570 862 Q512 807 451 740 Z " />
<glyph glyph-name="Zcaron" unicode="&#x17d;" horiz-adv-x="578" d="M612 591 L147 103 L502 103 L479 0 L-19 0 L1 90 L465 577 L128 577 L151 680 L632 680 L612 591 Z M577 860 Q558 831 530.5 798.5 Q503 766 477 740 L332 740 Q318 765 306 798 Q294 831 288 860 L370 860 Q385 820 410 783 Q448 817 485 860 L577 860 Z " />
<glyph glyph-name="Zdotaccent" unicode="&#x17b;" horiz-adv-x="578" d="M612 591 L147 103 L502 103 L479 0 L-19 0 L1 90 L465 577 L128 577 L151 680 L632 680 L612 591 Z M352 807 Q352 835 371 853 Q390 871 418 871 Q446 871 465 853 Q484 835 484 807 Q484 780 464.5 762 Q445 744 418 744 Q390 744 371 762 Q352 780 352 807 Z " />
<glyph glyph-name="a" unicode="a" horiz-adv-x="511" d="M416 138 Q412 122 412 108 Q412 94 419.5 88.5 Q427 83 444 84 L425 1 Q410 -5 389 -5 Q351 -5 330.5 13.5 Q310 32 308 63 Q261 -8 160 -8 Q93 -8 54.5 25 Q16 58 16 112 Q16 214 103 257.5 Q190 301 348 312 L351 323 Q355 343 355 351 Q355 380 336.5 396 Q318 412 281 412 Q243 412 218 393 Q193 374 183 345 L76 345 Q91 412 147 456 Q203 500 287 500 Q371 500 416.5 463 Q462 426 462 362 Q462 339 456 313 L416 138 Z M331 239 Q232 228 179 205.5 Q126 183 126 130 Q126 107 144.5 91.5 Q163 76 195 76 Q241 76 272.5 99.5 Q304 123 314 165 L331 239 Z " />
<glyph glyph-name="aacute" unicode="&#xe1;" horiz-adv-x="511" d="M416 138 Q412 122 412 108 Q412 94 419.5 88.5 Q427 83 444 84 L425 1 Q410 -5 389 -5 Q351 -5 330.5 13.5 Q310 32 308 63 Q261 -8 160 -8 Q93 -8 54.5 25 Q16 58 16 112 Q16 214 103 257.5 Q190 301 348 312 L351 323 Q355 343 355 351 Q355 380 336.5 396 Q318 412 281 412 Q243 412 218 393 Q193 374 183 345 L76 345 Q91 412 147 456 Q203 500 287 500 Q371 500 416.5 463 Q462 426 462 362 Q462 339 456 313 L416 138 Z M331 239 Q232 228 179 205.5 Q126 183 126 130 Q126 107 144.5 91.5 Q163 76 195 76 Q241 76 272.5 99.5 Q304 123 314 165 L331 239 Z M365 560 L264 560 Q305 625 359 682 L484 682 Q426 627 365 560 Z " />
<glyph glyph-name="abreve" unicode="&#x103;" horiz-adv-x="511" d="M416 138 Q412 122 412 108 Q412 94 419.5 88.5 Q427 83 444 84 L425 1 Q410 -5 389 -5 Q351 -5 330.5 13.5 Q310 32 308 63 Q261 -8 160 -8 Q93 -8 54.5 25 Q16 58 16 112 Q16 214 103 257.5 Q190 301 348 312 L351 323 Q355 343 355 351 Q355 380 336.5 396 Q318 412 281 412 Q243 412 218 393 Q193 374 183 345 L76 345 Q91 412 147 456 Q203 500 287 500 Q371 500 416.5 463 Q462 426 462 362 Q462 339 456 313 L416 138 Z M331 239 Q232 228 179 205.5 Q126 183 126 130 Q126 107 144.5 91.5 Q163 76 195 76 Q241 76 272.5 99.5 Q304 123 314 165 L331 239 Z M485 680 Q471 621 431 589 Q391 557 330 557 Q275 557 243.5 584 Q212 611 212 660 Q212 673 213 680 L286 680 Q283 656 294.5 639 Q306 622 336 622 Q392 622 410 680 L485 680 L485 680 Z " />
<glyph glyph-name="acircumflex" unicode="&#xe2;" horiz-adv-x="511" d="M416 138 Q412 122 412 108 Q412 94 419.5 88.5 Q427 83 444 84 L425 1 Q410 -5 389 -5 Q351 -5 330.5 13.5 Q310 32 308 63 Q261 -8 160 -8 Q93 -8 54.5 25 Q16 58 16 112 Q16 214 103 257.5 Q190 301 348 312 L351 323 Q355 343 355 351 Q355 380 336.5 396 Q318 412 281 412 Q243 412 218 393 Q193 374 183 345 L76 345 Q91 412 147 456 Q203 500 287 500 Q371 500 416.5 463 Q462 426 462 362 Q462 339 456 313 L416 138 Z M331 239 Q232 228 179 205.5 Q126 183 126 130 Q126 107 144.5 91.5 Q163 76 195 76 Q241 76 272.5 99.5 Q304 123 314 165 L331 239 Z M382 560 Q367 598 342 638 Q297 596 266 560 L175 560 Q194 589 221.5 621.5 Q249 654 275 680 L420 680 Q433 656 445 623 Q457 590 464 560 L382 560 Z " />
<glyph glyph-name="adieresis" unicode="&#xe4;" horiz-adv-x="511" d="M416 138 Q412 122 412 108 Q412 94 419.5 88.5 Q427 83 444 84 L425 1 Q410 -5 389 -5 Q351 -5 330.5 13.5 Q310 32 308 63 Q261 -8 160 -8 Q93 -8 54.5 25 Q16 58 16 112 Q16 214 103 257.5 Q190 301 348 312 L351 323 Q355 343 355 351 Q355 380 336.5 396 Q318 412 281 412 Q243 412 218 393 Q193 374 183 345 L76 345 Q91 412 147 456 Q203 500 287 500 Q371 500 416.5 463 Q462 426 462 362 Q462 339 456 313 L416 138 Z M331 239 Q232 228 179 205.5 Q126 183 126 130 Q126 107 144.5 91.5 Q163 76 195 76 Q241 76 272.5 99.5 Q304 123 314 165 L331 239 Z M173 627 Q173 654 191.5 671.5 Q210 689 237 689 Q264 689 282.5 671.5 Q301 654 301 627 Q301 600 282.5 582 Q264 564 237 564 Q210 564 191.5 582 Q173 600 173 627 Z M358 627 Q358 654 376.5 671.5 Q395 689 422 689 Q450 689 468.5 671.5 Q487 654 487 627 Q487 600 468.5 582 Q450 564 422 564 Q395 564 376.5 582 Q358 600 358 627 Z " />
<glyph glyph-name="agrave" unicode="&#xe0;" horiz-adv-x="511" d="M416 138 Q412 122 412 108 Q412 94 419.5 88.5 Q427 83 444 84 L425 1 Q410 -5 389 -5 Q351 -5 330.5 13.5 Q310 32 308 63 Q261 -8 160 -8 Q93 -8 54.5 25 Q16 58 16 112 Q16 214 103 257.5 Q190 301 348 312 L351 323 Q355 343 355 351 Q355 380 336.5 396 Q318 412 281 412 Q243 412 218 393 Q193 374 183 345 L76 345 Q91 412 147 456 Q203 500 287 500 Q371 500 416.5 463 Q462 426 462 362 Q462 339 456 313 L416 138 Z M331 239 Q232 228 179 205.5 Q126 183 126 130 Q126 107 144.5 91.5 Q163 76 195 76 Q241 76 272.5 99.5 Q304 123 314 165 L331 239 Z M318 682 Q343 631 357 560 L269 560 Q258 586 239 620.5 Q220 655 202 682 L318 682 Z " />
<glyph glyph-name="amacron" unicode="&#x101;" horiz-adv-x="511" d="M416 138 Q412 122 412 108 Q412 94 419.5 88.5 Q427 83 444 84 L425 1 Q410 -5 389 -5 Q351 -5 330.5 13.5 Q310 32 308 63 Q261 -8 160 -8 Q93 -8 54.5 25 Q16 58 16 112 Q16 214 103 257.5 Q190 301 348 312 L351 323 Q355 343 355 351 Q355 380 336.5 396 Q318 412 281 412 Q243 412 218 393 Q193 374 183 345 L76 345 Q91 412 147 456 Q203 500 287 500 Q371 500 416.5 463 Q462 426 462 362 Q462 339 456 313 L416 138 Z M331 239 Q232 228 179 205.5 Q126 183 126 130 Q126 107 144.5 91.5 Q163 76 195 76 Q241 76 272.5 99.5 Q304 123 314 165 L331 239 Z M468 656 L449 575 L197 575 L216 656 L468 656 Z " />
<glyph glyph-name="aogonek" unicode="&#x105;" horiz-adv-x="511" d="M251 -108 Q251 -70 276 -41.5 Q301 -13 343 5 Q311 22 308 63 Q259 -8 160 -8 Q93 -8 54.5 25 Q16 58 16 112 Q16 214 103 257.5 Q190 301 348 311 L351 323 Q355 343 355 351 Q355 380 336.5 396 Q318 412 281 412 Q243 412 218 393 Q193 374 183 345 L76 345 Q91 412 147 456 Q203 500 287 500 Q371 500 416.5 463 Q462 426 462 362 Q462 339 456 313 L416 138 Q412 122 412 108 Q412 94 419.5 88.5 Q427 83 444 84 L425 1 Q395 -6 366 -28.5 Q337 -51 337 -78 Q337 -91 346 -98 Q355 -105 377 -105 L385 -105 L369 -174 Q356 -177 336 -177 Q295 -177 273 -157.5 Q251 -138 251 -108 Z M314 165 L331 239 Q232 228 179 205.5 Q126 183 126 130 Q126 107 144.5 91.5 Q163 76 195 76 Q241 76 272.5 99.5 Q304 123 314 165 Z " />
<glyph glyph-name="aring" unicode="&#xe5;" horiz-adv-x="511" d="M416 138 Q412 122 412 108 Q412 94 419.5 88.5 Q427 83 444 84 L425 1 Q410 -5 389 -5 Q351 -5 330.5 13.5 Q310 32 308 63 Q261 -8 160 -8 Q93 -8 54.5 25 Q16 58 16 112 Q16 214 103 257.5 Q190 301 348 312 L351 323 Q355 343 355 351 Q355 380 336.5 396 Q318 412 281 412 Q243 412 218 393 Q193 374 183 345 L76 345 Q91 412 147 456 Q203 500 287 500 Q371 500 416.5 463 Q462 426 462 362 Q462 339 456 313 L416 138 Z M331 239 Q232 228 179 205.5 Q126 183 126 130 Q126 107 144.5 91.5 Q163 76 195 76 Q241 76 272.5 99.5 Q304 123 314 165 L331 239 Z M226 639 Q226 683 255.5 710.5 Q285 738 333 738 Q381 738 410.5 710.5 Q440 683 440 639 Q440 596 410 568 Q380 540 333 540 Q285 540 255.5 568 Q226 596 226 639 Z M384 639 Q384 661 370.5 675.5 Q357 690 333 690 Q309 690 295.5 675.5 Q282 661 282 639 Q282 617 295.5 602.5 Q309 588 333 588 Q357 588 370.5 602.5 Q384 617 384 639 Z " />
<glyph glyph-name="atilde" unicode="&#xe3;" horiz-adv-x="511" d="M416 138 Q412 122 412 108 Q412 94 419.5 88.5 Q427 83 444 84 L425 1 Q410 -5 389 -5 Q351 -5 330.5 13.5 Q310 32 308 63 Q261 -8 160 -8 Q93 -8 54.5 25 Q16 58 16 112 Q16 214 103 257.5 Q190 301 348 312 L351 323 Q355 343 355 351 Q355 380 336.5 396 Q318 412 281 412 Q243 412 218 393 Q193 374 183 345 L76 345 Q91 412 147 456 Q203 500 287 500 Q371 500 416.5 463 Q462 426 462 362 Q462 339 456 313 L416 138 Z M331 239 Q232 228 179 205.5 Q126 183 126 130 Q126 107 144.5 91.5 Q163 76 195 76 Q241 76 272.5 99.5 Q304 123 314 165 L331 239 Z M393 560 Q371 560 354.5 567 Q338 574 318 587 Q303 597 292 601.5 Q281 606 270 606 Q252 606 241 594.5 Q230 583 223 560 L166 560 Q181 616 210.5 646 Q240 676 279 676 Q298 676 313 669.5 Q328 663 347 651 Q362 640 373 635 Q384 630 397 630 Q415 630 426.5 643 Q438 656 443 676 L500 676 Q485 619 458 589.5 Q431 560 393 560 Z " />
<glyph glyph-name="ae" unicode="&#xe6;" horiz-adv-x="808" d="M781 326 Q781 298 773 261 L764 221 L438 221 Q434 193 434 182 Q434 135 458 108.5 Q482 82 531 82 Q596 82 632 143 L743 143 Q714 72 657.5 31.5 Q601 -9 523 -9 Q460 -9 417 16 Q374 41 353 87 Q290 -8 168 -8 Q101 -8 58.5 25.5 Q16 59 16 112 Q16 214 103 258 Q190 302 348 312 L351 323 Q355 343 355 351 Q355 380 336.5 396 Q318 412 281 412 Q243 412 218 393 Q193 374 183 345 L76 345 Q91 412 147 456 Q203 500 287 500 Q340 500 377.5 484 Q415 468 435 438 Q468 468 509 484 Q550 500 594 500 Q682 500 731.5 453.5 Q781 407 781 326 Z M455 296 L679 296 Q680 303 680 316 Q680 410 585 410 Q536 410 504 378.5 Q472 347 455 296 Z M331 239 Q232 229 179 206 Q126 183 126 130 Q126 106 144.5 91 Q163 76 195 76 Q239 76 272 102 Q305 128 317 178 L331 239 Z " />
<glyph glyph-name="b" unicode="b" horiz-adv-x="553" d="M523 331 Q523 284 512 237 L507 215 Q482 105 421.5 48 Q361 -9 280 -9 Q230 -9 192 12.5 Q154 34 137 78 L119 0 L15 0 L177 700 L287 700 L226 436 Q283 498 366 498 Q444 498 483.5 454 Q523 410 523 331 Z M412 315 Q412 404 328 404 Q274 404 236.5 364 Q199 324 186 266 L181 243 Q174 214 174 185 Q174 137 198 111.5 Q222 86 268 86 Q318 86 351.5 125.5 Q385 165 398 224 L403 247 Q412 286 412 315 Z " />
<glyph glyph-name="c" unicode="c" horiz-adv-x="496" d="M226 -9 Q133 -9 82.5 41 Q32 91 32 177 Q32 213 41 253 L46 275 Q70 384 136 441.5 Q202 499 291 499 Q379 499 427.5 453 Q476 407 477 327 L369 327 Q366 404 285 404 Q233 404 200.5 365 Q168 326 154 266 L149 244 Q141 206 141 179 Q141 86 232 86 Q270 86 297.5 110.5 Q325 135 341 176 L451 176 Q423 85 363 38 Q303 -9 226 -9 Z " />
<glyph glyph-name="cacute" unicode="&#x107;" horiz-adv-x="496" d="M226 -9 Q133 -9 82.5 41 Q32 91 32 177 Q32 213 41 253 L46 275 Q70 384 136 441.5 Q202 499 291 499 Q379 499 427.5 453 Q476 407 477 327 L369 327 Q366 404 285 404 Q233 404 200.5 365 Q168 326 154 266 L149 244 Q141 206 141 179 Q141 86 232 86 Q270 86 297.5 110.5 Q325 135 341 176 L451 176 Q423 85 363 38 Q303 -9 226 -9 Z M376 560 L275 560 Q316 625 370 682 L495 682 Q437 627 376 560 Z " />
<glyph glyph-name="ccaron" unicode="&#x10d;" horiz-adv-x="496" d="M226 -9 Q133 -9 82.5 41 Q32 91 32 177 Q32 213 41 253 L46 275 Q70 384 136 441.5 Q202 499 291 499 Q379 499 427.5 453 Q476 407 477 327 L369 327 Q366 404 285 404 Q233 404 200.5 365 Q168 326 154 266 L149 244 Q141 206 141 179 Q141 86 232 86 Q270 86 297.5 110.5 Q325 135 341 176 L451 176 Q423 85 363 38 Q303 -9 226 -9 Z M502 680 Q483 651 455.5 618.5 Q428 586 402 560 L257 560 Q243 585 231 618 Q219 651 213 680 L295 680 Q310 640 335 603 Q373 637 410 680 L502 680 Z " />
<glyph glyph-name="ccedilla" unicode="&#xe7;" horiz-adv-x="496" d="M341 176 L451 176 Q423 85 363 38 Q303 -9 226 -9 L216 -9 L193 -39 Q225 -42 246 -59.5 Q267 -77 267 -106 Q267 -150 237.5 -174 Q208 -198 157 -198 Q126 -198 98 -188.5 Q70 -179 55 -164 L91 -123 Q101 -133 119 -138.5 Q137 -144 156 -144 Q178 -144 190.5 -135.5 Q203 -127 203 -112 Q203 -87 161 -87 Q144 -87 127 -92 L114 -69 L162 -2 Q99 14 65.5 60.5 Q32 107 32 177 Q32 213 41 253 L46 275 Q70 384 136 441.5 Q202 499 291 499 Q379 499 427.5 453 Q476 407 477 327 L369 327 Q366 404 285 404 Q233 404 200.5 365 Q168 326 154 266 L149 244 Q141 206 141 179 Q141 86 232 86 Q270 86 297.5 110.5 Q325 135 341 176 Z " />
<glyph glyph-name="cdotaccent" unicode="&#x10b;" horiz-adv-x="496" d="M226 -9 Q133 -9 82.5 41 Q32 91 32 177 Q32 213 41 253 L46 275 Q70 384 136 441.5 Q202 499 291 499 Q379 499 427.5 453 Q476 407 477 327 L369 327 Q366 404 285 404 Q233 404 200.5 365 Q168 326 154 266 L149 244 Q141 206 141 179 Q141 86 232 86 Q270 86 297.5 110.5 Q325 135 341 176 L451 176 Q423 85 363 38 Q303 -9 226 -9 Z M277 627 Q277 655 296 673 Q315 691 343 691 Q371 691 390 673 Q409 655 409 627 Q409 600 389.5 582 Q370 564 343 564 Q315 564 296 582 Q277 600 277 627 Z " />
<glyph glyph-name="d" unicode="d" horiz-adv-x="551" d="M584 700 L422 0 L318 0 L332 60 Q272 -9 186 -9 Q108 -9 68.5 35 Q29 79 29 157 Q29 201 41 252 L46 275 Q72 385 131.5 441.5 Q191 498 273 498 Q320 498 356 479 Q392 460 411 422 L474 700 L584 700 Z M366 224 L371 247 Q378 278 378 306 Q378 353 355 378.5 Q332 404 287 404 Q236 404 202 364 Q168 324 154 265 L149 243 Q140 204 140 175 Q140 86 225 86 Q279 86 316 126 Q353 166 366 224 Z " />
<glyph glyph-name="eth" unicode="&#xf0;" horiz-adv-x="524" d="M464 585 Q500 500 500 395 Q500 334 487 272 L478 229 Q453 111 385 51 Q317 -9 220 -9 Q134 -9 82 38 Q30 85 30 171 Q30 203 37 237 L41 257 Q65 374 125 432.5 Q185 491 273 491 Q318 491 349.5 473.5 Q381 456 393 430 Q392 493 359 558 L236 527 L223 587 L327 613 Q293 662 248 700 L381 700 Q408 679 434 641 L522 663 L535 603 L464 585 Z M377 295 Q377 341 353.5 370 Q330 399 281 399 Q226 399 195 358 Q164 317 151 253 L147 233 Q142 206 142 184 Q142 140 163 113.5 Q184 87 230 87 Q289 87 322 128.5 Q355 170 368 233 L372 252 Q377 277 377 295 Z " />
<glyph glyph-name="dcaron" unicode="&#x10f;" horiz-adv-x="613" d="M584 700 L422 0 L318 0 L332 60 Q272 -9 186 -9 Q108 -9 68.5 35 Q29 79 29 157 Q29 201 41 252 L46 275 Q72 385 131.5 441.5 Q191 498 273 498 Q320 498 356 479 Q392 460 411 422 L474 700 L584 700 Z M366 224 L371 247 Q378 278 378 306 Q378 353 355 378.5 Q332 404 287 404 Q236 404 202 364 Q168 324 154 265 L149 243 Q140 204 140 175 Q140 86 225 86 Q279 86 316 126 Q353 166 366 224 Z M642 522 L591 522 Q633 621 651 700 L737 700 Q712 601 642 522 Z " />
<glyph glyph-name="dslash" unicode="&#x111;" horiz-adv-x="551" d="M613 544 L548 544 L422 0 L318 0 L332 60 Q272 -9 186 -9 Q108 -9 68.5 35 Q29 79 29 157 Q29 201 41 252 L46 275 Q72 385 131.5 441.5 Q191 498 273 498 Q320 498 356 479 Q392 460 411 422 L439 544 L313 544 L331 621 L456 621 L474 700 L584 700 L566 621 L631 621 L613 544 Z M366 224 L371 247 Q378 278 378 306 Q378 353 355 378.5 Q332 404 287 404 Q236 404 202 364 Q168 324 154 265 L149 243 Q140 204 140 175 Q140 86 225 86 Q279 86 316 126 Q353 166 366 224 Z " />
<glyph glyph-name="e" unicode="e" horiz-adv-x="514" d="M485 325 Q485 293 478 261 L469 221 L142 221 Q139 202 139 183 Q139 135 162.5 108.5 Q186 82 235 82 Q300 82 336 143 L447 143 Q418 72 362 31.5 Q306 -9 228 -9 Q134 -9 83 41.5 Q32 92 32 179 Q32 215 41 254 L46 276 Q69 384 138.5 442 Q208 500 298 500 Q387 500 436 453.5 Q485 407 485 325 Z M159 296 L383 296 Q384 303 384 316 Q384 410 290 410 Q241 410 208 378.5 Q175 347 159 296 Z " />
<glyph glyph-name="eacute" unicode="&#xe9;" horiz-adv-x="514" d="M485 325 Q485 293 478 261 L469 221 L142 221 Q139 202 139 183 Q139 135 162.5 108.5 Q186 82 235 82 Q300 82 336 143 L447 143 Q418 72 362 31.5 Q306 -9 228 -9 Q134 -9 83 41.5 Q32 92 32 179 Q32 215 41 254 L46 276 Q69 384 138.5 442 Q208 500 298 500 Q387 500 436 453.5 Q485 407 485 325 Z M159 296 L383 296 Q384 303 384 316 Q384 410 290 410 Q241 410 208 378.5 Q175 347 159 296 Z M378 560 L277 560 Q318 625 372 682 L497 682 Q439 627 378 560 Z " />
<glyph glyph-name="ecaron" unicode="&#x11b;" horiz-adv-x="514" d="M485 325 Q485 293 478 261 L469 221 L142 221 Q139 202 139 183 Q139 135 162.5 108.5 Q186 82 235 82 Q300 82 336 143 L447 143 Q418 72 362 31.5 Q306 -9 228 -9 Q134 -9 83 41.5 Q32 92 32 179 Q32 215 41 254 L46 276 Q69 384 138.5 442 Q208 500 298 500 Q387 500 436 453.5 Q485 407 485 325 Z M159 296 L383 296 Q384 303 384 316 Q384 410 290 410 Q241 410 208 378.5 Q175 347 159 296 Z M504 680 Q485 651 457.5 618.5 Q430 586 404 560 L259 560 Q245 585 233 618 Q221 651 215 680 L297 680 Q312 640 337 603 Q375 637 412 680 L504 680 Z " />
<glyph glyph-name="ecircumflex" unicode="&#xea;" horiz-adv-x="514" d="M485 325 Q485 293 478 261 L469 221 L142 221 Q139 202 139 183 Q139 135 162.5 108.5 Q186 82 235 82 Q300 82 336 143 L447 143 Q418 72 362 31.5 Q306 -9 228 -9 Q134 -9 83 41.5 Q32 92 32 179 Q32 215 41 254 L46 276 Q69 384 138.5 442 Q208 500 298 500 Q387 500 436 453.5 Q485 407 485 325 Z M159 296 L383 296 Q384 303 384 316 Q384 410 290 410 Q241 410 208 378.5 Q175 347 159 296 Z M395 560 Q380 598 355 638 Q310 596 279 560 L188 560 Q207 589 234.5 621.5 Q262 654 288 680 L433 680 Q446 656 458 623 Q470 590 477 560 L395 560 Z " />
<glyph glyph-name="edieresis" unicode="&#xeb;" horiz-adv-x="514" d="M485 325 Q485 293 478 261 L469 221 L142 221 Q139 202 139 183 Q139 135 162.5 108.5 Q186 82 235 82 Q300 82 336 143 L447 143 Q418 72 362 31.5 Q306 -9 228 -9 Q134 -9 83 41.5 Q32 92 32 179 Q32 215 41 254 L46 276 Q69 384 138.5 442 Q208 500 298 500 Q387 500 436 453.5 Q485 407 485 325 Z M159 296 L383 296 Q384 303 384 316 Q384 410 290 410 Q241 410 208 378.5 Q175 347 159 296 Z M186 627 Q186 654 204.5 671.5 Q223 689 250 689 Q277 689 295.5 671.5 Q314 654 314 627 Q314 600 295.5 582 Q277 564 250 564 Q223 564 204.5 582 Q186 600 186 627 Z M371 627 Q371 654 389.5 671.5 Q408 689 435 689 Q463 689 481.5 671.5 Q500 654 500 627 Q500 600 481.5 582 Q463 564 435 564 Q408 564 389.5 582 Q371 600 371 627 Z " />
<glyph glyph-name="edotaccent" unicode="&#x117;" horiz-adv-x="514" d="M485 325 Q485 293 478 261 L469 221 L142 221 Q139 202 139 183 Q139 135 162.5 108.5 Q186 82 235 82 Q300 82 336 143 L447 143 Q418 72 362 31.5 Q306 -9 228 -9 Q134 -9 83 41.5 Q32 92 32 179 Q32 215 41 254 L46 276 Q69 384 138.5 442 Q208 500 298 500 Q387 500 436 453.5 Q485 407 485 325 Z M159 296 L383 296 Q384 303 384 316 Q384 410 290 410 Q241 410 208 378.5 Q175 347 159 296 Z M279 627 Q279 655 298 673 Q317 691 345 691 Q373 691 392 673 Q411 655 411 627 Q411 600 391.5 582 Q372 564 345 564 Q317 564 298 582 Q279 600 279 627 Z " />
<glyph glyph-name="egrave" unicode="&#xe8;" horiz-adv-x="514" d="M485 325 Q485 293 478 261 L469 221 L142 221 Q139 202 139 183 Q139 135 162.5 108.5 Q186 82 235 82 Q300 82 336 143 L447 143 Q418 72 362 31.5 Q306 -9 228 -9 Q134 -9 83 41.5 Q32 92 32 179 Q32 215 41 254 L46 276 Q69 384 138.5 442 Q208 500 298 500 Q387 500 436 453.5 Q485 407 485 325 Z M159 296 L383 296 Q384 303 384 316 Q384 410 290 410 Q241 410 208 378.5 Q175 347 159 296 Z M331 682 Q356 631 370 560 L282 560 Q271 586 252 620.5 Q233 655 215 682 L331 682 Z " />
<glyph glyph-name="emacron" unicode="&#x113;" horiz-adv-x="514" d="M485 325 Q485 293 478 261 L469 221 L142 221 Q139 202 139 183 Q139 135 162.5 108.5 Q186 82 235 82 Q300 82 336 143 L447 143 Q418 72 362 31.5 Q306 -9 228 -9 Q134 -9 83 41.5 Q32 92 32 179 Q32 215 41 254 L46 276 Q69 384 138.5 442 Q208 500 298 500 Q387 500 436 453.5 Q485 407 485 325 Z M159 296 L383 296 Q384 303 384 316 Q384 410 290 410 Q241 410 208 378.5 Q175 347 159 296 Z M481 656 L462 575 L210 575 L229 656 L481 656 Z " />
<glyph glyph-name="eogonek" unicode="&#x119;" horiz-adv-x="514" d="M485 325 Q485 293 478 261 L469 221 L142 221 Q139 202 139 185 Q139 136 162.5 109 Q186 82 235 82 Q300 82 336 143 L447 143 Q431 102 406 73 Q381 44 340 15 Q266 -35 266 -78 Q266 -91 275 -98 Q284 -105 306 -105 L314 -105 L299 -174 Q284 -177 265 -177 Q225 -177 202.5 -158 Q180 -139 180 -109 Q180 -50 242 -8 Q141 -13 86.5 37.5 Q32 88 32 179 Q32 215 41 254 L46 276 Q69 384 138.5 442 Q208 500 298 500 Q387 500 436 453.5 Q485 407 485 325 Z M384 317 Q384 410 290 410 Q240 410 208 378.5 Q176 347 159 296 L383 296 Q384 303 384 317 Z " />
<glyph glyph-name="f" unicode="f" horiz-adv-x="335" d="M410 700 L388 605 Q366 607 358 607 Q318 607 298 588.5 Q278 570 269 528 L260 490 L356 490 L335 401 L240 401 L147 0 L37 0 L129 401 L56 401 L77 490 L150 490 L164 553 Q200 705 361 705 Q392 705 410 700 Z " />
<glyph glyph-name="g" unicode="g" horiz-adv-x="540" d="M525 490 L414 12 Q392 -85 335 -127 Q278 -169 187 -169 Q98 -169 46 -130.5 Q-6 -92 -10 -25 L101 -25 Q104 -51 126.5 -69 Q149 -87 192 -87 Q236 -87 265 -63 Q294 -39 307 15 L324 83 Q271 22 192 22 Q123 22 78 65.5 Q33 109 33 186 Q33 213 41 251 L46 275 Q70 385 128.5 442 Q187 499 269 499 Q372 499 404 419 L420 490 L525 490 Z M358 245 L364 271 Q369 294 369 314 Q369 355 347 380 Q325 405 280 405 Q228 405 198 368.5 Q168 332 155 274 L150 252 Q144 227 144 202 Q144 162 163.5 138.5 Q183 115 226 115 Q278 115 311.5 151.5 Q345 188 358 245 Z " />
<glyph glyph-name="gbreve" unicode="&#x11f;" horiz-adv-x="540" d="M525 490 L414 12 Q392 -85 335 -127 Q278 -169 187 -169 Q98 -169 46 -130.5 Q-6 -92 -10 -25 L101 -25 Q104 -51 126.5 -69 Q149 -87 192 -87 Q236 -87 265 -63 Q294 -39 307 15 L324 83 Q271 22 192 22 Q123 22 78 65.5 Q33 109 33 186 Q33 213 41 251 L46 275 Q70 385 128.5 442 Q187 499 269 499 Q372 499 404 419 L420 490 L525 490 Z M358 245 L364 271 Q369 294 369 314 Q369 355 347 380 Q325 405 280 405 Q228 405 198 368.5 Q168 332 155 274 L150 252 Q144 227 144 202 Q144 162 163.5 138.5 Q183 115 226 115 Q278 115 311.5 151.5 Q345 188 358 245 Z M505 680 Q491 621 451 589 Q411 557 350 557 Q295 557 263.5 584 Q232 611 232 660 Q232 673 233 680 L306 680 Q303 656 314.5 639 Q326 622 356 622 Q412 622 430 680 L505 680 L505 680 Z " />
<glyph glyph-name="uni0123" unicode="&#x123;" horiz-adv-x="540" d="M525 490 L414 12 Q392 -85 335 -127 Q278 -169 187 -169 Q98 -169 46 -130.5 Q-6 -92 -10 -25 L101 -25 Q104 -51 126.5 -69 Q149 -87 192 -87 Q236 -87 265 -63 Q294 -39 307 15 L324 83 Q271 22 192 22 Q123 22 78 65.5 Q33 109 33 186 Q33 213 41 251 L46 275 Q70 385 128.5 442 Q187 499 269 499 Q372 499 404 419 L420 490 L525 490 Z M358 245 L364 271 Q369 294 369 314 Q369 355 347 380 Q325 405 280 405 Q228 405 198 368.5 Q168 332 155 274 L150 252 Q144 227 144 202 Q144 162 163.5 138.5 Q183 115 226 115 Q278 115 311.5 151.5 Q345 188 358 245 Z M382 567 L284 567 Q295 614 316.5 648.5 Q338 683 366 715 L432 715 Q399 640 382 567 Z " />
<glyph glyph-name="gdotaccent" unicode="&#x121;" horiz-adv-x="540" d="M525 490 L414 12 Q392 -85 335 -127 Q278 -169 187 -169 Q98 -169 46 -130.5 Q-6 -92 -10 -25 L101 -25 Q104 -51 126.5 -69 Q149 -87 192 -87 Q236 -87 265 -63 Q294 -39 307 15 L324 83 Q271 22 192 22 Q123 22 78 65.5 Q33 109 33 186 Q33 213 41 251 L46 275 Q70 385 128.5 442 Q187 499 269 499 Q372 499 404 419 L420 490 L525 490 Z M358 245 L364 271 Q369 294 369 314 Q369 355 347 380 Q325 405 280 405 Q228 405 198 368.5 Q168 332 155 274 L150 252 Q144 227 144 202 Q144 162 163.5 138.5 Q183 115 226 115 Q278 115 311.5 151.5 Q345 188 358 245 Z M286 627 Q286 655 305 673 Q324 691 352 691 Q380 691 399 673 Q418 655 418 627 Q418 600 398.5 582 Q379 564 352 564 Q324 564 305 582 Q286 600 286 627 Z " />
<glyph glyph-name="h" unicode="h" horiz-adv-x="550" d="M506 363 Q506 338 500 311 L429 0 L319 0 L387 299 Q392 322 392 337 Q392 370 374 388 Q356 406 318 406 Q270 406 237 375 Q204 344 192 294 L125 0 L15 0 L177 700 L287 700 L224 433 Q247 461 282.5 479.5 Q318 498 366 498 Q430 498 468 461.5 Q506 425 506 363 Z " />
<glyph glyph-name="hbar" unicode="&#x127;" horiz-adv-x="552" d="M508 363 Q508 338 502 311 L431 0 L321 0 L389 299 Q394 322 394 337 Q394 370 376 388 Q358 406 320 406 Q272 406 239 375 Q206 344 194 294 L127 0 L17 0 L143 546 L69 546 L87 623 L161 623 L179 700 L289 700 L271 623 L387 623 L369 546 L253 546 L226 433 Q249 461 284.5 479.5 Q320 498 368 498 Q432 498 470 461.5 Q508 425 508 363 Z " />
<glyph glyph-name="i" unicode="i" horiz-adv-x="251" d="M124 0 L14 0 L127 490 L237 490 L124 0 Z M144 627 Q144 655 163 673 Q182 691 210 691 Q238 691 257 673 Q276 655 276 627 Q276 600 256.5 582 Q237 564 210 564 Q182 564 163 582 Q144 600 144 627 Z " />
<glyph glyph-name="dotlessi" unicode="&#x131;" horiz-adv-x="251" d="M124 0 L14 0 L127 490 L237 490 L124 0 Z " />
<glyph glyph-name="iacute" unicode="&#xed;" horiz-adv-x="251" d="M124 0 L14 0 L127 490 L237 490 L124 0 Z M243 560 L142 560 Q183 625 237 682 L362 682 Q304 627 243 560 Z " />
<glyph glyph-name="icircumflex" unicode="&#xee;" horiz-adv-x="251" d="M124 0 L14 0 L127 490 L237 490 L124 0 Z M260 560 Q245 598 220 638 Q175 596 144 560 L53 560 Q72 589 99.5 621.5 Q127 654 153 680 L298 680 Q311 656 323 623 Q335 590 342 560 L260 560 Z " />
<glyph glyph-name="idieresis" unicode="&#xef;" horiz-adv-x="251" d="M124 0 L14 0 L127 490 L237 490 L124 0 Z M51 627 Q51 654 69.5 671.5 Q88 689 115 689 Q142 689 160.5 671.5 Q179 654 179 627 Q179 600 160.5 582 Q142 564 115 564 Q88 564 69.5 582 Q51 600 51 627 Z M236 627 Q236 654 254.5 671.5 Q273 689 300 689 Q328 689 346.5 671.5 Q365 654 365 627 Q365 600 346.5 582 Q328 564 300 564 Q273 564 254.5 582 Q236 600 236 627 Z " />
<glyph glyph-name="igrave" unicode="&#xec;" horiz-adv-x="251" d="M124 0 L14 0 L127 490 L237 490 L124 0 Z M196 682 Q221 631 235 560 L147 560 Q136 586 117 620.5 Q98 655 80 682 L196 682 Z " />
<glyph glyph-name="imacron" unicode="&#x12b;" horiz-adv-x="251" d="M124 0 L14 0 L127 490 L237 490 L124 0 Z M346 656 L327 575 L75 575 L94 656 L346 656 Z " />
<glyph glyph-name="iogonek" unicode="&#x12f;" horiz-adv-x="251" d="M276 627 Q276 600 256.5 582 Q237 564 210 564 Q182 564 163 582 Q144 600 144 627 Q144 655 163 673 Q182 691 210 691 Q238 691 257 673 Q276 655 276 627 Z M127 490 L237 490 L124 0 Q92 -12 70.5 -34 Q49 -56 49 -78 Q49 -92 57.5 -98.5 Q66 -105 88 -105 L97 -105 L81 -174 Q68 -177 48 -177 Q7 -177 -15 -157.5 Q-37 -138 -37 -108 Q-37 -40 43 0 L14 0 L127 490 Z " />
<glyph glyph-name="j" unicode="j" horiz-adv-x="251" d="M144 627 Q144 655 163 673 Q182 691 210 691 Q238 691 257 673 Q276 655 276 627 Q276 600 256.5 582 Q237 564 210 564 Q182 564 163 582 Q144 600 144 627 Z M-67 -68 Q-38 -66 -14.5 -45 Q9 -24 20 24 L127 490 L237 490 L129 20 Q106 -82 54.5 -123 Q3 -164 -89 -163 L-67 -68 Z " />
<glyph glyph-name="k" unicode="k" horiz-adv-x="507" d="M343 281 Q376 210 402 134 Q428 58 438 0 L331 0 Q321 46 301.5 104 Q282 162 260 212 Q207 172 155 136 L123 0 L17 0 L179 700 L285 700 L182 257 Q329 378 418 490 L539 490 Q461 384 343 281 Z " />
<glyph glyph-name="uni0137" unicode="&#x137;" horiz-adv-x="507" d="M343 281 Q376 210 402 134 Q428 58 438 0 L331 0 Q321 46 301.5 104 Q282 162 260 212 Q207 172 155 136 L123 0 L17 0 L179 700 L285 700 L182 257 Q329 378 418 490 L539 490 Q461 384 343 281 Z M156 -52 L254 -52 Q243 -99 221 -134 Q199 -169 171 -200 L106 -200 Q139 -125 156 -52 Z " />
<glyph glyph-name="l" unicode="l" horiz-adv-x="266" d="M160 152 Q156 136 156 122 Q156 100 168.5 91.5 Q181 83 207 85 L188 1 Q175 -3 149 -3 Q96 -3 68.5 20.5 Q41 44 41 90 Q41 113 46 133 L178 700 L288 700 L160 152 Z " />
<glyph glyph-name="lacute" unicode="&#x13a;" horiz-adv-x="266" d="M160 152 Q156 136 156 122 Q156 100 168.5 91.5 Q181 83 207 85 L188 1 Q175 -3 149 -3 Q96 -3 68.5 20.5 Q41 44 41 90 Q41 113 46 133 L178 700 L288 700 L160 152 Z M299 761 L198 761 Q239 826 293 883 L418 883 Q360 828 299 761 Z " />
<glyph glyph-name="lcaron" unicode="&#x13e;" horiz-adv-x="315" d="M160 152 Q156 136 156 122 Q156 100 168.5 91.5 Q181 83 207 85 L188 1 Q175 -3 149 -3 Q96 -3 68.5 20.5 Q41 44 41 90 Q41 113 46 133 L178 700 L288 700 L160 152 Z M344 522 L293 522 Q335 621 353 700 L439 700 Q414 601 344 522 Z " />
<glyph glyph-name="uni013C" unicode="&#x13c;" horiz-adv-x="266" d="M160 152 Q156 136 156 122 Q156 100 168.5 91.5 Q181 83 207 85 L188 1 Q175 -3 149 -3 Q96 -3 68.5 20.5 Q41 44 41 90 Q41 113 46 133 L178 700 L288 700 L160 152 Z M44 -52 L142 -52 Q131 -99 109 -134 Q87 -169 59 -200 L-6 -200 Q27 -125 44 -52 Z " />
<glyph glyph-name="lslash" unicode="&#x142;" horiz-adv-x="314" d="M179 152 Q175 136 175 121 Q175 100 187 91.5 Q199 83 225 85 L207 1 Q192 -3 168 -3 Q115 -3 87 20.5 Q59 44 59 89 Q59 109 65 133 L102 293 L31 257 L52 346 L123 382 L196 700 L306 700 L247 446 L332 490 L311 400 L226 357 L179 152 Z " />
<glyph glyph-name="m" unicode="m" horiz-adv-x="826" d="M783 367 Q783 339 776 311 L705 0 L595 0 L663 299 Q668 326 668 342 Q668 373 653 389.5 Q638 406 604 406 Q556 406 525.5 375 Q495 344 483 294 L415 0 L305 0 L373 299 Q378 326 378 342 Q378 373 363 389.5 Q348 406 314 406 Q267 406 236.5 375 Q206 344 194 294 L127 0 L17 0 L129 490 L234 490 L218 421 Q239 454 275.5 476 Q312 498 365 498 Q411 498 442.5 476.5 Q474 455 486 417 Q554 498 650 498 Q712 498 747.5 462.5 Q783 427 783 367 Z " />
<glyph glyph-name="n" unicode="n" horiz-adv-x="552" d="M508 363 Q508 338 502 311 L431 0 L321 0 L389 299 Q394 322 394 337 Q394 370 376 388 Q358 406 320 406 Q272 406 239 375 Q206 344 194 294 L127 0 L17 0 L129 490 L234 490 L218 421 Q239 453 277 475.5 Q315 498 368 498 Q432 498 470 461.5 Q508 425 508 363 Z " />
<glyph glyph-name="nacute" unicode="&#x144;" horiz-adv-x="552" d="M508 363 Q508 338 502 311 L431 0 L321 0 L389 299 Q394 322 394 337 Q394 370 376 388 Q358 406 320 406 Q272 406 239 375 Q206 344 194 294 L127 0 L17 0 L129 490 L234 490 L218 421 Q239 453 277 475.5 Q315 498 368 498 Q432 498 470 461.5 Q508 425 508 363 Z M396 565 L295 565 Q336 630 390 687 L515 687 Q457 632 396 565 Z " />
<glyph glyph-name="ncaron" unicode="&#x148;" horiz-adv-x="552" d="M508 363 Q508 338 502 311 L431 0 L321 0 L389 299 Q394 322 394 337 Q394 370 376 388 Q358 406 320 406 Q272 406 239 375 Q206 344 194 294 L127 0 L17 0 L129 490 L234 490 L218 421 Q239 453 277 475.5 Q315 498 368 498 Q432 498 470 461.5 Q508 425 508 363 Z M522 685 Q503 656 475.5 623.5 Q448 591 422 565 L277 565 Q263 590 251 623 Q239 656 233 685 L315 685 Q330 645 355 608 Q393 642 430 685 L522 685 Z " />
<glyph glyph-name="uni0146" unicode="&#x146;" horiz-adv-x="552" d="M508 363 Q508 338 502 311 L431 0 L321 0 L389 299 Q394 322 394 337 Q394 370 376 388 Q358 406 320 406 Q272 406 239 375 Q206 344 194 294 L127 0 L17 0 L129 490 L234 490 L218 421 Q239 453 277 475.5 Q315 498 368 498 Q432 498 470 461.5 Q508 425 508 363 Z M164 -52 L262 -52 Q251 -99 229 -134 Q207 -169 179 -200 L114 -200 Q147 -125 164 -52 Z " />
<glyph glyph-name="eng" unicode="&#x14b;" horiz-adv-x="552" d="M508 363 Q508 338 502 311 L431 0 L321 0 L389 299 Q394 322 394 337 Q394 370 376 388 Q358 406 320 406 Q272 406 239 375 Q206 344 194 294 L127 0 L17 0 L129 490 L234 490 L218 421 Q239 453 277 475.5 Q315 498 368 498 Q432 498 470 461.5 Q508 425 508 363 Z " />
<glyph glyph-name="ntilde" unicode="&#xf1;" horiz-adv-x="552" d="M508 363 Q508 338 502 311 L431 0 L321 0 L389 299 Q394 322 394 337 Q394 370 376 388 Q358 406 320 406 Q272 406 239 375 Q206 344 194 294 L127 0 L17 0 L129 490 L234 490 L218 421 Q239 453 277 475.5 Q315 498 368 498 Q432 498 470 461.5 Q508 425 508 363 Z M424 565 Q402 565 385.5 572 Q369 579 349 592 Q334 602 323 606.5 Q312 611 301 611 Q283 611 272 599.5 Q261 588 254 565 L197 565 Q212 621 241.5 651 Q271 681 310 681 Q329 681 344 674.5 Q359 668 378 656 Q393 645 404 640 Q415 635 428 635 Q446 635 457.5 648 Q469 661 474 681 L531 681 Q516 624 489 594.5 Q462 565 424 565 Z " />
<glyph glyph-name="o" unicode="o" horiz-adv-x="521" d="M32 179 Q32 214 41 253 L46 275 Q71 384 137 441.5 Q203 499 292 499 Q386 499 437.5 449 Q489 399 489 313 Q489 278 480 237 L475 215 Q450 105 383.5 48 Q317 -9 228 -9 Q134 -9 83 42 Q32 93 32 179 Z M366 224 L371 247 Q379 279 379 311 Q379 405 287 405 Q234 405 201 365.5 Q168 326 154 266 L149 243 Q141 206 141 180 Q141 85 234 85 Q286 85 319.5 125.5 Q353 166 366 224 Z " />
<glyph glyph-name="oacute" unicode="&#xf3;" horiz-adv-x="521" d="M32 179 Q32 214 41 253 L46 275 Q71 384 137 441.5 Q203 499 292 499 Q386 499 437.5 449 Q489 399 489 313 Q489 278 480 237 L475 215 Q450 105 383.5 48 Q317 -9 228 -9 Q134 -9 83 42 Q32 93 32 179 Z M366 224 L371 247 Q379 279 379 311 Q379 405 287 405 Q234 405 201 365.5 Q168 326 154 266 L149 243 Q141 206 141 180 Q141 85 234 85 Q286 85 319.5 125.5 Q353 166 366 224 Z M378 560 L277 560 Q318 625 372 682 L497 682 Q439 627 378 560 Z " />
<glyph glyph-name="ocircumflex" unicode="&#xf4;" horiz-adv-x="521" d="M32 179 Q32 214 41 253 L46 275 Q71 384 137 441.5 Q203 499 292 499 Q386 499 437.5 449 Q489 399 489 313 Q489 278 480 237 L475 215 Q450 105 383.5 48 Q317 -9 228 -9 Q134 -9 83 42 Q32 93 32 179 Z M366 224 L371 247 Q379 279 379 311 Q379 405 287 405 Q234 405 201 365.5 Q168 326 154 266 L149 243 Q141 206 141 180 Q141 85 234 85 Q286 85 319.5 125.5 Q353 166 366 224 Z M395 560 Q380 598 355 638 Q310 596 279 560 L188 560 Q207 589 234.5 621.5 Q262 654 288 680 L433 680 Q446 656 458 623 Q470 590 477 560 L395 560 Z " />
<glyph glyph-name="odieresis" unicode="&#xf6;" horiz-adv-x="521" d="M32 179 Q32 214 41 253 L46 275 Q71 384 137 441.5 Q203 499 292 499 Q386 499 437.5 449 Q489 399 489 313 Q489 278 480 237 L475 215 Q450 105 383.5 48 Q317 -9 228 -9 Q134 -9 83 42 Q32 93 32 179 Z M366 224 L371 247 Q379 279 379 311 Q379 405 287 405 Q234 405 201 365.5 Q168 326 154 266 L149 243 Q141 206 141 180 Q141 85 234 85 Q286 85 319.5 125.5 Q353 166 366 224 Z M186 627 Q186 654 204.5 671.5 Q223 689 250 689 Q277 689 295.5 671.5 Q314 654 314 627 Q314 600 295.5 582 Q277 564 250 564 Q223 564 204.5 582 Q186 600 186 627 Z M371 627 Q371 654 389.5 671.5 Q408 689 435 689 Q463 689 481.5 671.5 Q500 654 500 627 Q500 600 481.5 582 Q463 564 435 564 Q408 564 389.5 582 Q371 600 371 627 Z " />
<glyph glyph-name="ograve" unicode="&#xf2;" horiz-adv-x="521" d="M32 179 Q32 214 41 253 L46 275 Q71 384 137 441.5 Q203 499 292 499 Q386 499 437.5 449 Q489 399 489 313 Q489 278 480 237 L475 215 Q450 105 383.5 48 Q317 -9 228 -9 Q134 -9 83 42 Q32 93 32 179 Z M366 224 L371 247 Q379 279 379 311 Q379 405 287 405 Q234 405 201 365.5 Q168 326 154 266 L149 243 Q141 206 141 180 Q141 85 234 85 Q286 85 319.5 125.5 Q353 166 366 224 Z M331 682 Q356 631 370 560 L282 560 Q271 586 252 620.5 Q233 655 215 682 L331 682 Z " />
<glyph glyph-name="ohungarumlaut" unicode="&#x151;" horiz-adv-x="521" d="M32 179 Q32 214 41 253 L46 275 Q71 384 137 441.5 Q203 499 292 499 Q386 499 437.5 449 Q489 399 489 313 Q489 278 480 237 L475 215 Q450 105 383.5 48 Q317 -9 228 -9 Q134 -9 83 42 Q32 93 32 179 Z M366 224 L371 247 Q379 279 379 311 Q379 405 287 405 Q234 405 201 365.5 Q168 326 154 266 L149 243 Q141 206 141 180 Q141 85 234 85 Q286 85 319.5 125.5 Q353 166 366 224 Z M301 560 L218 560 Q242 600 302 680 L407 680 Q362 637 301 560 Z M479 591 Q469 579 450 560 L367 560 Q410 622 462 680 L567 680 Q541 654 518.5 631 Q496 608 479 591 Z " />
<glyph glyph-name="omacron" unicode="&#x14d;" horiz-adv-x="521" d="M32 179 Q32 214 41 253 L46 275 Q71 384 137 441.5 Q203 499 292 499 Q386 499 437.5 449 Q489 399 489 313 Q489 278 480 237 L475 215 Q450 105 383.5 48 Q317 -9 228 -9 Q134 -9 83 42 Q32 93 32 179 Z M366 224 L371 247 Q379 279 379 311 Q379 405 287 405 Q234 405 201 365.5 Q168 326 154 266 L149 243 Q141 206 141 180 Q141 85 234 85 Q286 85 319.5 125.5 Q353 166 366 224 Z M481 656 L462 575 L210 575 L229 656 L481 656 Z " />
<glyph glyph-name="oslash" unicode="&#xf8;" horiz-adv-x="521" d="M489 313 Q489 278 480 237 L475 215 Q450 105 383.5 48 Q317 -9 228 -9 Q166 -9 122 14 L86 -35 L38 -2 L76 49 Q32 98 32 178 Q32 214 41 253 L46 275 Q71 384 137 441.5 Q203 499 292 499 Q351 499 397 477 L435 528 L483 496 L444 443 Q489 395 489 313 Z M141 181 Q141 160 146 142 L336 396 Q317 405 287 405 Q234 405 201 365.5 Q168 326 154 266 L149 243 Q141 206 141 181 Z M379 310 Q379 335 374 350 L183 95 Q203 85 234 85 Q286 85 319.5 125.5 Q353 166 366 224 L371 247 Q379 278 379 310 Z " />
<glyph glyph-name="otilde" unicode="&#xf5;" horiz-adv-x="521" d="M32 179 Q32 214 41 253 L46 275 Q71 384 137 441.5 Q203 499 292 499 Q386 499 437.5 449 Q489 399 489 313 Q489 278 480 237 L475 215 Q450 105 383.5 48 Q317 -9 228 -9 Q134 -9 83 42 Q32 93 32 179 Z M366 224 L371 247 Q379 279 379 311 Q379 405 287 405 Q234 405 201 365.5 Q168 326 154 266 L149 243 Q141 206 141 180 Q141 85 234 85 Q286 85 319.5 125.5 Q353 166 366 224 Z M406 560 Q384 560 367.5 567 Q351 574 331 587 Q316 597 305 601.5 Q294 606 283 606 Q265 606 254 594.5 Q243 583 236 560 L179 560 Q194 616 223.5 646 Q253 676 292 676 Q311 676 326 669.5 Q341 663 360 651 Q375 640 386 635 Q397 630 410 630 Q428 630 439.5 643 Q451 656 456 676 L513 676 Q498 619 471 589.5 Q444 560 406 560 Z " />
<glyph glyph-name="oe" unicode="&#x153;" horiz-adv-x="849" d="M820 325 Q820 293 813 261 L804 221 L477 221 Q474 202 474 183 Q474 135 497.5 108.5 Q521 82 570 82 Q635 82 671 143 L782 143 Q753 72 697 31.5 Q641 -9 563 -9 Q506 -9 464.5 10.5 Q423 30 399 66 Q332 -9 228 -9 Q134 -9 83 42 Q32 93 32 179 Q32 214 41 253 L46 275 Q71 384 137 441.5 Q203 499 292 499 Q350 499 391.5 479.5 Q433 460 456 424 Q492 461 537 480.5 Q582 500 633 500 Q722 500 771 453.5 Q820 407 820 325 Z M494 296 L718 296 Q719 303 719 316 Q719 410 625 410 Q576 410 543 378.5 Q510 347 494 296 Z M366 224 L371 247 Q379 279 379 311 Q379 405 287 405 Q234 405 201 365.5 Q168 326 154 266 L149 243 Q141 206 141 180 Q141 85 234 85 Q286 85 319.5 125.5 Q353 166 366 224 Z " />
<glyph glyph-name="p" unicode="p" horiz-adv-x="552" d="M522 331 Q522 284 511 237 L506 215 Q481 105 421 48 Q361 -9 279 -9 Q232 -9 196 10 Q160 29 141 67 L89 -160 L-22 -160 L129 490 L234 490 L220 430 Q279 498 365 498 Q443 498 482.5 454 Q522 410 522 331 Z M411 315 Q411 404 327 404 Q273 404 235.5 364 Q198 324 185 266 L180 243 Q173 214 173 185 Q173 137 197 111.5 Q221 86 267 86 Q317 86 350.5 125.5 Q384 165 397 224 L402 247 Q411 286 411 315 Z " />
<glyph glyph-name="thorn" unicode="&#xfe;" horiz-adv-x="552" d="M522 331 Q522 284 511 237 L506 215 Q481 105 421 48 Q361 -9 279 -9 Q232 -9 196 10 Q160 29 141 67 L89 -160 L-22 -160 L179 700 L289 700 L227 438 Q284 498 365 498 Q443 498 482.5 454 Q522 410 522 331 Z M411 315 Q411 404 327 404 Q273 404 235.5 364 Q198 324 185 266 L180 243 Q173 214 173 185 Q173 137 197 111.5 Q221 86 267 86 Q317 86 350.5 125.5 Q384 165 397 224 L402 247 Q411 286 411 315 Z " />
<glyph glyph-name="q" unicode="q" horiz-adv-x="548" d="M537 490 L386 -160 L276 -160 L325 52 Q267 -9 186 -9 Q108 -9 68.5 35 Q29 79 29 157 Q29 201 41 252 L46 275 Q72 385 131.5 441.5 Q191 498 273 498 Q323 498 360 477.5 Q397 457 415 414 L432 490 L537 490 Z M366 224 L371 247 Q378 278 378 306 Q378 353 355 378.5 Q332 404 287 404 Q236 404 202 364 Q168 324 154 265 L149 243 Q140 204 140 175 Q140 86 225 86 Q279 86 316 126 Q353 166 366 224 Z " />
<glyph glyph-name="r" unicode="r" horiz-adv-x="386" d="M417 490 L390 378 Q372 381 350 381 Q287 381 242 341.5 Q197 302 179 226 L127 0 L17 0 L130 490 L235 490 L210 381 Q230 425 273 459.5 Q316 494 377 494 Q395 494 417 490 Z " />
<glyph glyph-name="racute" unicode="&#x155;" horiz-adv-x="386" d="M417 490 L390 378 Q372 381 350 381 Q287 381 242 341.5 Q197 302 179 226 L127 0 L17 0 L130 490 L235 490 L210 381 Q230 425 273 459.5 Q316 494 377 494 Q395 494 417 490 Z M340 560 L239 560 Q280 625 334 682 L459 682 Q401 627 340 560 Z " />
<glyph glyph-name="rcaron" unicode="&#x159;" horiz-adv-x="386" d="M417 490 L390 378 Q372 381 350 381 Q287 381 242 341.5 Q197 302 179 226 L127 0 L17 0 L130 490 L235 490 L210 381 Q230 425 273 459.5 Q316 494 377 494 Q395 494 417 490 Z M466 680 Q447 651 419.5 618.5 Q392 586 366 560 L221 560 Q207 585 195 618 Q183 651 177 680 L259 680 Q274 640 299 603 Q337 637 374 680 L466 680 Z " />
<glyph glyph-name="uni0157" unicode="&#x157;" horiz-adv-x="386" d="M417 490 L390 378 Q372 381 350 381 Q287 381 242 341.5 Q197 302 179 226 L127 0 L17 0 L130 490 L235 490 L210 381 Q230 425 273 459.5 Q316 494 377 494 Q395 494 417 490 Z M11 -52 L109 -52 Q98 -99 76 -134 Q54 -169 26 -200 L-39 -200 Q-6 -125 11 -52 Z " />
<glyph glyph-name="s" unicode="s" horiz-adv-x="460" d="M14 154 L115 154 Q115 115 142.5 94 Q170 73 216 73 Q254 73 276 89.5 Q298 106 298 139 Q298 158 283 172.5 Q268 187 235 201 L190 219 Q134 242 101.5 273 Q69 304 69 349 Q69 418 118.5 459 Q168 500 248 500 Q335 500 386 461 Q437 422 437 357 L334 357 Q331 383 309 400 Q287 417 247 417 Q215 417 196.5 402 Q178 387 178 361 Q178 342 194.5 328 Q211 314 246 300 L288 283 Q407 236 407 153 Q407 76 354.5 33 Q302 -10 215 -10 Q118 -10 63.5 31.5 Q9 73 14 154 Z " />
<glyph glyph-name="sacute" unicode="&#x15b;" horiz-adv-x="460" d="M14 154 L115 154 Q115 115 142.5 94 Q170 73 216 73 Q254 73 276 89.5 Q298 106 298 139 Q298 158 283 172.5 Q268 187 235 201 L190 219 Q134 242 101.5 273 Q69 304 69 349 Q69 418 118.5 459 Q168 500 248 500 Q335 500 386 461 Q437 422 437 357 L334 357 Q331 383 309 400 Q287 417 247 417 Q215 417 196.5 402 Q178 387 178 361 Q178 342 194.5 328 Q211 314 246 300 L288 283 Q407 236 407 153 Q407 76 354.5 33 Q302 -10 215 -10 Q118 -10 63.5 31.5 Q9 73 14 154 Z M346 560 L245 560 Q286 625 340 682 L465 682 Q407 627 346 560 Z " />
<glyph glyph-name="scaron" unicode="&#x161;" horiz-adv-x="460" d="M14 154 L115 154 Q115 115 142.5 94 Q170 73 216 73 Q254 73 276 89.5 Q298 106 298 139 Q298 158 283 172.5 Q268 187 235 201 L190 219 Q134 242 101.5 273 Q69 304 69 349 Q69 418 118.5 459 Q168 500 248 500 Q335 500 386 461 Q437 422 437 357 L334 357 Q331 383 309 400 Q287 417 247 417 Q215 417 196.5 402 Q178 387 178 361 Q178 342 194.5 328 Q211 314 246 300 L288 283 Q407 236 407 153 Q407 76 354.5 33 Q302 -10 215 -10 Q118 -10 63.5 31.5 Q9 73 14 154 Z M472 680 Q453 651 425.5 618.5 Q398 586 372 560 L227 560 Q213 585 201 618 Q189 651 183 680 L265 680 Q280 640 305 603 Q343 637 380 680 L472 680 Z " />
<glyph glyph-name="scedilla" unicode="&#x15f;" horiz-adv-x="460" d="M407 153 Q407 76 354.5 33 Q302 -10 215 -10 L211 -10 L189 -39 Q221 -42 242 -59.5 Q263 -77 263 -106 Q263 -150 233.5 -174 Q204 -198 153 -198 Q122 -198 94 -188.5 Q66 -179 51 -164 L87 -123 Q97 -133 115 -138.5 Q133 -144 152 -144 Q174 -144 186.5 -135.5 Q199 -127 199 -112 Q199 -87 157 -87 Q141 -87 123 -92 L110 -69 L155 -5 Q85 7 47.5 47 Q10 87 14 154 L115 154 Q115 115 142.5 94 Q170 73 216 73 Q254 73 276 89.5 Q298 106 298 139 Q298 158 283 172.5 Q268 187 235 201 L190 219 Q134 242 101.5 273 Q69 304 69 349 Q69 418 118.5 459 Q168 500 248 500 Q335 500 386 461 Q437 422 437 357 L334 357 Q331 383 309 400 Q287 417 247 417 Q215 417 196.5 402 Q178 387 178 361 Q178 342 194.5 328 Q211 314 246 300 L288 283 Q407 236 407 153 Z " />
<glyph glyph-name="uni0219" unicode="&#x219;" horiz-adv-x="460" d="M14 154 L115 154 Q115 115 142.5 94 Q170 73 216 73 Q254 73 276 89.5 Q298 106 298 139 Q298 158 283 172.5 Q268 187 235 201 L190 219 Q134 242 101.5 273 Q69 304 69 349 Q69 418 118.5 459 Q168 500 248 500 Q335 500 386 461 Q437 422 437 357 L334 357 Q331 383 309 400 Q287 417 247 417 Q215 417 196.5 402 Q178 387 178 361 Q178 342 194.5 328 Q211 314 246 300 L288 283 Q407 236 407 153 Q407 76 354.5 33 Q302 -10 215 -10 Q118 -10 63.5 31.5 Q9 73 14 154 Z M127 -52 L225 -52 Q214 -99 192 -134 Q170 -169 142 -200 L77 -200 Q110 -125 127 -52 Z " />
<glyph glyph-name="germandbls" unicode="&#xdf;" horiz-adv-x="550" d="M504 227 Q504 162 475.5 109 Q447 56 394.5 25.5 Q342 -5 274 -5 Q218 -5 179 6 L201 103 Q225 91 274 91 Q330 91 363 128.5 Q396 166 396 219 Q396 269 361.5 295.5 Q327 322 272 325 L293 417 Q300 416 313 416 Q366 416 403.5 449 Q441 482 441 535 Q441 571 420.5 592 Q400 613 359 613 Q314 613 283.5 582 Q253 551 240 495 L126 0 L16 0 L131 505 Q153 602 214.5 654.5 Q276 707 365 707 Q449 707 498.5 665 Q548 623 548 547 Q548 484 512 433.5 Q476 383 420 367 Q456 350 480 313 Q504 276 504 227 Z " />
<glyph glyph-name="t" unicode="t" horiz-adv-x="336" d="M62 87 Q62 114 69 142 L128 401 L56 401 L77 490 L150 490 L179 617 L289 617 L260 490 L356 490 L335 401 L239 401 L183 159 Q180 143 180 131 Q180 110 192 100 Q204 90 232 90 Q240 90 264 92 L244 3 Q215 -5 179 -5 Q118 -5 90 18 Q62 41 62 87 Z " />
<glyph glyph-name="tbar" unicode="&#x167;" horiz-adv-x="336" d="M239 401 L214 294 L301 294 L284 219 L197 219 L183 159 Q180 143 180 131 Q180 110 192 100 Q204 90 232 90 Q240 90 264 92 L244 3 Q215 -5 179 -5 Q118 -5 90 18 Q62 41 62 87 Q62 114 69 142 L87 219 L5 219 L22 294 L104 294 L128 401 L56 401 L77 490 L150 490 L179 617 L289 617 L260 490 L356 490 L335 401 L239 401 Z " />
<glyph glyph-name="tcaron" unicode="&#x165;" horiz-adv-x="336" d="M62 87 Q62 114 69 142 L128 401 L56 401 L77 490 L150 490 L179 617 L289 617 L260 490 L356 490 L335 401 L239 401 L183 159 Q180 143 180 131 Q180 110 192 100 Q204 90 232 90 Q240 90 264 92 L244 3 Q215 -5 179 -5 Q118 -5 90 18 Q62 41 62 87 Z M380 551 L329 551 Q371 650 389 729 L475 729 Q450 630 380 551 Z " />
<glyph glyph-name="uni0163" unicode="&#x163;" horiz-adv-x="336" d="M183 159 Q180 143 180 131 Q180 110 192 100 Q204 90 232 90 Q240 90 264 92 L244 3 Q215 -5 179 -5 Q164 -5 157 -4 L131 -40 Q162 -42 183 -59.5 Q204 -77 204 -106 Q204 -150 174.5 -174 Q145 -198 94 -198 Q63 -198 35 -188.5 Q7 -179 -8 -164 L28 -123 Q38 -133 56 -138.5 Q74 -144 93 -144 Q115 -144 127.5 -135.5 Q140 -127 140 -112 Q140 -87 99 -87 Q81 -87 64 -92 L52 -69 L106 8 Q62 29 62 87 Q62 114 69 142 L128 401 L56 401 L77 490 L150 490 L179 617 L289 617 L260 490 L356 490 L335 401 L239 401 L183 159 Z " />
<glyph glyph-name="uni021B" unicode="&#x21b;" horiz-adv-x="336" d="M62 87 Q62 114 69 142 L128 401 L56 401 L77 490 L150 490 L179 617 L289 617 L260 490 L356 490 L335 401 L239 401 L183 159 Q180 143 180 131 Q180 110 192 100 Q204 90 232 90 Q240 90 264 92 L244 3 Q215 -5 179 -5 Q118 -5 90 18 Q62 41 62 87 Z M69 -52 L167 -52 Q156 -99 134 -134 Q112 -169 84 -200 L19 -200 Q52 -125 69 -52 Z " />
<glyph glyph-name="u" unicode="u" horiz-adv-x="543" d="M527 490 L414 0 L309 0 L325 69 Q305 37 268 15 Q231 -7 177 -7 Q112 -7 77 27 Q42 61 42 122 Q42 151 49 179 L121 490 L231 490 L162 191 Q157 168 157 151 Q157 119 173.5 101.5 Q190 84 224 84 Q273 84 305.5 115 Q338 146 349 196 L417 490 L527 490 Z " />
<glyph glyph-name="uacute" unicode="&#xfa;" horiz-adv-x="543" d="M527 490 L414 0 L309 0 L325 69 Q305 37 268 15 Q231 -7 177 -7 Q112 -7 77 27 Q42 61 42 122 Q42 151 49 179 L121 490 L231 490 L162 191 Q157 168 157 151 Q157 119 173.5 101.5 Q190 84 224 84 Q273 84 305.5 115 Q338 146 349 196 L417 490 L527 490 Z M380 560 L279 560 Q320 625 374 682 L499 682 Q441 627 380 560 Z " />
<glyph glyph-name="ucircumflex" unicode="&#xfb;" horiz-adv-x="543" d="M527 490 L414 0 L309 0 L325 69 Q305 37 268 15 Q231 -7 177 -7 Q112 -7 77 27 Q42 61 42 122 Q42 151 49 179 L121 490 L231 490 L162 191 Q157 168 157 151 Q157 119 173.5 101.5 Q190 84 224 84 Q273 84 305.5 115 Q338 146 349 196 L417 490 L527 490 Z M397 560 Q382 598 357 638 Q312 596 281 560 L190 560 Q209 589 236.5 621.5 Q264 654 290 680 L435 680 Q448 656 460 623 Q472 590 479 560 L397 560 Z " />
<glyph glyph-name="udieresis" unicode="&#xfc;" horiz-adv-x="543" d="M527 490 L414 0 L309 0 L325 69 Q305 37 268 15 Q231 -7 177 -7 Q112 -7 77 27 Q42 61 42 122 Q42 151 49 179 L121 490 L231 490 L162 191 Q157 168 157 151 Q157 119 173.5 101.5 Q190 84 224 84 Q273 84 305.5 115 Q338 146 349 196 L417 490 L527 490 Z M188 627 Q188 654 206.5 671.5 Q225 689 252 689 Q279 689 297.5 671.5 Q316 654 316 627 Q316 600 297.5 582 Q279 564 252 564 Q225 564 206.5 582 Q188 600 188 627 Z M373 627 Q373 654 391.5 671.5 Q410 689 437 689 Q465 689 483.5 671.5 Q502 654 502 627 Q502 600 483.5 582 Q465 564 437 564 Q410 564 391.5 582 Q373 600 373 627 Z " />
<glyph glyph-name="ugrave" unicode="&#xf9;" horiz-adv-x="543" d="M527 490 L414 0 L309 0 L325 69 Q305 37 268 15 Q231 -7 177 -7 Q112 -7 77 27 Q42 61 42 122 Q42 151 49 179 L121 490 L231 490 L162 191 Q157 168 157 151 Q157 119 173.5 101.5 Q190 84 224 84 Q273 84 305.5 115 Q338 146 349 196 L417 490 L527 490 Z M333 682 Q358 631 372 560 L284 560 Q273 586 254 620.5 Q235 655 217 682 L333 682 Z " />
<glyph glyph-name="uhungarumlaut" unicode="&#x171;" horiz-adv-x="543" d="M527 490 L414 0 L309 0 L325 69 Q305 37 268 15 Q231 -7 177 -7 Q112 -7 77 27 Q42 61 42 122 Q42 151 49 179 L121 490 L231 490 L162 191 Q157 168 157 151 Q157 119 173.5 101.5 Q190 84 224 84 Q273 84 305.5 115 Q338 146 349 196 L417 490 L527 490 Z M303 560 L220 560 Q244 600 304 680 L409 680 Q364 637 303 560 Z M481 591 Q471 579 452 560 L369 560 Q412 622 464 680 L569 680 Q543 654 520.5 631 Q498 608 481 591 Z " />
<glyph glyph-name="umacron" unicode="&#x16b;" horiz-adv-x="543" d="M527 490 L414 0 L309 0 L325 69 Q305 37 268 15 Q231 -7 177 -7 Q112 -7 77 27 Q42 61 42 122 Q42 151 49 179 L121 490 L231 490 L162 191 Q157 168 157 151 Q157 119 173.5 101.5 Q190 84 224 84 Q273 84 305.5 115 Q338 146 349 196 L417 490 L527 490 Z M483 656 L464 575 L212 575 L231 656 L483 656 Z " />
<glyph glyph-name="uogonek" unicode="&#x173;" horiz-adv-x="544" d="M339 -78 Q339 -91 348 -98 Q357 -105 379 -105 L388 -105 L372 -174 Q357 -177 338 -177 Q298 -177 275.5 -157.5 Q253 -138 253 -108 Q253 -40 334 0 L310 0 L326 69 Q306 37 269 15 Q232 -7 178 -7 Q113 -7 78 27 Q43 61 43 122 Q43 151 50 179 L122 490 L232 490 L163 191 Q158 168 158 151 Q158 119 174.5 101.5 Q191 84 225 84 Q274 84 306.5 115 Q339 146 350 196 L418 490 L528 490 L415 0 Q383 -12 361 -34 Q339 -56 339 -78 Z " />
<glyph glyph-name="uring" unicode="&#x16f;" horiz-adv-x="543" d="M527 490 L414 0 L309 0 L325 69 Q305 37 268 15 Q231 -7 177 -7 Q112 -7 77 27 Q42 61 42 122 Q42 151 49 179 L121 490 L231 490 L162 191 Q157 168 157 151 Q157 119 173.5 101.5 Q190 84 224 84 Q273 84 305.5 115 Q338 146 349 196 L417 490 L527 490 Z M241 639 Q241 683 270.5 710.5 Q300 738 348 738 Q396 738 425.5 710.5 Q455 683 455 639 Q455 596 425 568 Q395 540 348 540 Q300 540 270.5 568 Q241 596 241 639 Z M399 639 Q399 661 385.5 675.5 Q372 690 348 690 Q324 690 310.5 675.5 Q297 661 297 639 Q297 617 310.5 602.5 Q324 588 348 588 Q372 588 385.5 602.5 Q399 617 399 639 Z " />
<glyph glyph-name="v" unicode="v" horiz-adv-x="494" d="M527 490 Q475 382 403 253.5 Q331 125 262 19 Q255 8 249.5 4 Q244 0 232 0 L147 0 Q135 0 131 4 Q127 8 125 19 Q106 125 93.5 251.5 Q81 378 78 490 L186 490 Q188 316 212 111 Q318 292 411 490 L527 490 Z " />
<glyph glyph-name="w" unicode="w" horiz-adv-x="752" d="M779 490 Q727 373 661.5 245 Q596 117 535 19 Q529 8 522.5 4 Q516 0 505 0 L428 0 Q416 0 411.5 4.5 Q407 9 406 19 L393 329 L240 19 Q234 9 228 4.5 Q222 0 210 0 L131 0 Q119 0 115 4 Q111 8 109 19 Q82 186 82 441 L82 490 L188 490 L187 432 Q187 285 198 129 L377 490 L477 490 L490 127 Q590 315 665 490 L779 490 Z " />
<glyph glyph-name="wacute" unicode="&#x1e83;" horiz-adv-x="752" d="M779 490 Q727 373 661.5 245 Q596 117 535 19 Q529 8 522.5 4 Q516 0 505 0 L428 0 Q416 0 411.5 4.5 Q407 9 406 19 L393 329 L240 19 Q234 9 228 4.5 Q222 0 210 0 L131 0 Q119 0 115 4 Q111 8 109 19 Q82 186 82 441 L82 490 L188 490 L187 432 Q187 285 198 129 L377 490 L477 490 L490 127 Q590 315 665 490 L779 490 Z M495 560 L394 560 Q435 625 489 682 L614 682 Q556 627 495 560 Z " />
<glyph glyph-name="wcircumflex" unicode="&#x175;" horiz-adv-x="752" d="M779 490 Q727 373 661.5 245 Q596 117 535 19 Q529 8 522.5 4 Q516 0 505 0 L428 0 Q416 0 411.5 4.5 Q407 9 406 19 L393 329 L240 19 Q234 9 228 4.5 Q222 0 210 0 L131 0 Q119 0 115 4 Q111 8 109 19 Q82 186 82 441 L82 490 L188 490 L187 432 Q187 285 198 129 L377 490 L477 490 L490 127 Q590 315 665 490 L779 490 Z M512 560 Q497 598 472 638 Q427 596 396 560 L305 560 Q324 589 351.5 621.5 Q379 654 405 680 L550 680 Q563 656 575 623 Q587 590 594 560 L512 560 Z " />
<glyph glyph-name="wdieresis" unicode="&#x1e85;" horiz-adv-x="752" d="M779 490 Q727 373 661.5 245 Q596 117 535 19 Q529 8 522.5 4 Q516 0 505 0 L428 0 Q416 0 411.5 4.5 Q407 9 406 19 L393 329 L240 19 Q234 9 228 4.5 Q222 0 210 0 L131 0 Q119 0 115 4 Q111 8 109 19 Q82 186 82 441 L82 490 L188 490 L187 432 Q187 285 198 129 L377 490 L477 490 L490 127 Q590 315 665 490 L779 490 Z M303 627 Q303 654 321.5 671.5 Q340 689 367 689 Q394 689 412.5 671.5 Q431 654 431 627 Q431 600 412.5 582 Q394 564 367 564 Q340 564 321.5 582 Q303 600 303 627 Z M488 627 Q488 654 506.5 671.5 Q525 689 552 689 Q580 689 598.5 671.5 Q617 654 617 627 Q617 600 598.5 582 Q580 564 552 564 Q525 564 506.5 582 Q488 600 488 627 Z " />
<glyph glyph-name="wgrave" unicode="&#x1e81;" horiz-adv-x="752" d="M779 490 Q727 373 661.5 245 Q596 117 535 19 Q529 8 522.5 4 Q516 0 505 0 L428 0 Q416 0 411.5 4.5 Q407 9 406 19 L393 329 L240 19 Q234 9 228 4.5 Q222 0 210 0 L131 0 Q119 0 115 4 Q111 8 109 19 Q82 186 82 441 L82 490 L188 490 L187 432 Q187 285 198 129 L377 490 L477 490 L490 127 Q590 315 665 490 L779 490 Z M448 682 Q473 631 487 560 L399 560 Q388 586 369 620.5 Q350 655 332 682 L448 682 Z " />
<glyph glyph-name="x" unicode="x" horiz-adv-x="482" d="M315 250 Q374 115 405 0 L294 0 Q271 91 233 184 Q154 92 88 0 L-35 0 Q55 126 173 257 Q114 393 87 490 L199 490 Q220 406 257 320 Q339 418 390 490 L514 490 Q443 387 315 250 Z " />
<glyph glyph-name="y" unicode="y" horiz-adv-x="494" d="M526 490 Q482 387 405.5 255 Q329 123 252 7.5 Q175 -108 131 -160 L12 -160 Q68 -92 133 7 Q108 112 93 246.5 Q78 381 77 490 L184 490 Q183 409 190.5 310 Q198 211 212 119 Q263 200 316 298.5 Q369 397 412 490 L526 490 Z " />
<glyph glyph-name="yacute" unicode="&#xfd;" horiz-adv-x="494" d="M526 490 Q482 387 405.5 255 Q329 123 252 7.5 Q175 -108 131 -160 L12 -160 Q68 -92 133 7 Q108 112 93 246.5 Q78 381 77 490 L184 490 Q183 409 190.5 310 Q198 211 212 119 Q263 200 316 298.5 Q369 397 412 490 L526 490 Z M357 560 L256 560 Q297 625 351 682 L476 682 Q418 627 357 560 Z " />
<glyph glyph-name="ycircumflex" unicode="&#x177;" horiz-adv-x="494" d="M526 490 Q482 387 405.5 255 Q329 123 252 7.5 Q175 -108 131 -160 L12 -160 Q68 -92 133 7 Q108 112 93 246.5 Q78 381 77 490 L184 490 Q183 409 190.5 310 Q198 211 212 119 Q263 200 316 298.5 Q369 397 412 490 L526 490 Z M374 560 Q359 598 334 638 Q289 596 258 560 L167 560 Q186 589 213.5 621.5 Q241 654 267 680 L412 680 Q425 656 437 623 Q449 590 456 560 L374 560 Z " />
<glyph glyph-name="ydieresis" unicode="&#xff;" horiz-adv-x="494" d="M526 490 Q482 387 405.5 255 Q329 123 252 7.5 Q175 -108 131 -160 L12 -160 Q68 -92 133 7 Q108 112 93 246.5 Q78 381 77 490 L184 490 Q183 409 190.5 310 Q198 211 212 119 Q263 200 316 298.5 Q369 397 412 490 L526 490 Z M165 627 Q165 654 183.5 671.5 Q202 689 229 689 Q256 689 274.5 671.5 Q293 654 293 627 Q293 600 274.5 582 Q256 564 229 564 Q202 564 183.5 582 Q165 600 165 627 Z M350 627 Q350 654 368.5 671.5 Q387 689 414 689 Q442 689 460.5 671.5 Q479 654 479 627 Q479 600 460.5 582 Q442 564 414 564 Q387 564 368.5 582 Q350 600 350 627 Z " />
<glyph glyph-name="ygrave" unicode="&#x1ef3;" horiz-adv-x="494" d="M526 490 Q482 387 405.5 255 Q329 123 252 7.5 Q175 -108 131 -160 L12 -160 Q68 -92 133 7 Q108 112 93 246.5 Q78 381 77 490 L184 490 Q183 409 190.5 310 Q198 211 212 119 Q263 200 316 298.5 Q369 397 412 490 L526 490 Z M310 682 Q335 631 349 560 L261 560 Q250 586 231 620.5 Q212 655 194 682 L310 682 Z " />
<glyph glyph-name="z" unicode="z" horiz-adv-x="467" d="M459 407 L145 94 L397 94 L376 0 L-15 0 L3 82 L318 396 L80 396 L101 490 L477 490 L459 407 Z " />
<glyph glyph-name="zacute" unicode="&#x17a;" horiz-adv-x="467" d="M459 407 L145 94 L397 94 L376 0 L-15 0 L3 82 L318 396 L80 396 L101 490 L477 490 L459 407 Z M339 560 L238 560 Q279 625 333 682 L458 682 Q400 627 339 560 Z " />
<glyph glyph-name="zcaron" unicode="&#x17e;" horiz-adv-x="467" d="M459 407 L145 94 L397 94 L376 0 L-15 0 L3 82 L318 396 L80 396 L101 490 L477 490 L459 407 Z M465 680 Q446 651 418.5 618.5 Q391 586 365 560 L220 560 Q206 585 194 618 Q182 651 176 680 L258 680 Q273 640 298 603 Q336 637 373 680 L465 680 Z " />
<glyph glyph-name="zdotaccent" unicode="&#x17c;" horiz-adv-x="467" d="M459 407 L145 94 L397 94 L376 0 L-15 0 L3 82 L318 396 L80 396 L101 490 L477 490 L459 407 Z M240 627 Q240 655 259 673 Q278 691 306 691 Q334 691 353 673 Q372 655 372 627 Q372 600 352.5 582 Q333 564 306 564 Q278 564 259 582 Q240 600 240 627 Z " />
<glyph glyph-name="zero" unicode="0" horiz-adv-x="560" d="M49 203 Q49 259 67 336 L79 385 Q117 543 190 616.5 Q263 690 357 690 Q457 690 505 633.5 Q553 577 553 478 Q553 423 535 344 L523 295 Q485 137 412 63.5 Q339 -10 245 -10 Q145 -10 97 47.5 Q49 105 49 203 Z M412 309 L422 351 Q439 426 439 474 Q439 589 351 589 Q292 589 252 528 Q212 467 190 371 L180 329 Q164 259 164 206 Q164 91 251 91 Q310 91 350 152 Q390 213 412 309 Z " />
<glyph glyph-name="one" unicode="1" horiz-adv-x="560" d="M478 680 L322 0 L209 0 L328 519 Q292 489 244.5 468 Q197 447 156 440 L180 546 Q228 561 286.5 600.5 Q345 640 385 680 L478 680 Z " />
<glyph glyph-name="two" unicode="2" horiz-adv-x="560" d="M191 100 L469 100 L446 0 L7 0 L28 90 Q129 155 214 217.5 Q299 280 367.5 358.5 Q436 437 436 509 Q436 548 414.5 569 Q393 590 353 590 Q303 590 268.5 557 Q234 524 216 466 L106 466 Q129 568 194 629 Q259 690 362 690 Q450 690 500.5 644.5 Q551 599 551 527 Q551 408 444.5 297.5 Q338 187 191 100 Z " />
<glyph glyph-name="three" unicode="3" horiz-adv-x="560" d="M492 221 Q492 155 461 102.5 Q430 50 376 20 Q322 -10 255 -10 Q156 -10 99.5 37 Q43 84 43 170 Q43 180 45 202 L156 202 Q155 196 155 184 Q155 138 182.5 113.5 Q210 89 260 89 Q315 89 348 126.5 Q381 164 381 219 Q381 263 349.5 286 Q318 309 264 313 L284 401 Q300 399 307 399 Q360 399 397 431.5 Q434 464 434 516 Q434 550 412.5 570 Q391 590 348 590 Q307 590 276.5 564 Q246 538 231 493 L120 493 Q143 587 209 638 Q275 689 358 689 Q446 689 497 647.5 Q548 606 548 534 Q548 471 511 419 Q474 367 418 348 Q452 330 472 297.5 Q492 265 492 221 Z " />
<glyph glyph-name="four" unicode="4" horiz-adv-x="560" d="M514 144 L444 144 L411 0 L298 0 L331 144 L19 144 L33 202 Q40 240 57 266 Q112 352 217 481 Q322 610 396 680 L535 680 Q447 596 338 466.5 Q229 337 165 240 L353 240 L391 406 L504 406 L466 240 L537 240 L514 144 Z " />
<glyph glyph-name="five" unicode="5" horiz-adv-x="560" d="M514 281 Q514 198 483 132.5 Q452 67 393 29 Q334 -9 251 -9 Q149 -9 94 44.5 Q39 98 44 190 L154 190 Q153 137 179.5 111 Q206 85 259 85 Q326 85 362.5 137.5 Q399 190 399 264 Q399 307 373.5 333 Q348 359 304 359 Q267 359 237.5 343.5 Q208 328 189 303 L87 312 Q102 368 143 488.5 Q184 609 214 680 L571 680 L547 580 L282 580 Q259 526 223 413 Q271 452 339 452 Q419 452 466.5 404.5 Q514 357 514 281 Z " />
<glyph glyph-name="six" unicode="6" horiz-adv-x="560" d="M517 276 Q517 199 483.5 133.5 Q450 68 389.5 29 Q329 -10 253 -10 Q156 -10 101 42 Q46 94 46 179 Q46 212 55 248 L62 274 Q80 349 129 427.5 Q178 506 244 572.5 Q310 639 376 680 L532 680 Q441 617 373 557.5 Q305 498 256 430 Q294 449 337 449 Q420 449 468.5 403 Q517 357 517 276 Z M402 265 Q402 311 377 335.5 Q352 360 301 360 Q258 360 225.5 335 Q193 310 176 269.5 Q159 229 159 183 Q159 136 185.5 110.5 Q212 85 262 85 Q304 85 335.5 111.5 Q367 138 384.5 179.5 Q402 221 402 265 Z " />
<glyph glyph-name="seven" unicode="7" horiz-adv-x="560" d="M574 680 L553 587 Q493 466 367.5 275 Q242 84 175 0 L42 0 Q136 122 245.5 285.5 Q355 449 428 580 L112 580 L135 680 L574 680 Z " />
<glyph glyph-name="eight" unicode="8" horiz-adv-x="560" d="M414 352 Q501 287 501 203 Q501 140 468 91.5 Q435 43 378.5 16 Q322 -11 253 -11 Q188 -11 137.5 10.5 Q87 32 59 71 Q31 110 31 160 Q31 234 77 288 Q123 342 200 370 Q137 429 137 499 Q137 556 165.5 600 Q194 644 243.5 667.5 Q293 691 355 691 Q445 691 502 649 Q559 607 559 536 Q559 470 520 424.5 Q481 379 414 352 Z M449 524 Q449 556 423.5 578 Q398 600 353 600 Q306 600 278 573.5 Q250 547 250 508 Q250 483 269 458 Q288 433 333 404 Q384 419 416.5 449.5 Q449 480 449 524 Z M386 194 Q386 229 359 257 Q332 285 273 319 Q216 301 180.5 262.5 Q145 224 145 175 Q145 135 175.5 108.5 Q206 82 259 82 Q314 82 350 114.5 Q386 147 386 194 Z " />
<glyph glyph-name="nine" unicode="9" horiz-adv-x="560" d="M556 502 Q556 468 547 432 L541 406 Q523 332 474 253.5 Q425 175 359 108 Q293 41 227 0 L71 0 Q162 63 230 122.5 Q298 182 348 251 Q311 231 266 231 Q183 231 134.5 277 Q86 323 86 404 Q86 481 119.5 546.5 Q153 612 213 651 Q273 690 350 690 Q447 690 501.5 638.5 Q556 587 556 502 Z M443 497 Q443 544 416.5 569.5 Q390 595 341 595 Q299 595 267 568.5 Q235 542 218 500.5 Q201 459 201 415 Q201 370 225.5 345 Q250 320 302 320 Q345 320 377 345 Q409 370 426 411 Q443 452 443 497 Z " />
<glyph glyph-name="uni00B9" unicode="&#xb9;" horiz-adv-x="330" d="M336 720 L240 306 L154 306 L222 598 Q196 580 165.5 566 Q135 552 112 547 L129 621 Q164 639 201.5 665.5 Q239 692 268 720 L336 720 Z " />
<glyph glyph-name="uni00B2" unicode="&#xb2;" horiz-adv-x="412" d="M217 380 L378 380 L361 308 L63 308 L78 369 L104 384 Q173 425 219.5 457 Q266 489 301 530 Q336 571 336 614 Q336 634 324 646 Q312 658 289 658 Q259 658 238 637.5 Q217 617 207 582 L121 582 Q139 651 185 690 Q231 729 300 729 Q357 729 391 699.5 Q425 670 425 620 Q425 491 217 380 Z " />
<glyph glyph-name="uni00B3" unicode="&#xb3;" horiz-adv-x="382" d="M336 514 Q358 504 371.5 483.5 Q385 463 385 434 Q385 372 339.5 335.5 Q294 299 220 299 Q157 299 120.5 327 Q84 355 84 407 Q84 418 85 424 L169 424 Q166 400 181 384 Q196 368 227 368 Q260 368 280.5 387.5 Q301 407 301 435 Q301 488 226 488 L241 551 Q285 551 312 568.5 Q339 586 339 619 Q339 639 325.5 651.5 Q312 664 289 664 Q233 664 213 606 L132 606 Q145 663 188 696 Q231 729 296 729 Q358 729 390.5 700.5 Q423 672 423 624 Q423 584 399 555.5 Q375 527 336 514 Z " />
<glyph glyph-name="fraction" unicode="&#x2044;" horiz-adv-x="237" d="M-86 0 L-180 0 L365 680 L460 680 L-86 0 Z " />
<glyph glyph-name="onehalf" unicode="&#xbd;" horiz-adv-x="960" d="M327 680 L231 266 L145 266 L213 558 Q187 540 156.5 526 Q126 512 103 507 L120 581 Q155 599 192.5 625.5 Q230 652 259 680 L327 680 Z M234 0 L140 0 L685 680 L780 680 L234 0 Z M694 72 L855 72 L838 0 L540 0 L555 61 L581 76 Q650 117 696.5 149 Q743 181 778 222 Q813 263 813 306 Q813 326 801 338 Q789 350 766 350 Q736 350 715 329.5 Q694 309 684 274 L598 274 Q616 343 662 382 Q708 421 777 421 Q834 421 868 391.5 Q902 362 902 312 Q902 183 694 72 Z " />
<glyph glyph-name="onequarter" unicode="&#xbc;" horiz-adv-x="908" d="M327 680 L231 266 L145 266 L213 558 Q187 540 156.5 526 Q126 512 103 507 L120 581 Q155 599 192.5 625.5 Q230 652 259 680 L327 680 Z M234 0 L140 0 L685 680 L780 680 L234 0 Z M838 84 L791 84 L771 0 L689 0 L709 84 L495 84 L503 118 Q511 150 524 171 Q560 225 619 293.5 Q678 362 731 414 L835 414 Q777 357 715.5 288 Q654 219 611 157 L726 157 L749 257 L831 257 L808 157 L855 157 L838 84 Z " />
<glyph glyph-name="threequarters" unicode="&#xbe;" horiz-adv-x="963" d="M327 474 Q349 464 362.5 443.5 Q376 423 376 394 Q376 332 330.5 295.5 Q285 259 211 259 Q148 259 111.5 287 Q75 315 75 367 Q75 378 76 384 L160 384 Q157 360 172 344 Q187 328 218 328 Q251 328 271.5 347.5 Q292 367 292 395 Q292 448 217 448 L232 511 Q276 511 303 528.5 Q330 546 330 579 Q330 599 316.5 611.5 Q303 624 280 624 Q224 624 204 566 L123 566 Q136 623 179 656 Q222 689 287 689 Q349 689 381.5 660.5 Q414 632 414 584 Q414 544 390 515.5 Q366 487 327 474 Z M289 0 L195 0 L740 680 L835 680 L289 0 Z M893 84 L846 84 L826 0 L744 0 L764 84 L550 84 L558 118 Q566 150 579 171 Q615 225 674 293.5 Q733 362 786 414 L890 414 Q832 357 770.5 288 Q709 219 666 157 L781 157 L804 257 L886 257 L863 157 L910 157 L893 84 Z " />
<glyph glyph-name="asterisk" unicode="&#x2a;" horiz-adv-x="361" d="M293 553 Q345 530 396 512 Q391 498 380 477.5 Q369 457 359 447 Q319 482 272 516 Q277 467 288 406 Q270 402 250 402 Q232 402 212 406 Q223 463 228 516 Q178 480 141 447 Q131 458 119 478 Q107 498 103 512 Q160 531 208 553 Q154 578 103 594 Q107 608 119 628 Q131 648 141 659 Q180 625 228 590 Q223 645 212 700 Q225 704 250 704 Q276 704 288 700 Q277 645 272 590 Q329 633 359 659 Q369 648 380.5 628 Q392 608 396 594 Q341 576 293 553 Z " />
<glyph glyph-name="backslash" unicode="&#x5c;" horiz-adv-x="429" d="M226 700 L344 -20 L241 -20 L122 700 L226 700 Z " />
<glyph glyph-name="middot" unicode="&#xb7;" horiz-adv-x="280" d="M99 335 Q99 365 120.5 385.5 Q142 406 172 406 Q202 406 223 385.5 Q244 365 244 335 Q244 305 223 283.5 Q202 262 172 262 Q142 262 120.5 283 Q99 304 99 335 Z " />
<glyph glyph-name="bullet" unicode="&#x2022;" horiz-adv-x="380" d="M78 327 Q78 382 115.5 419.5 Q153 457 208 457 Q263 457 300.5 419.5 Q338 382 338 327 Q338 272 300.5 234.5 Q263 197 208 197 Q153 197 115.5 234.5 Q78 272 78 327 Z " />
<glyph glyph-name="colon" unicode="&#x3a;" horiz-adv-x="243" d="M14 65 Q14 95 35.5 115.5 Q57 136 87 136 Q117 136 138 115.5 Q159 95 159 65 Q159 35 138 13.5 Q117 -8 87 -8 Q57 -8 35.5 13 Q14 34 14 65 Z M89 426 Q89 456 110.5 476.5 Q132 497 162 497 Q192 497 213 476.5 Q234 456 234 426 Q234 396 213 374.5 Q192 353 162 353 Q132 353 110.5 374 Q89 395 89 426 Z " />
<glyph glyph-name="comma" unicode="&#x2c;" horiz-adv-x="213" d="M138 81 Q123 19 90 -27.5 Q57 -74 17 -114 L-48 -114 Q-5 -19 17 74 L27 118 L147 118 L138 81 Z " />
<glyph glyph-name="ellipsis" unicode="&#x2026;" horiz-adv-x="633" d="M416 65 Q416 95 437.5 115.5 Q459 136 489 136 Q519 136 540 115.5 Q561 95 561 65 Q561 35 540 13.5 Q519 -8 489 -8 Q459 -8 437.5 13 Q416 34 416 65 Z M206 65 Q206 95 227.5 115.5 Q249 136 279 136 Q309 136 330 115.5 Q351 95 351 65 Q351 35 330 13.5 Q309 -8 279 -8 Q249 -8 227.5 13 Q206 34 206 65 Z M-4 65 Q-4 95 17.5 115.5 Q39 136 69 136 Q99 136 120 115.5 Q141 95 141 65 Q141 35 120 13.5 Q99 -8 69 -8 Q39 -8 17.5 13 Q-4 34 -4 65 Z " />
<glyph glyph-name="exclam" unicode="&#x21;" horiz-adv-x="305" d="M185 209 L102 209 Q114 300 137 430.5 Q160 561 185 680 L320 680 Q291 562 253.5 431 Q216 300 185 209 Z M45 65 Q45 95 66.5 115.5 Q88 136 118 136 Q148 136 169.5 115.5 Q191 95 191 65 Q191 34 169.5 13 Q148 -8 118 -8 Q88 -8 66.5 13 Q45 34 45 65 Z " />
<glyph glyph-name="exclamdown" unicode="&#xa1;" horiz-adv-x="305" d="M266 425 Q266 394 245 373.5 Q224 353 194 353 Q164 353 142.5 374 Q121 395 121 425 Q121 455 142.5 476 Q164 497 194 497 Q224 497 245 476 Q266 455 266 425 Z M126 280 L210 280 Q198 189 175 58.5 Q152 -72 127 -191 L-8 -191 Q19 -79 56.5 52 Q94 183 126 280 Z " />
<glyph glyph-name="numbersign" unicode="&#x23;" horiz-adv-x="560" d="M474 413 L421 269 L499 269 L481 191 L392 191 L321 0 L238 0 L309 191 L184 191 L113 0 L28 0 L99 191 L19 191 L37 269 L128 269 L181 413 L102 413 L120 492 L210 492 L280 680 L364 680 L295 492 L420 492 L490 680 L573 680 L503 492 L583 492 L565 413 L474 413 Z M391 413 L265 413 L212 269 L338 269 L391 413 Z " />
<glyph glyph-name="period" unicode="&#x2e;" horiz-adv-x="213" d="M-4 65 Q-4 95 17.5 115.5 Q39 136 69 136 Q99 136 120 115.5 Q141 95 141 65 Q141 35 120 13.5 Q99 -8 69 -8 Q39 -8 17.5 13 Q-4 34 -4 65 Z " />
<glyph glyph-name="question" unicode="&#x3f;" horiz-adv-x="416" d="M157 235 Q234 321 284.5 393 Q335 465 335 521 Q335 552 319.5 570 Q304 588 275 588 Q237 588 211 562.5 Q185 537 172 493 L68 493 L71 506 Q90 587 144.5 639 Q199 691 288 691 Q366 691 410 649.5 Q454 608 454 545 Q454 461 389.5 370.5 Q325 280 247 206 L132 206 L157 235 Z M83 65 Q83 95 104 115.5 Q125 136 155 136 Q185 136 206.5 115.5 Q228 95 228 65 Q228 34 206.5 13 Q185 -8 155 -8 Q126 -8 104.5 13.5 Q83 35 83 65 Z " />
<glyph glyph-name="questiondown" unicode="&#xbf;" horiz-adv-x="386" d="M324 425 Q324 395 303 374.5 Q282 354 252 354 Q222 354 200.5 374.5 Q179 395 179 425 Q179 456 200.5 477 Q222 498 252 498 Q282 498 303 477 Q324 456 324 425 Z M250 255 Q173 169 122.5 97 Q72 25 72 -31 Q72 -62 87.5 -80 Q103 -98 132 -98 Q170 -98 196 -72.5 Q222 -47 235 -3 L339 -3 L336 -16 Q317 -97 262.5 -149 Q208 -201 119 -201 Q41 -201 -3 -159.5 Q-47 -118 -47 -55 Q-47 29 17.5 119.5 Q82 210 160 284 L275 284 L250 255 Z " />
<glyph glyph-name="quotedbl" unicode="&#x22;" horiz-adv-x="334" d="M231 680 Q215 610 195.5 548 Q176 486 159 448 L98 448 Q100 488 108.5 549.5 Q117 611 133 680 L231 680 Z M399 680 Q383 610 363.5 548 Q344 486 327 448 L266 448 Q268 488 276.5 549.5 Q285 611 301 680 L399 680 Z " />
<glyph glyph-name="quotesingle" unicode="&#x27;" horiz-adv-x="166" d="M231 680 Q215 610 195.5 548 Q176 486 159 448 L98 448 Q100 488 108.5 549.5 Q117 611 133 680 L231 680 Z " />
<glyph glyph-name="semicolon" unicode="&#x3b;" horiz-adv-x="244" d="M153 81 Q138 19 105 -27.5 Q72 -74 32 -114 L-33 -114 Q10 -19 32 74 L42 118 L162 118 L153 81 Z M88 426 Q88 456 109.5 476.5 Q131 497 161 497 Q191 497 212 476.5 Q233 456 233 426 Q233 396 212 374.5 Q191 353 161 353 Q131 353 109.5 374 Q88 395 88 426 Z " />
<glyph glyph-name="slash" unicode="&#x2f;" horiz-adv-x="429" d="M65 -20 L-49 -20 L401 700 L516 700 L65 -20 Z " />
<glyph glyph-name="underscore" unicode="&#x5f;" horiz-adv-x="502" d="M424 -89 L424 -171 L-88 -171 L-88 -89 L424 -89 Z " />
<glyph glyph-name="braceleft" unicode="&#x7b;" horiz-adv-x="365" d="M409 609 L373 609 Q339 609 319.5 598 Q300 587 293 556 L254 385 Q242 333 211.5 304.5 Q181 276 132 266 L132 264 Q203 248 203 184 Q203 168 198 145 L158 -30 Q155 -41 155 -48 Q155 -67 169.5 -73.5 Q184 -80 214 -80 L249 -80 L233 -151 L175 -151 Q113 -151 83 -133.5 Q53 -116 53 -67 Q53 -41 60 -12 L93 128 Q98 151 98 165 Q98 195 81.5 207.5 Q65 220 33 220 L53 310 Q94 310 119.5 331.5 Q145 353 157 404 L188 541 Q201 598 225 628 Q249 658 283 669 Q317 680 367 680 L425 680 L409 609 Z " />
<glyph glyph-name="braceright" unicode="&#x7d;" horiz-adv-x="359" d="M191 680 Q252 680 282 662.5 Q312 645 312 597 Q312 572 305 541 L274 404 Q269 385 269 365 Q269 336 285 323 Q301 310 333 310 L313 220 Q271 220 246.5 199.5 Q222 179 210 128 L177 -12 Q164 -69 140 -99 Q116 -129 82.5 -140 Q49 -151 -1 -151 L-60 -151 L-43 -80 L-8 -80 Q27 -80 46 -70 Q65 -60 72 -30 L112 145 Q125 197 155 226 Q185 255 234 264 L234 266 Q163 281 163 345 Q163 366 168 385 L207 556 Q209 570 209 574 Q209 594 194.5 601.5 Q180 609 151 609 L116 609 L132 680 L191 680 Z " />
<glyph glyph-name="bracketleft" unicode="&#x5b;" horiz-adv-x="333" d="M376 609 L260 609 L101 -80 L217 -80 L201 -151 L-17 -151 L175 680 L393 680 L376 609 Z " />
<glyph glyph-name="bracketright" unicode="&#x5d;" horiz-adv-x="333" d="M350 680 L158 -151 L-60 -151 L-43 -80 L73 -80 L232 609 L116 609 L132 680 L350 680 Z " />
<glyph glyph-name="parenleft" unicode="&#x28;" horiz-adv-x="368" d="M443 680 Q306 561 232 435 Q158 309 158 158 Q158 72 185 -7 Q212 -86 253 -146 L148 -146 Q110 -97 79 -17 Q48 63 48 154 Q48 310 122 446 Q196 582 327 680 L443 680 Z " />
<glyph glyph-name="parenright" unicode="&#x29;" horiz-adv-x="368" d="M211 376 Q211 462 184 541 Q157 620 116 680 L220 680 Q259 632 290 551.5 Q321 471 321 380 Q321 224 246.5 88 Q172 -48 41 -146 L-74 -146 Q63 -26 137 99.5 Q211 225 211 376 Z " />
<glyph glyph-name="emdash" unicode="&#x2014;" horiz-adv-x="804" d="M785 342 L763 246 L41 246 L64 342 L785 342 Z " />
<glyph glyph-name="endash" unicode="&#x2013;" horiz-adv-x="586" d="M568 342 L545 246 L42 246 L64 342 L568 342 Z " />
<glyph glyph-name="hyphen" unicode="&#x2d;" horiz-adv-x="362" d="M343 344 L320 244 L41 244 L64 344 L343 344 Z " />
<glyph glyph-name="guillemotleft" unicode="&#xab;" horiz-adv-x="618" d="M387 232 L510 48 L401 48 L274 241 L489 435 L606 435 L387 232 Z M162 232 L285 48 L176 48 L49 241 L264 435 L381 435 L162 232 Z " />
<glyph glyph-name="guillemotright" unicode="&#xbb;" horiz-adv-x="618" d="M565 242 L350 48 L233 48 L452 251 L329 435 L438 435 L565 242 Z M340 242 L125 48 L8 48 L227 251 L104 435 L213 435 L340 242 Z " />
<glyph glyph-name="guilsinglleft" unicode="&#x2039;" horiz-adv-x="393" d="M162 232 L285 48 L176 48 L49 241 L264 435 L381 435 L162 232 Z " />
<glyph glyph-name="guilsinglright" unicode="&#x203a;" horiz-adv-x="393" d="M340 242 L125 48 L8 48 L227 251 L104 435 L213 435 L340 242 Z " />
<glyph glyph-name="quotedblbase" unicode="&#x201e;" horiz-adv-x="369" d="M133 81 Q109 -16 19 -104 L-38 -104 Q-3 -26 21 75 L32 118 L142 118 L133 81 Z M306 81 Q282 -16 192 -104 L135 -104 Q170 -26 194 75 L205 118 L315 118 L306 81 Z " />
<glyph glyph-name="quotedblleft" unicode="&#x201c;" horiz-adv-x="369" d="M263 495 Q277 554 308.5 598.5 Q340 643 377 680 L435 680 Q398 597 375 501 L365 458 L254 458 L263 495 Z M90 495 Q104 554 135.5 598.5 Q167 643 204 680 L262 680 Q225 597 202 501 L192 458 L81 458 L90 495 Z " />
<glyph glyph-name="quotedblright" unicode="&#x201d;" horiz-adv-x="369" d="M427 643 Q403 546 313 458 L256 458 Q291 536 315 637 L326 680 L436 680 L427 643 Z M254 643 Q230 546 140 458 L83 458 Q118 536 142 637 L153 680 L263 680 L254 643 Z " />
<glyph glyph-name="quoteleft" unicode="&#x2018;" horiz-adv-x="196" d="M90 495 Q104 554 135.5 598.5 Q167 643 204 680 L262 680 Q225 597 202 501 L192 458 L81 458 L90 495 Z " />
<glyph glyph-name="quoteright" unicode="&#x2019;" horiz-adv-x="196" d="M254 643 Q230 546 140 458 L83 458 Q118 536 142 637 L153 680 L263 680 L254 643 Z " />
<glyph glyph-name="quotesinglbase" unicode="&#x201a;" horiz-adv-x="196" d="M128 81 Q104 -16 14 -104 L-43 -104 Q-8 -26 16 75 L27 118 L137 118 L128 81 Z " />
<glyph glyph-name="uni00A0" unicode="&#xa0;" horiz-adv-x="600" d="" />
<glyph glyph-name="cent" unicode="&#xa2;" horiz-adv-x="560" d="M180 233 Q173 202 173 180 Q173 138 193 112.5 Q213 87 257 87 Q336 87 371 176 L480 176 Q455 93 401.5 46 Q348 -1 272 -8 L255 -80 L173 -80 L191 -2 Q132 12 98 58.5 Q64 105 64 173 Q64 210 72 242 L77 264 Q127 484 307 498 L324 570 L406 570 L388 493 Q449 478 482 433.5 Q515 389 510 327 L404 327 Q403 362 381.5 382.5 Q360 403 321 403 Q219 403 185 257 L180 233 Z " />
<glyph glyph-name="currency" unicode="&#xa4;" horiz-adv-x="560" d="M478 475 L433 431 Q463 390 463 332 Q463 274 433 233 L478 188 L434 145 L389 191 Q348 166 293 166 Q237 166 193 193 L147 145 L104 189 L150 234 Q122 274 122 332 Q122 390 151 430 L103 476 L147 519 L193 472 Q240 498 293 498 Q348 498 389 473 L434 519 L478 475 Z M200 332 Q200 286 225.5 260 Q251 234 293 234 Q335 234 360 260 Q385 286 385 332 Q385 378 360 404 Q335 430 293 430 Q251 430 225.5 404 Q200 378 200 332 Z " />
<glyph glyph-name="dollar" unicode="&#x24;" horiz-adv-x="560" d="M227 499 Q227 468 249 446.5 Q271 425 319 402 L369 378 Q428 350 463 308 Q498 266 498 212 Q498 148 467 97.5 Q436 47 381.5 18.5 Q327 -10 259 -10 L242 -80 L159 -80 L178 -2 Q107 15 68.5 61.5 Q30 108 30 182 Q30 198 31 207 L138 207 Q134 149 167.5 117.5 Q201 86 263 86 Q317 86 351.5 117 Q386 148 386 196 Q386 226 364.5 247 Q343 268 302 289 L254 313 Q183 348 149 388 Q115 428 115 483 Q115 542 144 589 Q173 636 223.5 662.5 Q274 689 337 690 L355 766 L438 766 L418 680 Q484 662 519.5 614 Q555 566 551 499 L440 499 Q440 543 410 568 Q380 593 331 593 Q284 593 255.5 565.5 Q227 538 227 499 Z " />
<glyph glyph-name="Euro" unicode="&#x20ac;" horiz-adv-x="560" d="M245 444 L417 444 L402 377 L226 377 L225 373 L215 329 L211 311 L386 311 L371 243 L201 243 Q200 232 200 211 Q200 90 298 90 Q371 90 412 177 L524 177 Q491 86 430 38.5 Q369 -9 287 -9 Q185 -9 136 48.5 Q87 106 87 206 Q87 217 89 243 L21 243 L36 311 L99 311 Q100 321 104 336 L113 377 L51 377 L67 444 L131 444 Q171 570 243 630 Q315 690 401 690 Q495 690 545.5 640 Q596 590 593 498 L484 498 Q481 590 395 590 Q296 590 245 444 Z " />
<glyph glyph-name="sterling" unicode="&#xa3;" horiz-adv-x="560" d="M258 476 Q255 440 255 367 L428 367 L409 283 L249 283 Q248 270 242 242 Q233 203 206.5 165.5 Q180 128 141 100 L469 100 L445 0 L-9 0 L10 84 Q65 121 93.5 158.5 Q122 196 135 249 Q140 267 141 283 L71 283 L90 367 L145 367 Q143 411 143 434 Q143 460 146 485 Q156 575 212 632.5 Q268 690 368 690 Q464 690 515 636 Q566 582 565 493 L458 493 Q456 536 432 563.5 Q408 591 365 591 Q317 591 290 560.5 Q263 530 258 476 Z " />
<glyph glyph-name="yen" unicode="&#xa5;" horiz-adv-x="560" d="M443 405 L534 405 L518 338 L389 338 Q359 302 343 284 L341 272 L504 272 L488 205 L325 205 L278 0 L164 0 L211 205 L48 205 L63 272 L227 272 L229 284 Q217 320 210 338 L78 338 L94 405 L188 405 Q138 558 116 680 L227 680 Q253 538 304 387 Q415 525 512 680 L636 680 Q552 543 443 405 Z " />
<glyph glyph-name="plus" unicode="&#x2b;" horiz-adv-x="570" d="M521 278 L352 278 L352 108 L258 108 L258 278 L89 278 L89 370 L258 370 L258 540 L352 540 L352 370 L521 370 L521 278 Z " />
<glyph glyph-name="minus" unicode="&#x2212;" horiz-adv-x="570" d="M519 370 L519 278 L87 278 L87 370 L519 370 Z " />
<glyph glyph-name="multiply" unicode="&#xd7;" horiz-adv-x="570" d="M370 324 L521 174 L455 108 L305 259 L154 108 L88 174 L239 324 L88 475 L154 540 L305 390 L455 540 L521 475 L370 324 Z " />
<glyph glyph-name="divide" unicode="&#xf7;" horiz-adv-x="570" d="M525 370 L525 278 L93 278 L93 370 L525 370 Z M236 141 Q236 171 257.5 191.5 Q279 212 309 212 Q339 212 360 191.5 Q381 171 381 141 Q381 111 360 89.5 Q339 68 309 68 Q279 68 257.5 89 Q236 110 236 141 Z M236 503 Q236 533 257.5 553.5 Q279 574 309 574 Q339 574 360 553.5 Q381 533 381 503 Q381 473 360 451.5 Q339 430 309 430 Q279 430 257.5 451 Q236 472 236 503 Z " />
<glyph glyph-name="equal" unicode="&#x3d;" horiz-adv-x="570" d="M519 282 L519 190 L87 190 L87 282 L519 282 Z M519 458 L519 366 L87 366 L87 458 L519 458 Z " />
<glyph glyph-name="notequal" unicode="&#x2260;" horiz-adv-x="570" d="M346 368 L309 280 L501 280 L501 188 L271 188 L236 103 L149 103 L184 188 L69 188 L69 280 L222 280 L258 368 L69 368 L69 460 L296 460 L333 549 L421 549 L384 460 L501 460 L501 368 L346 368 Z " />
<glyph glyph-name="greater" unicode="&#x3e;" horiz-adv-x="570" d="M521 388 L521 290 L89 149 L89 248 L399 337 L89 426 L89 525 L521 388 Z " />
<glyph glyph-name="less" unicode="&#x3c;" horiz-adv-x="570" d="M511 426 L201 337 L511 248 L511 149 L79 290 L79 388 L511 525 L511 426 Z " />
<glyph glyph-name="greaterequal" unicode="&#x2265;" horiz-adv-x="570" d="M502 388 L502 290 L70 149 L70 248 L380 337 L70 426 L70 525 L502 388 Z M502 28 L70 28 L70 120 L502 120 L502 28 Z " />
<glyph glyph-name="lessequal" unicode="&#x2264;" horiz-adv-x="570" d="M515 120 L515 28 L83 28 L83 120 L515 120 Z M515 426 L205 337 L515 248 L515 149 L83 290 L83 388 L515 525 L515 426 Z " />
<glyph glyph-name="plusminus" unicode="&#xb1;" horiz-adv-x="570" d="M514 438 L514 346 L345 346 L345 176 L251 176 L251 346 L82 346 L82 438 L251 438 L251 608 L345 608 L345 438 L514 438 Z M81 110 L513 110 L513 18 L81 18 L81 110 Z " />
<glyph glyph-name="approxequal" unicode="&#x2248;" horiz-adv-x="570" d="M296 370 Q266 380 244.5 385.5 Q223 391 203 391 Q180 391 159 381.5 Q138 372 122 355 L83 415 Q107 450 136.5 463.5 Q166 477 200 477 Q223 477 246 471.5 Q269 466 303 455 Q364 434 397 434 Q442 434 476 470 L515 410 Q470 348 398 348 Q375 348 351.5 353.5 Q328 359 296 370 Z M296 192 Q266 202 244.5 207.5 Q223 213 203 213 Q180 213 159 203.5 Q138 194 122 177 L83 237 Q127 300 200 300 Q223 300 244 294.5 Q265 289 303 277 Q364 256 397 256 Q442 256 476 292 L515 232 Q470 170 398 170 Q375 170 351.5 175.5 Q328 181 296 192 Z " />
<glyph glyph-name="asciitilde" unicode="&#x7e;" horiz-adv-x="570" d="M322 377 Q346 363 360.5 356.5 Q375 350 389 350 Q416 350 428.5 367.5 Q441 385 441 413 L518 413 Q518 348 487.5 304.5 Q457 261 394 261 Q370 261 349.5 269.5 Q329 278 302 294 Q276 309 257 317 Q238 325 216 325 Q190 325 176 307 Q162 289 162 262 L85 262 Q85 298 98.5 333 Q112 368 141 391 Q170 414 215 414 Q243 414 266.5 404.5 Q290 395 322 377 Z " />
<glyph glyph-name="logicalnot" unicode="&#xac;" horiz-adv-x="570" d="M501 127 L405 127 L405 278 L69 278 L69 370 L501 370 L501 127 Z " />
<glyph glyph-name="percent" unicode="&#x25;" horiz-adv-x="830" d="M91 480 Q91 536 115 584 Q139 632 182.5 661 Q226 690 281 690 Q340 690 382 653.5 Q424 617 424 552 Q424 497 399.5 449 Q375 401 331.5 372 Q288 343 234 343 Q174 343 132.5 379 Q91 415 91 480 Z M210 0 L116 0 L665 680 L759 680 L210 0 Z M338 544 Q338 577 320 595.5 Q302 614 272 614 Q243 614 221 595 Q199 576 187.5 547 Q176 518 176 488 Q176 455 194 437 Q212 419 244 419 Q287 419 312.5 458 Q338 497 338 544 Z M452 128 Q452 184 476 232 Q500 280 543.5 308.5 Q587 337 642 337 Q702 337 743.5 301 Q785 265 785 200 Q785 145 761 97 Q737 49 693.5 20 Q650 -9 595 -9 Q535 -9 493.5 26.5 Q452 62 452 128 Z M699 192 Q699 225 681 243 Q663 261 633 261 Q590 261 564 222 Q538 183 538 136 Q538 103 555.5 85 Q573 67 605 67 Q648 67 673.5 106 Q699 145 699 192 Z " />
<glyph glyph-name="perthousand" unicode="&#x2030;" horiz-adv-x="1197" d="M91 480 Q91 536 115 584 Q139 632 182.5 661 Q226 690 281 690 Q340 690 382 653.5 Q424 617 424 552 Q424 497 399.5 449 Q375 401 331.5 372 Q288 343 234 343 Q174 343 132.5 379 Q91 415 91 480 Z M210 0 L116 0 L665 680 L759 680 L210 0 Z M338 544 Q338 577 320 595.5 Q302 614 272 614 Q243 614 221 595 Q199 576 187.5 547 Q176 518 176 488 Q176 455 194 437 Q212 419 244 419 Q287 419 312.5 458 Q338 497 338 544 Z M452 128 Q452 184 476 232 Q500 280 543.5 308.5 Q587 337 642 337 Q702 337 743.5 301 Q785 265 785 200 Q785 145 761 97 Q737 49 693.5 20 Q650 -9 595 -9 Q535 -9 493.5 26.5 Q452 62 452 128 Z M820 128 Q820 184 844 232 Q868 280 911.5 308.5 Q955 337 1010 337 Q1069 337 1111 301 Q1153 265 1153 200 Q1153 145 1128.5 97 Q1104 49 1060.5 20 Q1017 -9 963 -9 Q903 -9 861.5 26.5 Q820 62 820 128 Z M699 192 Q699 225 681 243 Q663 261 633 261 Q590 261 564 222 Q538 183 538 136 Q538 103 555.5 85 Q573 67 605 67 Q648 67 673.5 106 Q699 145 699 192 Z M1067 192 Q1067 225 1049 243 Q1031 261 1001 261 Q972 261 950 242.5 Q928 224 916.5 195 Q905 166 905 136 Q905 103 923 85 Q941 67 973 67 Q1016 67 1041.5 106 Q1067 145 1067 192 Z " />
<glyph glyph-name="at" unicode="&#x40;" horiz-adv-x="863" d="M828 332 Q828 258 804 192 Q780 126 733 85 Q686 44 620 44 Q574 44 544 64.5 Q514 85 506 121 Q488 85 452.5 65.5 Q417 46 378 46 Q315 46 276 87.5 Q237 129 237 202 Q237 264 263.5 323 Q290 382 336.5 419 Q383 456 439 456 Q484 456 512 436.5 Q540 417 546 383 L560 445 L646 445 L587 197 Q582 175 582 162 Q582 113 629 113 Q665 113 690.5 145 Q716 177 729.5 226.5 Q743 276 743 328 Q743 443 671.5 506 Q600 569 477 569 Q379 569 300.5 516.5 Q222 464 177.5 377.5 Q133 291 133 192 Q133 72 207 4 Q281 -64 405 -64 Q495 -64 554 -34 L580 -101 Q506 -142 397 -142 Q293 -142 213 -101.5 Q133 -61 89 14 Q45 89 45 190 Q45 312 102 417 Q159 522 259 584.5 Q359 647 482 647 Q581 647 660 608.5 Q739 570 783.5 498.5 Q828 427 828 332 Z M516 295 Q516 334 497.5 355 Q479 376 446 376 Q411 376 384.5 350 Q358 324 344 285 Q330 246 330 207 Q330 167 349.5 145 Q369 123 402 123 Q437 123 462.5 149 Q488 175 502 215 Q516 255 516 295 Z " />
<glyph glyph-name="ampersand" unicode="&#x26;" horiz-adv-x="593" d="M453 94 Q497 29 524 0 L395 0 Q387 8 373 27 Q309 -9 227 -9 Q159 -9 111.5 16 Q64 41 40.5 82 Q17 123 17 170 Q17 249 59 310.5 Q101 372 178 415 Q170 453 170 482 Q170 572 217.5 631.5 Q265 691 351 691 Q420 691 460 656.5 Q500 622 500 558 Q500 540 497 520 L398 520 Q399 526 399 538 Q399 564 385 579.5 Q371 595 345 595 Q311 595 294 567 Q277 539 277 497 Q277 439 312 354 Q347 269 400 178 Q431 229 449 311 L552 311 Q521 176 453 94 Z M322 102 Q245 225 203 333 Q128 276 128 192 Q128 146 159.5 116 Q191 86 248 86 Q290 86 322 102 Z " />
<glyph glyph-name="paragraph" unicode="&#xb6;" horiz-adv-x="606" d="M546 -170 L479 -170 L479 614 L377 614 L377 -170 L311 -170 L311 274 L269 274 Q213 274 167.5 298.5 Q122 323 95.5 366.5 Q69 410 69 465 L69 490 Q69 545 95.5 588.5 Q122 632 167.5 656 Q213 680 269 680 L546 680 L546 -170 Z " />
<glyph glyph-name="section" unicode="&#xa7;" horiz-adv-x="526" d="M414 116 Q456 76 456 14 Q456 -27 435.5 -61 Q415 -95 376.5 -115 Q338 -135 286 -135 Q200 -135 153 -95 Q106 -55 103 3 L102 21 L200 21 Q202 -14 223.5 -35 Q245 -56 286 -56 Q321 -56 342 -38 Q363 -20 363 8 Q363 40 340.5 58 Q318 76 269 98 L236 113 L216 122 Q158 150 127.5 169.5 Q97 189 76.5 220 Q56 251 56 298 Q56 346 80 382 Q104 418 147 439 Q104 480 104 542 Q104 583 124.5 617 Q145 651 183.5 671 Q222 691 275 691 Q332 691 373 671.5 Q414 652 435 620.5 Q456 589 458 552 L459 534 L360 534 Q358 569 336.5 590 Q315 611 274 611 Q239 611 218.5 593 Q198 575 198 547 Q198 515 220.5 497.5 Q243 480 292 458 L324 443 L343 434 Q401 406 432.5 386 Q464 366 484.5 335 Q505 304 505 258 Q505 210 481 174 Q457 138 414 116 Z M346 161 Q373 173 390.5 196 Q408 219 408 247 Q408 278 390.5 299.5 Q373 321 347.5 334.5 Q322 348 281 365 L254 376 Q231 386 214 395 Q187 382 170 359 Q153 336 153 309 Q153 265 185 240.5 Q217 216 278 192 L306 180 Q320 174 346 161 Z " />
<glyph glyph-name="copyright" unicode="&#xa9;" horiz-adv-x="805" d="M70 340 Q70 441 114.5 521 Q159 601 240 646 Q321 691 424 691 Q527 691 607.5 646 Q688 601 732.5 521 Q777 441 777 340 Q777 239 732.5 159 Q688 79 607.5 34 Q527 -11 424 -11 Q321 -11 240 34 Q159 79 114.5 159 Q70 239 70 340 Z M706 340 Q706 425 670.5 491 Q635 557 571 593.5 Q507 630 424 630 Q341 630 277 593.5 Q213 557 177.5 491 Q142 425 142 340 Q142 255 177.5 189 Q213 123 277 86.5 Q341 50 424 50 Q507 50 571 86.5 Q635 123 670.5 189 Q706 255 706 340 Z M249 324 L249 356 Q249 414 273 456.5 Q297 499 336.5 520.5 Q376 542 424 542 Q469 542 506 525 Q543 508 564.5 479 Q586 450 589 417 L590 404 L511 404 Q507 436 484.5 455 Q462 474 426 474 Q378 474 353 440 Q328 406 328 351 L328 330 Q328 274 353 240.5 Q378 207 426 207 Q464 207 485.5 226.5 Q507 246 511 282 L590 282 L589 269 Q585 215 540.5 177 Q496 139 423 139 Q376 139 336 161.5 Q296 184 272.5 226 Q249 268 249 324 Z " />
<glyph glyph-name="registered" unicode="&#xae;" horiz-adv-x="470" d="M505 558 Q505 501 479.5 455 Q454 409 408 383 Q362 357 304 357 Q246 357 200.5 383 Q155 409 129.5 455 Q104 501 104 558 Q104 615 129.5 661 Q155 707 200.5 733 Q246 759 304 759 Q362 759 408 733 Q454 707 479.5 661 Q505 615 505 558 Z M461 558 Q461 628 418 674 Q375 720 304 720 Q233 720 190.5 674 Q148 628 148 558 Q148 488 190.5 442 Q233 396 304 396 Q375 396 418 442 Q461 488 461 558 Z M344 543 Q377 494 394 454 L348 454 Q324 504 302 539 L274 539 L274 454 L232 454 L232 671 L315 671 Q346 671 367.5 654 Q389 637 389 604 Q389 579 377.5 565 Q366 551 344 543 Z M275 573 L308 573 Q328 573 337.5 580.5 Q347 588 347 604 Q347 636 308 636 L275 636 L275 573 Z " />
<glyph glyph-name="trademark" unicode="&#x2122;" horiz-adv-x="737" d="M368 614 L278 614 L225 384 L151 384 L204 614 L114 614 L129 680 L383 680 L368 614 Z M785 680 L717 384 L649 384 L698 595 Q653 528 578 440 Q570 430 559 430 L544 430 Q538 430 535 433 Q532 436 529 442 Q496 510 479 591 L431 384 L363 384 L431 680 L516 680 Q523 643 537 596 Q551 549 564 513 Q618 578 683 680 L785 680 Z " />
<glyph glyph-name="degree" unicode="&#xb0;" horiz-adv-x="336" d="M105 560 Q105 617 143 654.5 Q181 692 239 692 Q296 692 334.5 654.5 Q373 617 373 560 Q373 503 334.5 465.5 Q296 428 239 428 Q181 428 143 465.5 Q105 503 105 560 Z M307 560 Q307 591 288 610 Q269 629 239 629 Q208 629 189 610 Q170 591 170 560 Q170 529 189 510 Q208 491 239 491 Q269 491 288 510 Q307 529 307 560 Z " />
<glyph glyph-name="bar" unicode="&#x7c;" horiz-adv-x="336" d="M237 -79 L139 -79 L139 736 L237 736 L237 -79 Z " />
<glyph glyph-name="brokenbar" unicode="&#xa6;" horiz-adv-x="336" d="M135 736 L233 736 L233 402 L135 402 L135 736 Z M233 -79 L135 -79 L135 255 L233 255 L233 -79 Z " />
<glyph glyph-name="dagger" unicode="&#x2020;" horiz-adv-x="466" d="M450 397 L315 397 L315 -95 L209 -95 L209 397 L76 397 L76 490 L209 490 L209 680 L315 680 L315 490 L450 490 L450 397 Z " />
<glyph glyph-name="daggerdbl" unicode="&#x2021;" horiz-adv-x="466" d="M292 397 L292 236 L431 236 L431 143 L292 143 L292 -95 L194 -95 L194 143 L57 143 L57 236 L194 236 L194 397 L57 397 L57 490 L194 490 L194 680 L292 680 L292 490 L431 490 L431 397 L292 397 Z " />
<glyph glyph-name="asciicircum" unicode="&#x5e;" horiz-adv-x="570" d="M419 264 L285 560 L149 264 L43 264 L234 680 L336 680 L528 264 L419 264 Z " />
<glyph glyph-name="uni0308" unicode="&#x308;" d="M-252 627 Q-252 654 -233.5 671.5 Q-215 689 -188 689 Q-161 689 -142.5 671.5 Q-124 654 -124 627 Q-124 600 -142.5 582 Q-161 564 -188 564 Q-215 564 -233.5 582 Q-252 600 -252 627 Z M-67 627 Q-67 654 -48.5 671.5 Q-30 689 -3 689 Q25 689 43.5 671.5 Q62 654 62 627 Q62 600 43.5 582 Q25 564 -3 564 Q-30 564 -48.5 582 Q-67 600 -67 627 Z " />
<glyph glyph-name="uni0307" unicode="&#x307;" d="M-78 627 Q-78 655 -59 673 Q-40 691 -12 691 Q16 691 35 673 Q54 655 54 627 Q54 600 34.5 582 Q15 564 -12 564 Q-40 564 -59 582 Q-78 600 -78 627 Z " />
<glyph glyph-name="gravecomb" unicode="&#x300;" d="M-2 682 Q23 631 37 560 L-51 560 Q-62 586 -81 620.5 Q-100 655 -118 682 L-2 682 Z " />
<glyph glyph-name="acutecomb" unicode="&#x301;" d="M-56 560 L-157 560 Q-116 625 -62 682 L63 682 Q5 627 -56 560 Z " />
<glyph glyph-name="uni030B" unicode="&#x30b;" d="M-196 560 L-279 560 Q-255 600 -195 680 L-90 680 Q-135 637 -196 560 Z M-18 591 Q-28 579 -47 560 L-130 560 Q-87 622 -35 680 L70 680 Q44 654 21.5 631 Q-1 608 -18 591 Z " />
<glyph glyph-name="uni0302" unicode="&#x302;" d="M-40 560 Q-55 598 -80 638 Q-125 596 -156 560 L-247 560 Q-228 589 -200.5 621.5 Q-173 654 -147 680 L-2 680 Q11 656 23 623 Q35 590 42 560 L-40 560 Z " />
<glyph glyph-name="uni030C" unicode="&#x30c;" d="M56 680 Q37 651 9.5 618.5 Q-18 586 -44 560 L-189 560 Q-203 585 -215 618 Q-227 651 -233 680 L-151 680 Q-136 640 -111 603 Q-73 637 -36 680 L56 680 Z " />
<glyph glyph-name="uni0306" unicode="&#x306;" d="M62 680 Q48 621 8 589 Q-32 557 -93 557 Q-148 557 -179.5 584 Q-211 611 -211 660 Q-211 673 -210 680 L-137 680 Q-140 656 -128.5 639 Q-117 622 -87 622 Q-31 622 -13 680 L62 680 L62 680 Z " />
<glyph glyph-name="uni030A" unicode="&#x30a;" d="M-161 639 Q-161 683 -131.5 710.5 Q-102 738 -54 738 Q-6 738 23.5 710.5 Q53 683 53 639 Q53 596 23 568 Q-7 540 -54 540 Q-102 540 -131.5 568 Q-161 596 -161 639 Z M-3 639 Q-3 661 -16.5 675.5 Q-30 690 -54 690 Q-78 690 -91.5 675.5 Q-105 661 -105 639 Q-105 617 -91.5 602.5 Q-78 588 -54 588 Q-30 588 -16.5 602.5 Q-3 617 -3 639 Z " />
<glyph glyph-name="tildecomb" unicode="&#x303;" d="M-47 560 Q-69 560 -85.5 567 Q-102 574 -122 587 Q-137 597 -148 601.5 Q-159 606 -170 606 Q-188 606 -199 594.5 Q-210 583 -217 560 L-274 560 Q-259 616 -229.5 646 Q-200 676 -161 676 Q-142 676 -127 669.5 Q-112 663 -93 651 Q-78 640 -67 635 Q-56 630 -43 630 Q-25 630 -13.5 643 Q-2 656 3 676 L60 676 Q45 619 18 589.5 Q-9 560 -47 560 Z " />
<glyph glyph-name="uni0304" unicode="&#x304;" d="M57 656 L38 575 L-214 575 L-195 656 L57 656 Z " />
<glyph glyph-name="uni0312" unicode="&#x312;" d="M20 567 L-78 567 Q-67 614 -45.5 648.5 Q-24 683 4 715 L70 715 Q37 640 20 567 Z " />
<glyph glyph-name="uni0326" unicode="&#x326;" d="M-199 -52 L-101 -52 Q-112 -99 -134 -134 Q-156 -169 -184 -200 L-249 -200 Q-216 -125 -199 -52 Z " />
<glyph glyph-name="uni0327" unicode="&#x327;" d="M-106 -106 Q-106 -150 -135.5 -174 Q-165 -198 -216 -198 Q-247 -198 -275 -188.5 Q-303 -179 -318 -164 L-283 -123 Q-273 -133 -255 -138.5 Q-237 -144 -217 -144 Q-195 -144 -182.5 -135.5 Q-170 -127 -170 -112 Q-170 -87 -212 -87 Q-228 -87 -246 -92 L-259 -69 L-204 9 L-144 9 L-180 -40 Q-148 -42 -127 -59.5 Q-106 -77 -106 -106 Z " />
<glyph glyph-name="uni0328" unicode="&#x328;" d="M-241 -108 Q-241 -61 -204.5 -29.5 Q-168 2 -111 18 L-79 0 Q-111 -12 -133 -34 Q-155 -56 -155 -78 Q-155 -91 -146 -98 Q-137 -105 -115 -105 L-107 -105 L-122 -174 Q-137 -177 -156 -177 Q-197 -177 -219 -157.5 Q-241 -138 -241 -108 Z " />
<glyph glyph-name="uni0335" unicode="&#x335;" d="M-34 273 L-34 196 L-334 196 L-334 273 L-34 273 Z " />
<glyph glyph-name="uni0336" unicode="&#x336;" d="M-34 274 L-34 194 L-489 194 L-489 274 L-34 274 Z " />
<glyph glyph-name="uni0337" unicode="&#x337;" d="M-279 311 L-279 403 L-45 546 L-45 453 L-279 311 Z " />
<glyph glyph-name="uni0338" unicode="&#x338;" d="M-380 -32 L-447 0 L-81 712 L-14 680 L-380 -32 Z " />
<glyph glyph-name="acute" unicode="&#xb4;" horiz-adv-x="254" d="M198 560 L97 560 Q138 625 192 682 L317 682 Q259 627 198 560 Z " />
<glyph glyph-name="breve" unicode="&#x2d8;" horiz-adv-x="339" d="M401 680 Q387 621 347 589 Q307 557 246 557 Q191 557 159.5 584 Q128 611 128 660 Q128 673 129 680 L202 680 Q199 656 210.5 639 Q222 622 252 622 Q308 622 326 680 L401 680 L401 680 Z " />
<glyph glyph-name="caron" unicode="&#x2c7;" horiz-adv-x="357" d="M413 680 Q394 651 366.5 618.5 Q339 586 313 560 L168 560 Q154 585 142 618 Q130 651 124 680 L206 680 Q221 640 246 603 Q284 637 321 680 L413 680 Z " />
<glyph glyph-name="cedilla" unicode="&#xb8;" horiz-adv-x="268" d="M162 -106 Q162 -150 132.5 -174 Q103 -198 52 -198 Q21 -198 -7 -188.5 Q-35 -179 -50 -164 L-15 -123 Q-5 -133 13 -138.5 Q31 -144 51 -144 Q73 -144 85.5 -135.5 Q98 -127 98 -112 Q98 -87 56 -87 Q40 -87 22 -92 L9 -69 L64 9 L124 9 L88 -40 Q120 -42 141 -59.5 Q162 -77 162 -106 Z " />
<glyph glyph-name="circumflex" unicode="&#x2c6;" horiz-adv-x="357" d="M317 560 Q302 598 277 638 Q232 596 201 560 L110 560 Q129 589 156.5 621.5 Q184 654 210 680 L355 680 Q368 656 380 623 Q392 590 399 560 L317 560 Z " />
<glyph glyph-name="dieresis" unicode="&#xa8;" horiz-adv-x="382" d="M130 627 Q130 654 148.5 671.5 Q167 689 194 689 Q221 689 239.5 671.5 Q258 654 258 627 Q258 600 239.5 582 Q221 564 194 564 Q167 564 148.5 582 Q130 600 130 627 Z M315 627 Q315 654 333.5 671.5 Q352 689 379 689 Q407 689 425.5 671.5 Q444 654 444 627 Q444 600 425.5 582 Q407 564 379 564 Q352 564 333.5 582 Q315 600 315 627 Z " />
<glyph glyph-name="dotaccent" unicode="&#x2d9;" horiz-adv-x="200" d="M122 627 Q122 655 141 673 Q160 691 188 691 Q216 691 235 673 Q254 655 254 627 Q254 600 234.5 582 Q215 564 188 564 Q160 564 141 582 Q122 600 122 627 Z " />
<glyph glyph-name="grave" unicode="&#x60;" horiz-adv-x="254" d="M252 682 Q277 631 291 560 L203 560 Q192 586 173 620.5 Q154 655 136 682 L252 682 Z " />
<glyph glyph-name="hungarumlaut" unicode="&#x2dd;" horiz-adv-x="389" d="M193 560 L110 560 Q134 600 194 680 L299 680 Q254 637 193 560 Z M371 591 Q361 579 342 560 L259 560 Q302 622 354 680 L459 680 Q433 654 410.5 631 Q388 608 371 591 Z " />
<glyph glyph-name="overscore" unicode="&#xaf;" horiz-adv-x="320" d="M377 656 L358 575 L106 575 L125 656 L377 656 Z " />
<glyph glyph-name="ogonek" unicode="&#x2db;" horiz-adv-x="207" d="M-34 -108 Q-34 -61 2.5 -29.5 Q39 2 96 18 L128 0 Q96 -12 74 -34 Q52 -56 52 -78 Q52 -91 61 -98 Q70 -105 92 -105 L100 -105 L85 -174 Q70 -177 51 -177 Q10 -177 -12 -157.5 Q-34 -138 -34 -108 Z " />
<glyph glyph-name="ring" unicode="&#x2da;" horiz-adv-x="282" d="M121 639 Q121 683 150.5 710.5 Q180 738 228 738 Q276 738 305.5 710.5 Q335 683 335 639 Q335 596 305 568 Q275 540 228 540 Q180 540 150.5 568 Q121 596 121 639 Z M279 639 Q279 661 265.5 675.5 Q252 690 228 690 Q204 690 190.5 675.5 Q177 661 177 639 Q177 617 190.5 602.5 Q204 588 228 588 Q252 588 265.5 602.5 Q279 617 279 639 Z " />
<glyph glyph-name="tilde" unicode="&#x2dc;" horiz-adv-x="374" d="M327 560 Q305 560 288.5 567 Q272 574 252 587 Q237 597 226 601.5 Q215 606 204 606 Q186 606 175 594.5 Q164 583 157 560 L100 560 Q115 616 144.5 646 Q174 676 213 676 Q232 676 247 669.5 Q262 663 281 651 Q296 640 307 635 Q318 630 331 630 Q349 630 360.5 643 Q372 656 377 676 L434 676 Q419 619 392 589.5 Q365 560 327 560 Z " />
</font>
</svg>
