<?xml version="1.0" encoding="UTF-8"?>
<svg xmlns="http://www.w3.org/2000/svg" xmlns:xlink="http://www.w3.org/1999/xlink" version="1.2" >
<font id="AIA Everest Regular Italic">
<font-face  font-family="AIA Everest" units-per-em="1000" ascent="750" descent="-250" font-style="normal" font-weight="400" font-stretch="normal" slope="-13" cap-height="680" x-height="485" underline-position="-102" underline-thickness="56" />
<missing-glyph  horiz-adv-x="579" d="M100 780 L479 780 L479 -100 L100 -100 L100 780 Z " />
<glyph glyph-name="space" unicode="&#x20;" horiz-adv-x="230" d="" />
<glyph glyph-name="A" unicode="A" horiz-adv-x="617" d="M450 187 L155 187 Q98 81 59 0 L-25 0 Q47 144 156 337 Q265 530 345 659 Q352 671 360.5 675.5 Q369 680 386 680 L437 680 Q454 680 461 675.5 Q468 671 470 659 Q493 547 510 359.5 Q527 172 535 0 L459 0 Q457 87 450 187 Z M446 252 Q427 483 404 622 Q323 497 189 252 L446 252 Z " />
<glyph glyph-name="Aacute" unicode="&#xc1;" horiz-adv-x="617" d="M450 187 L155 187 Q98 81 59 0 L-25 0 Q47 144 156 337 Q265 530 345 659 Q352 671 360.5 675.5 Q369 680 386 680 L437 680 Q454 680 461 675.5 Q468 671 470 659 Q493 547 510 359.5 Q527 172 535 0 L459 0 Q457 87 450 187 Z M446 252 Q427 483 404 622 Q323 497 189 252 L446 252 Z M462 745 L385 745 Q425 807 480 865 L579 865 Q522 811 462 745 Z " />
<glyph glyph-name="Abreve" unicode="&#x102;" horiz-adv-x="617" d="M450 187 L155 187 Q98 81 59 0 L-25 0 Q47 144 156 337 Q265 530 345 659 Q352 671 360.5 675.5 Q369 680 386 680 L437 680 Q454 680 461 675.5 Q468 671 470 659 Q493 547 510 359.5 Q527 172 535 0 L459 0 Q457 87 450 187 Z M446 252 Q427 483 404 622 Q323 497 189 252 L446 252 Z M581 865 Q567 810 531.5 779 Q496 748 439 748 Q389 748 361 773.5 Q333 799 333 843 Q333 851 335 865 L390 865 Q389 861 389 853 Q389 831 401.5 816 Q414 801 442 801 Q499 801 522 865 L581 865 L581 865 Z " />
<glyph glyph-name="Acircumflex" unicode="&#xc2;" horiz-adv-x="617" d="M450 187 L155 187 Q98 81 59 0 L-25 0 Q47 144 156 337 Q265 530 345 659 Q352 671 360.5 675.5 Q369 680 386 680 L437 680 Q454 680 461 675.5 Q468 671 470 659 Q493 547 510 359.5 Q527 172 535 0 L459 0 Q457 87 450 187 Z M446 252 Q427 483 404 622 Q323 497 189 252 L446 252 Z M493 745 Q486 764 474.5 788.5 Q463 813 451 829 Q414 797 371 745 L304 745 Q347 811 401 865 L510 865 Q522 841 533 808 Q544 775 550 745 L493 745 Z " />
<glyph glyph-name="Adieresis" unicode="&#xc4;" horiz-adv-x="617" d="M450 187 L155 187 Q98 81 59 0 L-25 0 Q47 144 156 337 Q265 530 345 659 Q352 671 360.5 675.5 Q369 680 386 680 L437 680 Q454 680 461 675.5 Q468 671 470 659 Q493 547 510 359.5 Q527 172 535 0 L459 0 Q457 87 450 187 Z M446 252 Q427 483 404 622 Q323 497 189 252 L446 252 Z M293 811 Q293 833 308 848 Q323 863 346 863 Q369 863 384 848 Q399 833 399 811 Q399 789 384 774 Q369 759 346 759 Q323 759 308 774 Q293 789 293 811 Z M472 811 Q472 833 487 848 Q502 863 525 863 Q548 863 563 848 Q578 833 578 811 Q578 789 563 774 Q548 759 525 759 Q502 759 487 774 Q472 789 472 811 Z " />
<glyph glyph-name="Agrave" unicode="&#xc0;" horiz-adv-x="617" d="M450 187 L155 187 Q98 81 59 0 L-25 0 Q47 144 156 337 Q265 530 345 659 Q352 671 360.5 675.5 Q369 680 386 680 L437 680 Q454 680 461 675.5 Q468 671 470 659 Q493 547 510 359.5 Q527 172 535 0 L459 0 Q457 87 450 187 Z M446 252 Q427 483 404 622 Q323 497 189 252 L446 252 Z M413 865 Q437 818 452 745 L389 745 Q373 790 327 865 L413 865 Z " />
<glyph glyph-name="Amacron" unicode="&#x100;" horiz-adv-x="617" d="M450 187 L155 187 Q98 81 59 0 L-25 0 Q47 144 156 337 Q265 530 345 659 Q352 671 360.5 675.5 Q369 680 386 680 L437 680 Q454 680 461 675.5 Q468 671 470 659 Q493 547 510 359.5 Q527 172 535 0 L459 0 Q457 87 450 187 Z M446 252 Q427 483 404 622 Q323 497 189 252 L446 252 Z M562 832 L547 769 L321 769 L337 832 L562 832 Z " />
<glyph glyph-name="Aogonek" unicode="&#x104;" horiz-adv-x="617" d="M494 -117 L505 -117 L493 -165 Q485 -167 464 -167 Q429 -167 410 -150 Q391 -133 391 -106 Q391 -70 414 -43 Q437 -16 475 0 L459 0 Q457 87 450 187 L155 187 Q98 81 59 0 L-25 0 Q47 144 156 337 Q265 530 345 659 Q352 671 360.5 675.5 Q369 680 386 680 L437 680 Q454 680 461 675.5 Q468 671 470 659 Q493 547 510 359.5 Q527 172 535 0 Q502 -13 477.5 -37.5 Q453 -62 453 -86 Q453 -101 462 -109 Q471 -117 494 -117 Z M446 252 Q427 483 404 622 Q323 497 189 252 L446 252 Z " />
<glyph glyph-name="Aring" unicode="&#xc5;" horiz-adv-x="617" d="M450 187 L155 187 Q98 81 59 0 L-25 0 Q47 144 156 337 Q265 530 345 659 Q352 671 360.5 675.5 Q369 680 386 680 L437 680 Q454 680 461 675.5 Q468 671 470 659 Q493 547 510 359.5 Q527 172 535 0 L459 0 Q457 87 450 187 Z M446 252 Q427 483 404 622 Q323 497 189 252 L446 252 Z M345 819 Q345 858 371.5 883.5 Q398 909 440 909 Q481 909 508 883.5 Q535 858 535 819 Q535 780 508 755 Q481 730 440 730 Q398 730 371.5 755 Q345 780 345 819 Z M489 819 Q489 841 476 855 Q463 869 440 869 Q417 869 403.5 855 Q390 841 390 819 Q390 797 403.5 783 Q417 769 440 769 Q463 769 476 783 Q489 797 489 819 Z " />
<glyph glyph-name="Atilde" unicode="&#xc3;" horiz-adv-x="617" d="M450 187 L155 187 Q98 81 59 0 L-25 0 Q47 144 156 337 Q265 530 345 659 Q352 671 360.5 675.5 Q369 680 386 680 L437 680 Q454 680 461 675.5 Q468 671 470 659 Q493 547 510 359.5 Q527 172 535 0 L459 0 Q457 87 450 187 Z M446 252 Q427 483 404 622 Q323 497 189 252 L446 252 Z M502 750 Q480 750 464.5 757 Q449 764 429 778 Q414 789 403 794 Q392 799 381 799 Q362 799 350.5 786.5 Q339 774 332 750 L285 750 Q300 805 325.5 831 Q351 857 388 857 Q407 857 421 850 Q435 843 456 829 Q471 818 481.5 812.5 Q492 807 503 807 Q523 807 535.5 821.5 Q548 836 552 856 L598 856 Q584 802 560.5 776 Q537 750 502 750 Z " />
<glyph glyph-name="AE" unicode="&#xc6;" horiz-adv-x="860" d="M549 614 L495 379 L804 379 L789 313 L480 313 L423 66 L763 66 L749 0 L328 0 L371 187 L165 187 Q97 82 50 0 L-32 0 Q55 149 191.5 352 Q328 555 417 658 Q428 671 435 675.5 Q442 680 458 680 L896 680 L881 614 L549 614 Z M386 254 L472 627 Q368 499 208 254 L386 254 Z " />
<glyph glyph-name="B" unicode="B" horiz-adv-x="632" d="M567 215 Q567 113 497 56.5 Q427 0 312 0 L39 0 L195 680 L431 680 Q520 680 567.5 636 Q615 592 615 527 Q615 464 577 415 Q539 366 481 347 Q517 332 542 296 Q567 260 567 215 Z M207 384 L375 384 Q449 384 493 421.5 Q537 459 537 523 Q537 615 412 615 L259 615 L207 384 Z M490 213 Q490 260 457.5 289 Q425 318 364 318 L191 318 L133 65 L302 65 Q392 65 441 103 Q490 141 490 213 Z " />
<glyph glyph-name="C" unicode="C" horiz-adv-x="592" d="M66 216 Q66 270 82 342 L91 381 Q128 542 208 616.5 Q288 691 390 691 Q485 691 541 641.5 Q597 592 599 507 L522 507 Q514 563 483 592.5 Q452 622 386 622 Q300 622 247.5 552 Q195 482 169 372 L161 337 Q145 267 145 217 Q145 141 180.5 98.5 Q216 56 290 56 Q395 56 455 183 L537 183 Q503 85 436.5 36 Q370 -13 285 -13 Q175 -13 120.5 48.5 Q66 110 66 216 Z " />
<glyph glyph-name="Cacute" unicode="&#x106;" horiz-adv-x="592" d="M66 216 Q66 270 82 342 L91 381 Q128 542 208 616.5 Q288 691 390 691 Q485 691 541 641.5 Q597 592 599 507 L522 507 Q514 563 483 592.5 Q452 622 386 622 Q300 622 247.5 552 Q195 482 169 372 L161 337 Q145 267 145 217 Q145 141 180.5 98.5 Q216 56 290 56 Q395 56 455 183 L537 183 Q503 85 436.5 36 Q370 -13 285 -13 Q175 -13 120.5 48.5 Q66 110 66 216 Z M471 745 L394 745 Q434 807 489 865 L588 865 Q531 811 471 745 Z " />
<glyph glyph-name="Ccaron" unicode="&#x10c;" horiz-adv-x="592" d="M66 216 Q66 270 82 342 L91 381 Q128 542 208 616.5 Q288 691 390 691 Q485 691 541 641.5 Q597 592 599 507 L522 507 Q514 563 483 592.5 Q452 622 386 622 Q300 622 247.5 552 Q195 482 169 372 L161 337 Q145 267 145 217 Q145 141 180.5 98.5 Q216 56 290 56 Q395 56 455 183 L537 183 Q503 85 436.5 36 Q370 -13 285 -13 Q175 -13 120.5 48.5 Q66 110 66 216 Z M585 865 Q540 796 489 745 L380 745 Q368 768 357 801 Q346 834 340 865 L396 865 Q403 845 415 821 Q427 797 439 780 Q477 814 519 865 L585 865 Z " />
<glyph glyph-name="Ccedilla" unicode="&#xc7;" horiz-adv-x="592" d="M455 183 L537 183 Q503 85 436.5 36 Q370 -13 285 -13 L277 -13 L256 -40 Q288 -41 310 -57.5 Q332 -74 332 -104 Q332 -145 304.5 -167 Q277 -189 230 -189 Q199 -189 173.5 -180.5 Q148 -172 133 -157 L164 -122 Q174 -131 192.5 -136.5 Q211 -142 230 -142 Q253 -142 264.5 -133 Q276 -124 276 -108 Q276 -81 233 -81 Q216 -81 201 -86 L190 -64 L229 -8 Q147 7 106.5 66 Q66 125 66 217 Q66 270 82 342 L91 381 Q128 542 208 616.5 Q288 691 390 691 Q485 691 541 641.5 Q597 592 599 507 L522 507 Q514 563 483 592.5 Q452 622 386 622 Q300 622 247.5 552 Q195 482 169 372 L161 337 Q145 267 145 217 Q145 141 180.5 98.5 Q216 56 290 56 Q395 56 455 183 Z " />
<glyph glyph-name="Cdotaccent" unicode="&#x10a;" horiz-adv-x="592" d="M66 216 Q66 270 82 342 L91 381 Q128 542 208 616.5 Q288 691 390 691 Q485 691 541 641.5 Q597 592 599 507 L522 507 Q514 563 483 592.5 Q452 622 386 622 Q300 622 247.5 552 Q195 482 169 372 L161 337 Q145 267 145 217 Q145 141 180.5 98.5 Q216 56 290 56 Q395 56 455 183 L537 183 Q503 85 436.5 36 Q370 -13 285 -13 Q175 -13 120.5 48.5 Q66 110 66 216 Z M395 812 Q395 834 410 848.5 Q425 863 447 863 Q468 863 483 848.5 Q498 834 498 812 Q498 790 483 775.5 Q468 761 447 761 Q425 761 410 775.5 Q395 790 395 812 Z " />
<glyph glyph-name="D" unicode="D" horiz-adv-x="639" d="M195 680 L383 680 Q445 680 496.5 656 Q548 632 580 579 Q612 526 612 444 Q612 397 602 346 L596 316 Q563 146 466.5 73 Q370 0 242 0 L39 0 L195 680 Z M238 66 Q345 66 417.5 127 Q490 188 517 318 L523 347 Q533 394 533 436 Q533 524 488 569 Q443 614 363 614 L260 614 L133 66 L238 66 Z " />
<glyph glyph-name="Eth" unicode="&#xd0;" horiz-adv-x="652" d="M624 444 Q624 397 614 346 L608 316 Q575 146 478.5 73 Q382 0 253 0 L51 0 L123 313 L54 313 L69 371 L136 371 L207 680 L395 680 Q457 680 508.5 656 Q560 632 592 579 Q624 526 624 444 Z M545 436 Q545 524 500 569 Q455 614 375 614 L272 614 L216 371 L351 371 L336 313 L202 313 L145 66 L250 66 Q357 66 429.5 127 Q502 188 528 318 L535 347 Q545 394 545 436 Z " />
<glyph glyph-name="Dcaron" unicode="&#x10e;" horiz-adv-x="639" d="M195 680 L383 680 Q445 680 496.5 656 Q548 632 580 579 Q612 526 612 444 Q612 397 602 346 L596 316 Q563 146 466.5 73 Q370 0 242 0 L39 0 L195 680 Z M238 66 Q345 66 417.5 127 Q490 188 517 318 L523 347 Q533 394 533 436 Q533 524 488 569 Q443 614 363 614 L260 614 L133 66 L238 66 Z M564 865 Q519 796 468 745 L359 745 Q347 768 336 801 Q325 834 319 865 L375 865 Q382 845 394 821 Q406 797 418 780 Q456 814 498 865 L564 865 Z " />
<glyph glyph-name="Dcroat" unicode="&#x110;" horiz-adv-x="652" d="M624 444 Q624 397 614 346 L608 316 Q575 146 478.5 73 Q382 0 253 0 L51 0 L123 313 L54 313 L69 371 L136 371 L207 680 L395 680 Q457 680 508.5 656 Q560 632 592 579 Q624 526 624 444 Z M545 436 Q545 524 500 569 Q455 614 375 614 L272 614 L216 371 L351 371 L336 313 L202 313 L145 66 L250 66 Q357 66 429.5 127 Q502 188 528 318 L535 347 Q545 394 545 436 Z " />
<glyph glyph-name="E" unicode="E" horiz-adv-x="570" d="M259 614 L205 379 L515 379 L499 313 L190 313 L133 66 L474 66 L460 0 L39 0 L195 680 L607 680 L592 614 L259 614 Z " />
<glyph glyph-name="Eacute" unicode="&#xc9;" horiz-adv-x="570" d="M259 614 L205 379 L515 379 L499 313 L190 313 L133 66 L474 66 L460 0 L39 0 L195 680 L607 680 L592 614 L259 614 Z M455 745 L378 745 Q418 807 473 865 L572 865 Q515 811 455 745 Z " />
<glyph glyph-name="Ecaron" unicode="&#x11a;" horiz-adv-x="570" d="M259 614 L205 379 L515 379 L499 313 L190 313 L133 66 L474 66 L460 0 L39 0 L195 680 L607 680 L592 614 L259 614 Z M569 865 Q524 796 473 745 L364 745 Q352 768 341 801 Q330 834 324 865 L380 865 Q387 845 399 821 Q411 797 423 780 Q461 814 503 865 L569 865 Z " />
<glyph glyph-name="Ecircumflex" unicode="&#xca;" horiz-adv-x="570" d="M259 614 L205 379 L515 379 L499 313 L190 313 L133 66 L474 66 L460 0 L39 0 L195 680 L607 680 L592 614 L259 614 Z M486 745 Q479 764 467.5 788.5 Q456 813 444 829 Q407 797 364 745 L297 745 Q340 811 394 865 L503 865 Q515 841 526 808 Q537 775 543 745 L486 745 Z " />
<glyph glyph-name="Edieresis" unicode="&#xcb;" horiz-adv-x="570" d="M259 614 L205 379 L515 379 L499 313 L190 313 L133 66 L474 66 L460 0 L39 0 L195 680 L607 680 L592 614 L259 614 Z M286 811 Q286 833 301 848 Q316 863 339 863 Q362 863 377 848 Q392 833 392 811 Q392 789 377 774 Q362 759 339 759 Q316 759 301 774 Q286 789 286 811 Z M465 811 Q465 833 480 848 Q495 863 518 863 Q541 863 556 848 Q571 833 571 811 Q571 789 556 774 Q541 759 518 759 Q495 759 480 774 Q465 789 465 811 Z " />
<glyph glyph-name="Edotaccent" unicode="&#x116;" horiz-adv-x="570" d="M259 614 L205 379 L515 379 L499 313 L190 313 L133 66 L474 66 L460 0 L39 0 L195 680 L607 680 L592 614 L259 614 Z M379 812 Q379 834 394 848.5 Q409 863 431 863 Q452 863 467 848.5 Q482 834 482 812 Q482 790 467 775.5 Q452 761 431 761 Q409 761 394 775.5 Q379 790 379 812 Z " />
<glyph glyph-name="Egrave" unicode="&#xc8;" horiz-adv-x="570" d="M259 614 L205 379 L515 379 L499 313 L190 313 L133 66 L474 66 L460 0 L39 0 L195 680 L607 680 L592 614 L259 614 Z M406 865 Q430 818 445 745 L382 745 Q366 790 320 865 L406 865 Z " />
<glyph glyph-name="Emacron" unicode="&#x112;" horiz-adv-x="570" d="M259 614 L205 379 L515 379 L499 313 L190 313 L133 66 L474 66 L460 0 L39 0 L195 680 L607 680 L592 614 L259 614 Z M555 832 L540 769 L314 769 L330 832 L555 832 Z " />
<glyph glyph-name="Eogonek" unicode="&#x118;" horiz-adv-x="570" d="M259 614 L205 379 L515 379 L499 313 L190 313 L133 66 L474 66 L460 0 Q427 -13 402 -37.5 Q377 -62 377 -86 Q377 -101 386.5 -109 Q396 -117 419 -117 L429 -117 L418 -165 Q409 -167 388 -167 Q354 -167 334.5 -149.5 Q315 -132 315 -106 Q315 -70 338 -43 Q361 -16 400 0 L39 0 L195 680 L607 680 L592 614 L259 614 Z " />
<glyph glyph-name="F" unicode="F" horiz-adv-x="559" d="M259 614 L205 379 L515 379 L499 313 L190 313 L118 0 L39 0 L195 680 L607 680 L592 614 L259 614 Z " />
<glyph glyph-name="G" unicode="G" horiz-adv-x="623" d="M65 216 Q65 272 81 339 L90 378 Q130 548 211 620 Q292 692 396 692 Q456 692 504 670 Q552 648 579.5 608 Q607 568 608 515 L530 515 Q524 563 489 593 Q454 623 392 623 Q297 623 244 549.5 Q191 476 165 357 L158 326 Q144 268 144 219 Q144 145 178.5 101 Q213 57 288 57 Q365 57 412.5 109.5 Q460 162 486 258 L494 289 L331 289 L345 355 L586 355 L564 255 Q533 115 459.5 51.5 Q386 -12 282 -12 Q186 -12 125.5 45.5 Q65 103 65 216 Z " />
<glyph glyph-name="Gbreve" unicode="&#x11e;" horiz-adv-x="623" d="M65 216 Q65 272 81 339 L90 378 Q130 548 211 620 Q292 692 396 692 Q456 692 504 670 Q552 648 579.5 608 Q607 568 608 515 L530 515 Q524 563 489 593 Q454 623 392 623 Q297 623 244 549.5 Q191 476 165 357 L158 326 Q144 268 144 219 Q144 145 178.5 101 Q213 57 288 57 Q365 57 412.5 109.5 Q460 162 486 258 L494 289 L331 289 L345 355 L586 355 L564 255 Q533 115 459.5 51.5 Q386 -12 282 -12 Q186 -12 125.5 45.5 Q65 103 65 216 Z M572 865 Q558 810 522.5 779 Q487 748 430 748 Q380 748 352 773.5 Q324 799 324 843 Q324 851 326 865 L381 865 Q380 861 380 853 Q380 831 392.5 816 Q405 801 433 801 Q490 801 513 865 L572 865 L572 865 Z " />
<glyph glyph-name="uni0122" unicode="&#x122;" horiz-adv-x="623" d="M65 216 Q65 272 81 339 L90 378 Q130 548 211 620 Q292 692 396 692 Q456 692 504 670 Q552 648 579.5 608 Q607 568 608 515 L530 515 Q524 563 489 593 Q454 623 392 623 Q297 623 244 549.5 Q191 476 165 357 L158 326 Q144 268 144 219 Q144 145 178.5 101 Q213 57 288 57 Q365 57 412.5 109.5 Q460 162 486 258 L494 289 L331 289 L345 355 L586 355 L564 255 Q533 115 459.5 51.5 Q386 -12 282 -12 Q186 -12 125.5 45.5 Q65 103 65 216 Z M192 -53 L266 -53 Q255 -99 234 -133 Q213 -167 184 -200 L142 -200 Q175 -124 192 -53 Z " />
<glyph glyph-name="Gdotaccent" unicode="&#x120;" horiz-adv-x="623" d="M65 216 Q65 272 81 339 L90 378 Q130 548 211 620 Q292 692 396 692 Q456 692 504 670 Q552 648 579.5 608 Q607 568 608 515 L530 515 Q524 563 489 593 Q454 623 392 623 Q297 623 244 549.5 Q191 476 165 357 L158 326 Q144 268 144 219 Q144 145 178.5 101 Q213 57 288 57 Q365 57 412.5 109.5 Q460 162 486 258 L494 289 L331 289 L345 355 L586 355 L564 255 Q533 115 459.5 51.5 Q386 -12 282 -12 Q186 -12 125.5 45.5 Q65 103 65 216 Z M377 812 Q377 834 392 848.5 Q407 863 429 863 Q450 863 465 848.5 Q480 834 480 812 Q480 790 465 775.5 Q450 761 429 761 Q407 761 392 775.5 Q377 790 377 812 Z " />
<glyph glyph-name="H" unicode="H" horiz-adv-x="690" d="M693 680 L537 0 L457 0 L529 313 L190 313 L118 0 L39 0 L195 680 L274 680 L205 379 L544 379 L613 680 L693 680 Z " />
<glyph glyph-name="Hbar" unicode="&#x126;" horiz-adv-x="690" d="M695 505 L649 505 L533 0 L453 0 L525 313 L186 313 L114 0 L34 0 L150 505 L105 505 L119 569 L165 569 L190 680 L270 680 L245 569 L584 569 L609 680 L689 680 L664 569 L709 569 L695 505 Z M569 505 L230 505 L201 379 L540 379 L569 505 Z " />
<glyph glyph-name="I" unicode="I" horiz-adv-x="279" d="M122 0 L43 0 L199 680 L278 680 L122 0 Z " />
<glyph glyph-name="Iacute" unicode="&#xcd;" horiz-adv-x="279" d="M122 0 L43 0 L199 680 L278 680 L122 0 Z M287 745 L210 745 Q250 807 305 865 L404 865 Q347 811 287 745 Z " />
<glyph glyph-name="Icircumflex" unicode="&#xce;" horiz-adv-x="279" d="M122 0 L43 0 L199 680 L278 680 L122 0 Z M318 745 Q311 764 299.5 788.5 Q288 813 276 829 Q239 797 196 745 L129 745 Q172 811 226 865 L335 865 Q347 841 358 808 Q369 775 375 745 L318 745 Z " />
<glyph glyph-name="Idieresis" unicode="&#xcf;" horiz-adv-x="279" d="M122 0 L43 0 L199 680 L278 680 L122 0 Z M118 811 Q118 833 133 848 Q148 863 171 863 Q194 863 209 848 Q224 833 224 811 Q224 789 209 774 Q194 759 171 759 Q148 759 133 774 Q118 789 118 811 Z M297 811 Q297 833 312 848 Q327 863 350 863 Q373 863 388 848 Q403 833 403 811 Q403 789 388 774 Q373 759 350 759 Q327 759 312 774 Q297 789 297 811 Z " />
<glyph glyph-name="Idot" unicode="&#x130;" horiz-adv-x="279" d="M122 0 L43 0 L199 680 L278 680 L122 0 Z M211 812 Q211 834 226 848.5 Q241 863 263 863 Q284 863 299 848.5 Q314 834 314 812 Q314 790 299 775.5 Q284 761 263 761 Q241 761 226 775.5 Q211 790 211 812 Z " />
<glyph glyph-name="Igrave" unicode="&#xcc;" horiz-adv-x="279" d="M122 0 L43 0 L199 680 L278 680 L122 0 Z M238 865 Q262 818 277 745 L214 745 Q198 790 152 865 L238 865 Z " />
<glyph glyph-name="Imacron" unicode="&#x12a;" horiz-adv-x="279" d="M122 0 L43 0 L199 680 L278 680 L122 0 Z M387 832 L372 769 L146 769 L162 832 L387 832 Z " />
<glyph glyph-name="Iogonek" unicode="&#x12e;" horiz-adv-x="279" d="M40 -86 Q40 -101 49 -109 Q58 -117 81 -117 L92 -117 L80 -165 Q72 -167 51 -167 Q17 -167 -2.5 -149.5 Q-22 -132 -22 -106 Q-22 -70 1 -43 Q24 -16 62 0 L43 0 L199 680 L278 680 L122 0 Q89 -13 64.5 -37.5 Q40 -62 40 -86 Z " />
<glyph glyph-name="J" unicode="J" horiz-adv-x="413" d="M87 61 Q146 61 178.5 92 Q211 123 228 199 L339 680 L419 680 L305 186 Q281 81 230 36.5 Q179 -8 88 -8 Q55 -8 19.5 -2.5 Q-16 3 -33 10 L-17 78 Q25 61 87 61 Z " />
<glyph glyph-name="K" unicode="K" horiz-adv-x="618" d="M401 397 Q444 307 486.5 187 Q529 67 543 0 L467 0 Q449 69 412 173.5 Q375 278 340 345 Q251 270 165 204 L118 0 L39 0 L195 680 L274 680 L188 303 Q445 515 586 680 L678 680 Q568 545 401 397 Z " />
<glyph glyph-name="uni0136" unicode="&#x136;" horiz-adv-x="618" d="M401 397 Q444 307 486.5 187 Q529 67 543 0 L467 0 Q449 69 412 173.5 Q375 278 340 345 Q251 270 165 204 L118 0 L39 0 L195 680 L274 680 L188 303 Q445 515 586 680 L678 680 Q568 545 401 397 Z M235 -53 L309 -53 Q298 -99 277 -133 Q256 -167 227 -200 L185 -200 Q218 -124 235 -53 Z " />
<glyph glyph-name="L" unicode="L" horiz-adv-x="539" d="M462 66 L447 0 L39 0 L195 680 L274 680 L133 66 L462 66 Z " />
<glyph glyph-name="Lacute" unicode="&#x139;" horiz-adv-x="539" d="M462 66 L447 0 L39 0 L195 680 L274 680 L133 66 L462 66 Z M288 745 L211 745 Q251 807 306 865 L405 865 Q348 811 288 745 Z " />
<glyph glyph-name="Lcaron" unicode="&#x13d;" horiz-adv-x="539" d="M462 66 L447 0 L39 0 L195 680 L274 680 L133 66 L462 66 Z M353 505 L319 505 Q334 540 350.5 589.5 Q367 639 377 681 L447 681 Q422 584 353 505 Z " />
<glyph glyph-name="uni013B" unicode="&#x13b;" horiz-adv-x="539" d="M462 66 L447 0 L39 0 L195 680 L274 680 L133 66 L462 66 Z M196 -53 L270 -53 Q259 -99 238 -133 Q217 -167 188 -200 L146 -200 Q179 -124 196 -53 Z " />
<glyph glyph-name="Lslash" unicode="&#x141;" horiz-adv-x="567" d="M490 66 L475 0 L66 0 L123 248 L35 201 L51 271 L139 318 L222 680 L302 680 L230 366 L391 452 L374 381 L214 296 L161 66 L490 66 Z " />
<glyph glyph-name="M" unicode="M" horiz-adv-x="789" d="M792 680 L636 0 L560 0 L692 571 Q531 327 411 174 Q395 155 377 155 L368 155 Q358 155 353 159.5 Q348 164 346 174 Q318 260 291.5 366.5 Q265 473 246 569 L115 0 L39 0 L195 680 L288 680 Q309 582 338.5 459 Q368 336 391 255 Q458 343 542.5 466 Q627 589 683 680 L792 680 Z " />
<glyph glyph-name="N" unicode="N" horiz-adv-x="692" d="M695 680 L539 0 L469 0 L248 581 L115 0 L39 0 L195 680 L280 680 L492 126 L619 680 L695 680 Z " />
<glyph glyph-name="Nacute" unicode="&#x143;" horiz-adv-x="692" d="M695 680 L539 0 L469 0 L248 581 L115 0 L39 0 L195 680 L280 680 L492 126 L619 680 L695 680 Z M494 745 L417 745 Q457 807 512 865 L611 865 Q554 811 494 745 Z " />
<glyph glyph-name="Ncaron" unicode="&#x147;" horiz-adv-x="692" d="M695 680 L539 0 L469 0 L248 581 L115 0 L39 0 L195 680 L280 680 L492 126 L619 680 L695 680 Z M608 865 Q563 796 512 745 L403 745 Q391 768 380 801 Q369 834 363 865 L419 865 Q426 845 438 821 Q450 797 462 780 Q500 814 542 865 L608 865 Z " />
<glyph glyph-name="uni0145" unicode="&#x145;" horiz-adv-x="692" d="M695 680 L539 0 L469 0 L248 581 L115 0 L39 0 L195 680 L280 680 L492 126 L619 680 L695 680 Z M246 -53 L320 -53 Q309 -99 288 -133 Q267 -167 238 -200 L196 -200 Q229 -124 246 -53 Z " />
<glyph glyph-name="Eng" unicode="&#x14a;" horiz-adv-x="692" d="M695 680 L539 0 Q520 -85 470 -127 Q420 -169 342 -169 Q316 -169 288.5 -165.5 Q261 -162 249 -155 L265 -87 Q296 -99 343 -99 Q393 -99 421.5 -75 Q450 -51 461 -3 L464 11 L248 582 L115 0 L39 0 L195 680 L280 680 L492 126 L619 680 L695 680 Z " />
<glyph glyph-name="Ntilde" unicode="&#xd1;" horiz-adv-x="692" d="M695 680 L539 0 L469 0 L248 581 L115 0 L39 0 L195 680 L280 680 L492 126 L619 680 L695 680 Z M534 750 Q512 750 496.5 757 Q481 764 461 778 Q446 789 435 794 Q424 799 413 799 Q394 799 382.5 786.5 Q371 774 364 750 L317 750 Q332 805 357.5 831 Q383 857 420 857 Q439 857 453 850 Q467 843 488 829 Q503 818 513.5 812.5 Q524 807 535 807 Q555 807 567.5 821.5 Q580 836 584 856 L630 856 Q616 802 592.5 776 Q569 750 534 750 Z " />
<glyph glyph-name="O" unicode="O" horiz-adv-x="644" d="M67 219 Q67 277 82 343 L91 383 Q127 543 208.5 617.5 Q290 692 395 692 Q511 692 566 630.5 Q621 569 621 461 Q621 403 606 337 L597 297 Q561 137 479 62.5 Q397 -12 292 -12 Q178 -12 122.5 49.5 Q67 111 67 219 Z M519 307 L527 341 Q543 405 543 460 Q543 538 506 580.5 Q469 623 392 623 Q232 623 169 373 L161 339 Q144 273 144 220 Q144 143 181 100 Q218 57 296 57 Q457 57 519 307 Z " />
<glyph glyph-name="Oacute" unicode="&#xd3;" horiz-adv-x="644" d="M67 219 Q67 277 82 343 L91 383 Q127 543 208.5 617.5 Q290 692 395 692 Q511 692 566 630.5 Q621 569 621 461 Q621 403 606 337 L597 297 Q561 137 479 62.5 Q397 -12 292 -12 Q178 -12 122.5 49.5 Q67 111 67 219 Z M519 307 L527 341 Q543 405 543 460 Q543 538 506 580.5 Q469 623 392 623 Q232 623 169 373 L161 339 Q144 273 144 220 Q144 143 181 100 Q218 57 296 57 Q457 57 519 307 Z M471 745 L394 745 Q434 807 489 865 L588 865 Q531 811 471 745 Z " />
<glyph glyph-name="Ocircumflex" unicode="&#xd4;" horiz-adv-x="644" d="M67 219 Q67 277 82 343 L91 383 Q127 543 208.5 617.5 Q290 692 395 692 Q511 692 566 630.5 Q621 569 621 461 Q621 403 606 337 L597 297 Q561 137 479 62.5 Q397 -12 292 -12 Q178 -12 122.5 49.5 Q67 111 67 219 Z M519 307 L527 341 Q543 405 543 460 Q543 538 506 580.5 Q469 623 392 623 Q232 623 169 373 L161 339 Q144 273 144 220 Q144 143 181 100 Q218 57 296 57 Q457 57 519 307 Z M502 745 Q495 764 483.5 788.5 Q472 813 460 829 Q423 797 380 745 L313 745 Q356 811 410 865 L519 865 Q531 841 542 808 Q553 775 559 745 L502 745 Z " />
<glyph glyph-name="Odieresis" unicode="&#xd6;" horiz-adv-x="644" d="M67 219 Q67 277 82 343 L91 383 Q127 543 208.5 617.5 Q290 692 395 692 Q511 692 566 630.5 Q621 569 621 461 Q621 403 606 337 L597 297 Q561 137 479 62.5 Q397 -12 292 -12 Q178 -12 122.5 49.5 Q67 111 67 219 Z M519 307 L527 341 Q543 405 543 460 Q543 538 506 580.5 Q469 623 392 623 Q232 623 169 373 L161 339 Q144 273 144 220 Q144 143 181 100 Q218 57 296 57 Q457 57 519 307 Z M302 811 Q302 833 317 848 Q332 863 355 863 Q378 863 393 848 Q408 833 408 811 Q408 789 393 774 Q378 759 355 759 Q332 759 317 774 Q302 789 302 811 Z M481 811 Q481 833 496 848 Q511 863 534 863 Q557 863 572 848 Q587 833 587 811 Q587 789 572 774 Q557 759 534 759 Q511 759 496 774 Q481 789 481 811 Z " />
<glyph glyph-name="Ograve" unicode="&#xd2;" horiz-adv-x="644" d="M67 219 Q67 277 82 343 L91 383 Q127 543 208.5 617.5 Q290 692 395 692 Q511 692 566 630.5 Q621 569 621 461 Q621 403 606 337 L597 297 Q561 137 479 62.5 Q397 -12 292 -12 Q178 -12 122.5 49.5 Q67 111 67 219 Z M519 307 L527 341 Q543 405 543 460 Q543 538 506 580.5 Q469 623 392 623 Q232 623 169 373 L161 339 Q144 273 144 220 Q144 143 181 100 Q218 57 296 57 Q457 57 519 307 Z M422 865 Q446 818 461 745 L398 745 Q382 790 336 865 L422 865 Z " />
<glyph glyph-name="Ohungarumlaut" unicode="&#x150;" horiz-adv-x="644" d="M67 219 Q67 277 82 343 L91 383 Q127 543 208.5 617.5 Q290 692 395 692 Q511 692 566 630.5 Q621 569 621 461 Q621 403 606 337 L597 297 Q561 137 479 62.5 Q397 -12 292 -12 Q178 -12 122.5 49.5 Q67 111 67 219 Z M519 307 L527 341 Q543 405 543 460 Q543 538 506 580.5 Q469 623 392 623 Q232 623 169 373 L161 339 Q144 273 144 220 Q144 143 181 100 Q218 57 296 57 Q457 57 519 307 Z M404 745 L340 745 Q364 785 424 865 L510 865 Q465 822 404 745 Z M566 776 Q556 764 537 745 L474 745 Q517 807 569 865 L654 865 Q628 839 605.5 816 Q583 793 566 776 Z " />
<glyph glyph-name="Omacron" unicode="&#x14c;" horiz-adv-x="644" d="M67 219 Q67 277 82 343 L91 383 Q127 543 208.5 617.5 Q290 692 395 692 Q511 692 566 630.5 Q621 569 621 461 Q621 403 606 337 L597 297 Q561 137 479 62.5 Q397 -12 292 -12 Q178 -12 122.5 49.5 Q67 111 67 219 Z M519 307 L527 341 Q543 405 543 460 Q543 538 506 580.5 Q469 623 392 623 Q232 623 169 373 L161 339 Q144 273 144 220 Q144 143 181 100 Q218 57 296 57 Q457 57 519 307 Z M571 832 L556 769 L330 769 L346 832 L571 832 Z " />
<glyph glyph-name="Oslash" unicode="&#xd8;" horiz-adv-x="644" d="M582 610 Q621 554 621 461 Q621 410 606 337 L597 297 Q561 137 479 62.5 Q397 -12 292 -12 Q203 -12 148 27 L106 -29 L61 2 L109 66 Q67 122 67 219 Q67 277 82 343 L91 383 Q127 543 208.5 617.5 Q290 692 395 692 Q489 692 543 650 L586 708 L632 677 L582 610 Z M144 220 Q144 170 159 134 L498 589 Q459 623 392 623 Q232 623 169 373 L161 339 Q144 273 144 220 Z M543 459 Q543 507 530 540 L193 88 Q232 57 296 57 Q457 57 519 307 L527 341 Q543 404 543 459 Z " />
<glyph glyph-name="Otilde" unicode="&#xd5;" horiz-adv-x="644" d="M67 219 Q67 277 82 343 L91 383 Q127 543 208.5 617.5 Q290 692 395 692 Q511 692 566 630.5 Q621 569 621 461 Q621 403 606 337 L597 297 Q561 137 479 62.5 Q397 -12 292 -12 Q178 -12 122.5 49.5 Q67 111 67 219 Z M519 307 L527 341 Q543 405 543 460 Q543 538 506 580.5 Q469 623 392 623 Q232 623 169 373 L161 339 Q144 273 144 220 Q144 143 181 100 Q218 57 296 57 Q457 57 519 307 Z M511 750 Q489 750 473.5 757 Q458 764 438 778 Q423 789 412 794 Q401 799 390 799 Q371 799 359.5 786.5 Q348 774 341 750 L294 750 Q309 805 334.5 831 Q360 857 397 857 Q416 857 430 850 Q444 843 465 829 Q480 818 490.5 812.5 Q501 807 512 807 Q532 807 544.5 821.5 Q557 836 561 856 L607 856 Q593 802 569.5 776 Q546 750 511 750 Z " />
<glyph glyph-name="OE" unicode="&#x152;" horiz-adv-x="958" d="M648 614 L595 379 L904 379 L888 313 L579 313 L523 66 L863 66 L848 0 L428 0 L439 48 Q368 -12 282 -12 Q172 -12 119.5 48 Q67 108 67 214 Q67 274 82 343 L91 383 Q127 543 209 617.5 Q291 692 396 692 Q515 692 568 611 L584 680 L995 680 L981 614 L648 614 Z M467 170 L548 522 Q530 570 489.5 596.5 Q449 623 392 623 Q232 623 169 373 L161 339 Q144 273 144 220 Q144 143 181 100 Q218 57 296 57 Q404 57 467 170 Z " />
<glyph glyph-name="P" unicode="P" horiz-adv-x="599" d="M614 503 Q614 437 583 383.5 Q552 330 493.5 298.5 Q435 267 358 267 L179 267 L118 0 L39 0 L195 680 L413 680 Q498 680 556 635 Q614 590 614 503 Z M534 501 Q534 555 498.5 584.5 Q463 614 403 614 L259 614 L194 333 L351 333 Q440 333 487 377.5 Q534 422 534 501 Z " />
<glyph glyph-name="Thorn" unicode="&#xde;" horiz-adv-x="589" d="M576 380 Q576 315 545 261.5 Q514 208 455.5 177 Q397 146 320 146 L151 146 L118 0 L39 0 L195 680 L274 680 L246 559 L375 559 Q427 559 473 538.5 Q519 518 547.5 477.5 Q576 437 576 380 Z M496 378 Q496 433 460.5 463 Q425 493 365 493 L231 493 L167 212 L313 212 Q402 212 449 256 Q496 300 496 378 Z " />
<glyph glyph-name="Q" unicode="Q" horiz-adv-x="644" d="M621 461 Q621 403 606 337 L597 297 Q570 179 518 108 Q466 37 396 8 Q409 -9 438 -19 Q467 -29 512 -29 Q531 -29 548 -27 L533 -89 Q509 -95 482 -95 Q429 -95 383 -74.5 Q337 -54 320 -11 Q311 -12 292 -12 Q178 -12 122.5 49.5 Q67 111 67 219 Q67 277 82 343 L91 383 Q127 543 208.5 617.5 Q290 692 395 692 Q511 692 566 630.5 Q621 569 621 461 Z M543 460 Q543 538 506 580.5 Q469 623 392 623 Q232 623 169 373 L161 339 Q144 273 144 220 Q144 143 181 100 Q218 57 296 57 Q457 57 519 307 L527 341 Q543 405 543 460 Z " />
<glyph glyph-name="R" unicode="R" horiz-adv-x="622" d="M411 301 Q443 241 476 151 Q509 61 527 0 L447 0 Q427 65 394 150.5 Q361 236 329 293 L185 293 L118 0 L39 0 L195 680 L413 680 Q498 680 556 638.5 Q614 597 614 515 Q614 431 559 372 Q504 313 411 301 Z M534 513 Q534 562 498.5 588 Q463 614 403 614 L259 614 L200 359 L351 359 Q440 359 487 399.5 Q534 440 534 513 Z " />
<glyph glyph-name="Racute" unicode="&#x154;" horiz-adv-x="622" d="M411 301 Q443 241 476 151 Q509 61 527 0 L447 0 Q427 65 394 150.5 Q361 236 329 293 L185 293 L118 0 L39 0 L195 680 L413 680 Q498 680 556 638.5 Q614 597 614 515 Q614 431 559 372 Q504 313 411 301 Z M534 513 Q534 562 498.5 588 Q463 614 403 614 L259 614 L200 359 L351 359 Q440 359 487 399.5 Q534 440 534 513 Z M450 745 L373 745 Q413 807 468 865 L567 865 Q510 811 450 745 Z " />
<glyph glyph-name="Rcaron" unicode="&#x158;" horiz-adv-x="622" d="M411 301 Q443 241 476 151 Q509 61 527 0 L447 0 Q427 65 394 150.5 Q361 236 329 293 L185 293 L118 0 L39 0 L195 680 L413 680 Q498 680 556 638.5 Q614 597 614 515 Q614 431 559 372 Q504 313 411 301 Z M534 513 Q534 562 498.5 588 Q463 614 403 614 L259 614 L200 359 L351 359 Q440 359 487 399.5 Q534 440 534 513 Z M564 865 Q519 796 468 745 L359 745 Q347 768 336 801 Q325 834 319 865 L375 865 Q382 845 394 821 Q406 797 418 780 Q456 814 498 865 L564 865 Z " />
<glyph glyph-name="uni0156" unicode="&#x156;" horiz-adv-x="622" d="M411 301 Q443 241 476 151 Q509 61 527 0 L447 0 Q427 65 394 150.5 Q361 236 329 293 L185 293 L118 0 L39 0 L195 680 L413 680 Q498 680 556 638.5 Q614 597 614 515 Q614 431 559 372 Q504 313 411 301 Z M534 513 Q534 562 498.5 588 Q463 614 403 614 L259 614 L200 359 L351 359 Q440 359 487 399.5 Q534 440 534 513 Z M225 -53 L299 -53 Q288 -99 267 -133 Q246 -167 217 -200 L175 -200 Q208 -124 225 -53 Z " />
<glyph glyph-name="S" unicode="S" horiz-adv-x="569" d="M28 196 L105 196 Q100 131 146 94 Q192 57 272 57 Q341 57 384 93 Q427 129 427 189 Q427 229 405.5 252.5 Q384 276 325 304 L271 329 Q192 366 157 403.5 Q122 441 122 498 Q122 554 149.5 597.5 Q177 641 227 665 Q277 689 340 689 Q403 689 454 666.5 Q505 644 532.5 604.5 Q560 565 556 518 L481 518 Q481 567 439 594.5 Q397 622 335 622 Q271 622 233 588 Q195 554 195 504 Q195 470 222 444 Q249 418 304 393 L360 368 Q427 339 465 299.5 Q503 260 503 200 Q503 139 474.5 91.5 Q446 44 393.5 17.5 Q341 -9 273 -9 Q158 -9 91 44 Q24 97 28 196 Z " />
<glyph glyph-name="Sacute" unicode="&#x15a;" horiz-adv-x="569" d="M28 196 L105 196 Q100 131 146 94 Q192 57 272 57 Q341 57 384 93 Q427 129 427 189 Q427 229 405.5 252.5 Q384 276 325 304 L271 329 Q192 366 157 403.5 Q122 441 122 498 Q122 554 149.5 597.5 Q177 641 227 665 Q277 689 340 689 Q403 689 454 666.5 Q505 644 532.5 604.5 Q560 565 556 518 L481 518 Q481 567 439 594.5 Q397 622 335 622 Q271 622 233 588 Q195 554 195 504 Q195 470 222 444 Q249 418 304 393 L360 368 Q427 339 465 299.5 Q503 260 503 200 Q503 139 474.5 91.5 Q446 44 393.5 17.5 Q341 -9 273 -9 Q158 -9 91 44 Q24 97 28 196 Z M433 745 L356 745 Q396 807 451 865 L550 865 Q493 811 433 745 Z " />
<glyph glyph-name="Scaron" unicode="&#x160;" horiz-adv-x="569" d="M28 196 L105 196 Q100 131 146 94 Q192 57 272 57 Q341 57 384 93 Q427 129 427 189 Q427 229 405.5 252.5 Q384 276 325 304 L271 329 Q192 366 157 403.5 Q122 441 122 498 Q122 554 149.5 597.5 Q177 641 227 665 Q277 689 340 689 Q403 689 454 666.5 Q505 644 532.5 604.5 Q560 565 556 518 L481 518 Q481 567 439 594.5 Q397 622 335 622 Q271 622 233 588 Q195 554 195 504 Q195 470 222 444 Q249 418 304 393 L360 368 Q427 339 465 299.5 Q503 260 503 200 Q503 139 474.5 91.5 Q446 44 393.5 17.5 Q341 -9 273 -9 Q158 -9 91 44 Q24 97 28 196 Z M547 865 Q502 796 451 745 L342 745 Q330 768 319 801 Q308 834 302 865 L358 865 Q365 845 377 821 Q389 797 401 780 Q439 814 481 865 L547 865 Z " />
<glyph glyph-name="Scedilla" unicode="&#x15e;" horiz-adv-x="569" d="M195 504 Q195 470 222 444 Q249 418 304 393 L360 368 Q427 339 465 299.5 Q503 260 503 200 Q503 139 474.5 91.5 Q446 44 393.5 17.5 Q341 -9 273 -9 L260 -9 L236 -40 Q268 -40 290.5 -56.5 Q313 -73 313 -104 Q313 -145 285.5 -167 Q258 -189 211 -189 Q180 -189 154.5 -180.5 Q129 -172 114 -157 L145 -122 Q155 -131 173.5 -136.5 Q192 -142 211 -142 Q234 -142 245.5 -133 Q257 -124 257 -108 Q257 -81 214 -81 Q197 -81 182 -86 L170 -64 L212 -5 Q124 8 74.5 59.5 Q25 111 28 196 L105 196 Q100 131 146 94 Q192 57 272 57 Q341 57 384 93 Q427 129 427 189 Q427 229 405.5 252.5 Q384 276 325 304 L271 329 Q192 366 157 403.5 Q122 441 122 498 Q122 554 149.5 597.5 Q177 641 227 665 Q277 689 340 689 Q403 689 454 666.5 Q505 644 532.5 604.5 Q560 565 556 518 L481 518 Q481 567 439 594.5 Q397 622 335 622 Q271 622 233 588 Q195 554 195 504 Z " />
<glyph glyph-name="uni0218" unicode="&#x218;" horiz-adv-x="569" d="M28 196 L105 196 Q100 131 146 94 Q192 57 272 57 Q341 57 384 93 Q427 129 427 189 Q427 229 405.5 252.5 Q384 276 325 304 L271 329 Q192 366 157 403.5 Q122 441 122 498 Q122 554 149.5 597.5 Q177 641 227 665 Q277 689 340 689 Q403 689 454 666.5 Q505 644 532.5 604.5 Q560 565 556 518 L481 518 Q481 567 439 594.5 Q397 622 335 622 Q271 622 233 588 Q195 554 195 504 Q195 470 222 444 Q249 418 304 393 L360 368 Q427 339 465 299.5 Q503 260 503 200 Q503 139 474.5 91.5 Q446 44 393.5 17.5 Q341 -9 273 -9 Q158 -9 91 44 Q24 97 28 196 Z M192 -53 L266 -53 Q255 -99 234 -133 Q213 -167 184 -200 L142 -200 Q175 -124 192 -53 Z " />
<glyph glyph-name="T" unicode="T" horiz-adv-x="541" d="M593 614 L389 614 L248 0 L168 0 L310 614 L106 614 L121 680 L607 680 L593 614 Z " />
<glyph glyph-name="Tbar" unicode="&#x166;" horiz-adv-x="541" d="M389 614 L333 370 L433 370 L420 311 L319 311 L248 0 L168 0 L240 311 L138 311 L151 370 L254 370 L310 614 L106 614 L121 680 L607 680 L593 614 L389 614 Z " />
<glyph glyph-name="Tcaron" unicode="&#x164;" horiz-adv-x="541" d="M593 614 L389 614 L248 0 L168 0 L310 614 L106 614 L121 680 L607 680 L593 614 Z M527 865 Q482 796 431 745 L322 745 Q310 768 299 801 Q288 834 282 865 L338 865 Q345 845 357 821 Q369 797 381 780 Q419 814 461 865 L527 865 Z " />
<glyph glyph-name="uni0162" unicode="&#x162;" horiz-adv-x="541" d="M607 680 L593 614 L389 614 L248 0 L233 0 L203 -40 Q235 -40 257 -56.5 Q279 -73 279 -104 Q279 -145 252 -167 Q225 -189 178 -189 Q147 -189 121 -180 Q95 -171 81 -157 L112 -122 Q122 -131 140.5 -136.5 Q159 -142 178 -142 Q200 -142 212 -132.5 Q224 -123 224 -108 Q224 -81 181 -81 Q164 -81 149 -86 L137 -64 L183 0 L168 0 L310 614 L106 614 L121 680 L607 680 Z " />
<glyph glyph-name="uni021A" unicode="&#x21a;" horiz-adv-x="541" d="M593 614 L389 614 L248 0 L168 0 L310 614 L106 614 L121 680 L607 680 L593 614 Z M159 -53 L233 -53 Q222 -99 201 -133 Q180 -167 151 -200 L109 -200 Q142 -124 159 -53 Z " />
<glyph glyph-name="U" unicode="U" horiz-adv-x="670" d="M674 680 L565 214 Q538 100 472.5 45.5 Q407 -9 299 -9 Q202 -9 141.5 35.5 Q81 80 81 169 Q81 205 89 238 L191 680 L271 680 L167 230 Q160 197 160 178 Q160 118 199.5 87.5 Q239 57 306 57 Q381 57 424 96 Q467 135 487 221 L594 680 L674 680 Z " />
<glyph glyph-name="Uacute" unicode="&#xda;" horiz-adv-x="670" d="M674 680 L565 214 Q538 100 472.5 45.5 Q407 -9 299 -9 Q202 -9 141.5 35.5 Q81 80 81 169 Q81 205 89 238 L191 680 L271 680 L167 230 Q160 197 160 178 Q160 118 199.5 87.5 Q239 57 306 57 Q381 57 424 96 Q467 135 487 221 L594 680 L674 680 Z M481 745 L404 745 Q444 807 499 865 L598 865 Q541 811 481 745 Z " />
<glyph glyph-name="Ucircumflex" unicode="&#xdb;" horiz-adv-x="670" d="M674 680 L565 214 Q538 100 472.5 45.5 Q407 -9 299 -9 Q202 -9 141.5 35.5 Q81 80 81 169 Q81 205 89 238 L191 680 L271 680 L167 230 Q160 197 160 178 Q160 118 199.5 87.5 Q239 57 306 57 Q381 57 424 96 Q467 135 487 221 L594 680 L674 680 Z M512 745 Q505 764 493.5 788.5 Q482 813 470 829 Q433 797 390 745 L323 745 Q366 811 420 865 L529 865 Q541 841 552 808 Q563 775 569 745 L512 745 Z " />
<glyph glyph-name="Udieresis" unicode="&#xdc;" horiz-adv-x="670" d="M674 680 L565 214 Q538 100 472.5 45.5 Q407 -9 299 -9 Q202 -9 141.5 35.5 Q81 80 81 169 Q81 205 89 238 L191 680 L271 680 L167 230 Q160 197 160 178 Q160 118 199.5 87.5 Q239 57 306 57 Q381 57 424 96 Q467 135 487 221 L594 680 L674 680 Z M312 811 Q312 833 327 848 Q342 863 365 863 Q388 863 403 848 Q418 833 418 811 Q418 789 403 774 Q388 759 365 759 Q342 759 327 774 Q312 789 312 811 Z M491 811 Q491 833 506 848 Q521 863 544 863 Q567 863 582 848 Q597 833 597 811 Q597 789 582 774 Q567 759 544 759 Q521 759 506 774 Q491 789 491 811 Z " />
<glyph glyph-name="Ugrave" unicode="&#xd9;" horiz-adv-x="670" d="M674 680 L565 214 Q538 100 472.5 45.5 Q407 -9 299 -9 Q202 -9 141.5 35.5 Q81 80 81 169 Q81 205 89 238 L191 680 L271 680 L167 230 Q160 197 160 178 Q160 118 199.5 87.5 Q239 57 306 57 Q381 57 424 96 Q467 135 487 221 L594 680 L674 680 Z M432 865 Q456 818 471 745 L408 745 Q392 790 346 865 L432 865 Z " />
<glyph glyph-name="Uhungarumlaut" unicode="&#x170;" horiz-adv-x="670" d="M674 680 L565 214 Q538 100 472.5 45.5 Q407 -9 299 -9 Q202 -9 141.5 35.5 Q81 80 81 169 Q81 205 89 238 L191 680 L271 680 L167 230 Q160 197 160 178 Q160 118 199.5 87.5 Q239 57 306 57 Q381 57 424 96 Q467 135 487 221 L594 680 L674 680 Z M414 745 L350 745 Q374 785 434 865 L520 865 Q475 822 414 745 Z M576 776 Q566 764 547 745 L484 745 Q527 807 579 865 L664 865 Q638 839 615.5 816 Q593 793 576 776 Z " />
<glyph glyph-name="Umacron" unicode="&#x16a;" horiz-adv-x="670" d="M674 680 L565 214 Q538 100 472.5 45.5 Q407 -9 299 -9 Q202 -9 141.5 35.5 Q81 80 81 169 Q81 205 89 238 L191 680 L271 680 L167 230 Q160 197 160 178 Q160 118 199.5 87.5 Q239 57 306 57 Q381 57 424 96 Q467 135 487 221 L594 680 L674 680 Z M581 832 L566 769 L340 769 L356 832 L581 832 Z " />
<glyph glyph-name="Uogonek" unicode="&#x172;" horiz-adv-x="670" d="M674 680 L565 214 Q548 137 510.5 89 Q473 41 413 10 Q325 -33 325 -86 Q325 -101 334.5 -109 Q344 -117 367 -117 L377 -117 L366 -165 Q357 -167 336 -167 Q302 -167 282.5 -150.5 Q263 -134 263 -108 Q263 -75 283 -49 Q303 -23 337 -6 Q321 -9 300 -9 Q202 -9 141.5 35.5 Q81 80 81 169 Q81 205 89 238 L191 680 L271 680 L167 230 Q160 197 160 178 Q160 118 199.5 87.5 Q239 57 306 57 Q381 57 424 96 Q467 135 487 221 L594 680 L674 680 Z " />
<glyph glyph-name="Uring" unicode="&#x16e;" horiz-adv-x="670" d="M674 680 L565 214 Q538 100 472.5 45.5 Q407 -9 299 -9 Q202 -9 141.5 35.5 Q81 80 81 169 Q81 205 89 238 L191 680 L271 680 L167 230 Q160 197 160 178 Q160 118 199.5 87.5 Q239 57 306 57 Q381 57 424 96 Q467 135 487 221 L594 680 L674 680 Z M364 819 Q364 858 390.5 883.5 Q417 909 459 909 Q500 909 527 883.5 Q554 858 554 819 Q554 780 527 755 Q500 730 459 730 Q417 730 390.5 755 Q364 780 364 819 Z M508 819 Q508 841 495 855 Q482 869 459 869 Q436 869 422.5 855 Q409 841 409 819 Q409 797 422.5 783 Q436 769 459 769 Q482 769 495 783 Q508 797 508 819 Z " />
<glyph glyph-name="V" unicode="V" horiz-adv-x="600" d="M664 680 Q574 500 473.5 316 Q373 132 298 21 Q290 9 282 4.5 Q274 0 257 0 L218 0 Q201 0 194.5 4.5 Q188 9 186 21 Q163 133 146.5 319 Q130 505 122 680 L201 680 Q205 541 219.5 368 Q234 195 253 79 Q324 196 416.5 368 Q509 540 577 680 L664 680 Z " />
<glyph glyph-name="W" unicode="W" horiz-adv-x="934" d="M986 680 Q923 535 828 343.5 Q733 152 660 21 Q653 9 645 4.5 Q637 0 620 0 L580 0 Q563 0 556.5 4.5 Q550 9 549 21 L526 553 L260 21 Q254 9 245.5 4.5 Q237 0 220 0 L178 0 Q161 0 155 4.5 Q149 9 147 21 Q122 201 122 616 L122 680 L200 680 Q198 602 198 555 Q198 436 203.5 306.5 Q209 177 217 77 L516 680 L589 680 L615 83 Q679 202 760.5 372.5 Q842 543 901 680 L986 680 Z " />
<glyph glyph-name="Wacute" unicode="&#x1e82;" horiz-adv-x="934" d="M986 680 Q923 535 828 343.5 Q733 152 660 21 Q653 9 645 4.5 Q637 0 620 0 L580 0 Q563 0 556.5 4.5 Q550 9 549 21 L526 553 L260 21 Q254 9 245.5 4.5 Q237 0 220 0 L178 0 Q161 0 155 4.5 Q149 9 147 21 Q122 201 122 616 L122 680 L200 680 Q198 602 198 555 Q198 436 203.5 306.5 Q209 177 217 77 L516 680 L589 680 L615 83 Q679 202 760.5 372.5 Q842 543 901 680 L986 680 Z M601 745 L524 745 Q564 807 619 865 L718 865 Q661 811 601 745 Z " />
<glyph glyph-name="Wcircumflex" unicode="&#x174;" horiz-adv-x="934" d="M986 680 Q923 535 828 343.5 Q733 152 660 21 Q653 9 645 4.5 Q637 0 620 0 L580 0 Q563 0 556.5 4.5 Q550 9 549 21 L526 553 L260 21 Q254 9 245.5 4.5 Q237 0 220 0 L178 0 Q161 0 155 4.5 Q149 9 147 21 Q122 201 122 616 L122 680 L200 680 Q198 602 198 555 Q198 436 203.5 306.5 Q209 177 217 77 L516 680 L589 680 L615 83 Q679 202 760.5 372.5 Q842 543 901 680 L986 680 Z M632 745 Q625 764 613.5 788.5 Q602 813 590 829 Q553 797 510 745 L443 745 Q486 811 540 865 L649 865 Q661 841 672 808 Q683 775 689 745 L632 745 Z " />
<glyph glyph-name="Wdieresis" unicode="&#x1e84;" horiz-adv-x="934" d="M986 680 Q923 535 828 343.5 Q733 152 660 21 Q653 9 645 4.5 Q637 0 620 0 L580 0 Q563 0 556.5 4.5 Q550 9 549 21 L526 553 L260 21 Q254 9 245.5 4.5 Q237 0 220 0 L178 0 Q161 0 155 4.5 Q149 9 147 21 Q122 201 122 616 L122 680 L200 680 Q198 602 198 555 Q198 436 203.5 306.5 Q209 177 217 77 L516 680 L589 680 L615 83 Q679 202 760.5 372.5 Q842 543 901 680 L986 680 Z M432 811 Q432 833 447 848 Q462 863 485 863 Q508 863 523 848 Q538 833 538 811 Q538 789 523 774 Q508 759 485 759 Q462 759 447 774 Q432 789 432 811 Z M611 811 Q611 833 626 848 Q641 863 664 863 Q687 863 702 848 Q717 833 717 811 Q717 789 702 774 Q687 759 664 759 Q641 759 626 774 Q611 789 611 811 Z " />
<glyph glyph-name="Wgrave" unicode="&#x1e80;" horiz-adv-x="934" d="M986 680 Q923 535 828 343.5 Q733 152 660 21 Q653 9 645 4.5 Q637 0 620 0 L580 0 Q563 0 556.5 4.5 Q550 9 549 21 L526 553 L260 21 Q254 9 245.5 4.5 Q237 0 220 0 L178 0 Q161 0 155 4.5 Q149 9 147 21 Q122 201 122 616 L122 680 L200 680 Q198 602 198 555 Q198 436 203.5 306.5 Q209 177 217 77 L516 680 L589 680 L615 83 Q679 202 760.5 372.5 Q842 543 901 680 L986 680 Z M552 865 Q576 818 591 745 L528 745 Q512 790 466 865 L552 865 Z " />
<glyph glyph-name="X" unicode="X" horiz-adv-x="578" d="M362 351 Q403 251 432 168.5 Q461 86 483 0 L408 0 Q394 64 366.5 146 Q339 228 307 302 Q252 245 197 172 Q142 99 72 0 L-16 0 Q126 204 272 365 Q214 492 158 680 L234 680 Q250 615 274.5 542.5 Q299 470 327 408 Q428 516 547 680 L634 680 Q510 509 362 351 Z " />
<glyph glyph-name="Y" unicode="Y" horiz-adv-x="563" d="M310 252 L252 0 L173 0 L233 263 Q152 485 115 680 L191 680 Q224 506 287 326 Q427 497 545 680 L632 680 Q492 459 310 252 Z " />
<glyph glyph-name="Yacute" unicode="&#xdd;" horiz-adv-x="563" d="M310 252 L252 0 L173 0 L233 263 Q152 485 115 680 L191 680 Q224 506 287 326 Q427 497 545 680 L632 680 Q492 459 310 252 Z M423 745 L346 745 Q386 807 441 865 L540 865 Q483 811 423 745 Z " />
<glyph glyph-name="Ycircumflex" unicode="&#x176;" horiz-adv-x="563" d="M310 252 L252 0 L173 0 L233 263 Q152 485 115 680 L191 680 Q224 506 287 326 Q427 497 545 680 L632 680 Q492 459 310 252 Z M454 745 Q447 764 435.5 788.5 Q424 813 412 829 Q375 797 332 745 L265 745 Q308 811 362 865 L471 865 Q483 841 494 808 Q505 775 511 745 L454 745 Z " />
<glyph glyph-name="Ydieresis" unicode="&#x178;" horiz-adv-x="563" d="M310 252 L252 0 L173 0 L233 263 Q152 485 115 680 L191 680 Q224 506 287 326 Q427 497 545 680 L632 680 Q492 459 310 252 Z M254 811 Q254 833 269 848 Q284 863 307 863 Q330 863 345 848 Q360 833 360 811 Q360 789 345 774 Q330 759 307 759 Q284 759 269 774 Q254 789 254 811 Z M433 811 Q433 833 448 848 Q463 863 486 863 Q509 863 524 848 Q539 833 539 811 Q539 789 524 774 Q509 759 486 759 Q463 759 448 774 Q433 789 433 811 Z " />
<glyph glyph-name="Ygrave" unicode="&#x1ef2;" horiz-adv-x="563" d="M310 252 L252 0 L173 0 L233 263 Q152 485 115 680 L191 680 Q224 506 287 326 Q427 497 545 680 L632 680 Q492 459 310 252 Z M374 865 Q398 818 413 745 L350 745 Q334 790 288 865 L374 865 Z " />
<glyph glyph-name="Z" unicode="Z" horiz-adv-x="571" d="M610 628 L94 66 L483 66 L468 0 L-18 0 L-6 53 L508 614 L138 614 L152 680 L621 680 L610 628 Z " />
<glyph glyph-name="Zacute" unicode="&#x179;" horiz-adv-x="571" d="M610 628 L94 66 L483 66 L468 0 L-18 0 L-6 53 L508 614 L138 614 L152 680 L621 680 L610 628 Z M436 745 L359 745 Q399 807 454 865 L553 865 Q496 811 436 745 Z " />
<glyph glyph-name="Zcaron" unicode="&#x17d;" horiz-adv-x="571" d="M610 628 L94 66 L483 66 L468 0 L-18 0 L-6 53 L508 614 L138 614 L152 680 L621 680 L610 628 Z M550 865 Q505 796 454 745 L345 745 Q333 768 322 801 Q311 834 305 865 L361 865 Q368 845 380 821 Q392 797 404 780 Q442 814 484 865 L550 865 Z " />
<glyph glyph-name="Zdotaccent" unicode="&#x17b;" horiz-adv-x="571" d="M610 628 L94 66 L483 66 L468 0 L-18 0 L-6 53 L508 614 L138 614 L152 680 L621 680 L610 628 Z M360 812 Q360 834 375 848.5 Q390 863 412 863 Q433 863 448 848.5 Q463 834 463 812 Q463 790 448 775.5 Q433 761 412 761 Q390 761 375 775.5 Q360 790 360 812 Z " />
<glyph glyph-name="a" unicode="a" horiz-adv-x="501" d="M393 113 Q389 97 389 83 Q389 68 396.5 62.5 Q404 57 422 59 L409 1 Q400 -4 383 -4 Q349 -4 332.5 14 Q316 32 316 60 Q267 -8 168 -8 Q104 -8 66 25 Q28 58 28 110 Q28 210 116 253.5 Q204 297 366 312 L368 323 Q372 339 372 358 Q372 394 349.5 414 Q327 434 280 434 Q234 434 204.5 411 Q175 388 161 353 L92 353 Q104 415 157 454.5 Q210 494 286 494 Q362 494 403.5 458.5 Q445 423 445 363 Q445 338 440 318 L393 113 Z M353 257 Q273 247 222 234.5 Q171 222 136.5 194.5 Q102 167 102 119 Q102 90 125 71 Q148 52 188 52 Q244 52 280.5 80.5 Q317 109 330 160 L353 257 Z " />
<glyph glyph-name="aacute" unicode="&#xe1;" horiz-adv-x="501" d="M393 113 Q389 97 389 83 Q389 68 396.5 62.5 Q404 57 422 59 L409 1 Q400 -4 383 -4 Q349 -4 332.5 14 Q316 32 316 60 Q267 -8 168 -8 Q104 -8 66 25 Q28 58 28 110 Q28 210 116 253.5 Q204 297 366 312 L368 323 Q372 339 372 358 Q372 394 349.5 414 Q327 434 280 434 Q234 434 204.5 411 Q175 388 161 353 L92 353 Q104 415 157 454.5 Q210 494 286 494 Q362 494 403.5 458.5 Q445 423 445 363 Q445 338 440 318 L393 113 Z M353 257 Q273 247 222 234.5 Q171 222 136.5 194.5 Q102 167 102 119 Q102 90 125 71 Q148 52 188 52 Q244 52 280.5 80.5 Q317 109 330 160 L353 257 Z M354 560 L277 560 Q317 622 372 680 L471 680 Q414 626 354 560 Z " />
<glyph glyph-name="abreve" unicode="&#x103;" horiz-adv-x="501" d="M393 113 Q389 97 389 83 Q389 68 396.5 62.5 Q404 57 422 59 L409 1 Q400 -4 383 -4 Q349 -4 332.5 14 Q316 32 316 60 Q267 -8 168 -8 Q104 -8 66 25 Q28 58 28 110 Q28 210 116 253.5 Q204 297 366 312 L368 323 Q372 339 372 358 Q372 394 349.5 414 Q327 434 280 434 Q234 434 204.5 411 Q175 388 161 353 L92 353 Q104 415 157 454.5 Q210 494 286 494 Q362 494 403.5 458.5 Q445 423 445 363 Q445 338 440 318 L393 113 Z M353 257 Q273 247 222 234.5 Q171 222 136.5 194.5 Q102 167 102 119 Q102 90 125 71 Q148 52 188 52 Q244 52 280.5 80.5 Q317 109 330 160 L353 257 Z M473 680 Q459 625 423.5 594 Q388 563 331 563 Q281 563 253 588.5 Q225 614 225 658 Q225 666 227 680 L282 680 Q281 676 281 668 Q281 646 293.5 631 Q306 616 334 616 Q391 616 414 680 L473 680 L473 680 Z " />
<glyph glyph-name="acircumflex" unicode="&#xe2;" horiz-adv-x="501" d="M393 113 Q389 97 389 83 Q389 68 396.5 62.5 Q404 57 422 59 L409 1 Q400 -4 383 -4 Q349 -4 332.5 14 Q316 32 316 60 Q267 -8 168 -8 Q104 -8 66 25 Q28 58 28 110 Q28 210 116 253.5 Q204 297 366 312 L368 323 Q372 339 372 358 Q372 394 349.5 414 Q327 434 280 434 Q234 434 204.5 411 Q175 388 161 353 L92 353 Q104 415 157 454.5 Q210 494 286 494 Q362 494 403.5 458.5 Q445 423 445 363 Q445 338 440 318 L393 113 Z M353 257 Q273 247 222 234.5 Q171 222 136.5 194.5 Q102 167 102 119 Q102 90 125 71 Q148 52 188 52 Q244 52 280.5 80.5 Q317 109 330 160 L353 257 Z M385 560 Q378 579 366.5 603.5 Q355 628 343 644 Q306 612 263 560 L196 560 Q239 626 293 680 L402 680 Q414 656 425 623 Q436 590 442 560 L385 560 Z " />
<glyph glyph-name="adieresis" unicode="&#xe4;" horiz-adv-x="501" d="M393 113 Q389 97 389 83 Q389 68 396.5 62.5 Q404 57 422 59 L409 1 Q400 -4 383 -4 Q349 -4 332.5 14 Q316 32 316 60 Q267 -8 168 -8 Q104 -8 66 25 Q28 58 28 110 Q28 210 116 253.5 Q204 297 366 312 L368 323 Q372 339 372 358 Q372 394 349.5 414 Q327 434 280 434 Q234 434 204.5 411 Q175 388 161 353 L92 353 Q104 415 157 454.5 Q210 494 286 494 Q362 494 403.5 458.5 Q445 423 445 363 Q445 338 440 318 L393 113 Z M353 257 Q273 247 222 234.5 Q171 222 136.5 194.5 Q102 167 102 119 Q102 90 125 71 Q148 52 188 52 Q244 52 280.5 80.5 Q317 109 330 160 L353 257 Z M185 626 Q185 648 200 663 Q215 678 238 678 Q261 678 276 663 Q291 648 291 626 Q291 604 276 589 Q261 574 238 574 Q215 574 200 589 Q185 604 185 626 Z M364 626 Q364 648 379 663 Q394 678 417 678 Q440 678 455 663 Q470 648 470 626 Q470 604 455 589 Q440 574 417 574 Q394 574 379 589 Q364 604 364 626 Z " />
<glyph glyph-name="agrave" unicode="&#xe0;" horiz-adv-x="501" d="M393 113 Q389 97 389 83 Q389 68 396.5 62.5 Q404 57 422 59 L409 1 Q400 -4 383 -4 Q349 -4 332.5 14 Q316 32 316 60 Q267 -8 168 -8 Q104 -8 66 25 Q28 58 28 110 Q28 210 116 253.5 Q204 297 366 312 L368 323 Q372 339 372 358 Q372 394 349.5 414 Q327 434 280 434 Q234 434 204.5 411 Q175 388 161 353 L92 353 Q104 415 157 454.5 Q210 494 286 494 Q362 494 403.5 458.5 Q445 423 445 363 Q445 338 440 318 L393 113 Z M353 257 Q273 247 222 234.5 Q171 222 136.5 194.5 Q102 167 102 119 Q102 90 125 71 Q148 52 188 52 Q244 52 280.5 80.5 Q317 109 330 160 L353 257 Z M305 680 Q329 633 344 560 L281 560 Q265 605 219 680 L305 680 Z " />
<glyph glyph-name="amacron" unicode="&#x101;" horiz-adv-x="501" d="M393 113 Q389 97 389 83 Q389 68 396.5 62.5 Q404 57 422 59 L409 1 Q400 -4 383 -4 Q349 -4 332.5 14 Q316 32 316 60 Q267 -8 168 -8 Q104 -8 66 25 Q28 58 28 110 Q28 210 116 253.5 Q204 297 366 312 L368 323 Q372 339 372 358 Q372 394 349.5 414 Q327 434 280 434 Q234 434 204.5 411 Q175 388 161 353 L92 353 Q104 415 157 454.5 Q210 494 286 494 Q362 494 403.5 458.5 Q445 423 445 363 Q445 338 440 318 L393 113 Z M353 257 Q273 247 222 234.5 Q171 222 136.5 194.5 Q102 167 102 119 Q102 90 125 71 Q148 52 188 52 Q244 52 280.5 80.5 Q317 109 330 160 L353 257 Z M454 647 L439 584 L213 584 L229 647 L454 647 Z " />
<glyph glyph-name="aogonek" unicode="&#x105;" horiz-adv-x="501" d="M256 -106 Q256 -68 281.5 -40 Q307 -12 348 4 Q332 12 324 27 Q316 42 316 61 Q266 -8 168 -8 Q104 -8 66 25 Q28 58 28 110 Q28 210 116 253.5 Q204 297 366 312 L368 323 Q372 339 372 358 Q372 394 349.5 414 Q327 434 280 434 Q234 434 204.5 411 Q175 388 161 353 L92 353 Q104 415 157 454.5 Q210 494 286 494 Q362 494 403.5 458.5 Q445 423 445 363 Q445 338 440 318 L393 113 Q389 97 389 83 Q389 68 396.5 62.5 Q404 57 422 59 L409 1 Q379 -8 348.5 -32.5 Q318 -57 318 -86 Q318 -101 327 -109 Q336 -117 359 -117 L369 -117 L358 -165 Q349 -167 329 -167 Q294 -167 275 -150 Q256 -133 256 -106 Z M330 160 L353 257 Q273 247 221.5 234.5 Q170 222 136 194.5 Q102 167 102 119 Q102 90 125 71 Q148 52 188 52 Q244 52 280.5 80.5 Q317 109 330 160 Z " />
<glyph glyph-name="aring" unicode="&#xe5;" horiz-adv-x="501" d="M393 113 Q389 97 389 83 Q389 68 396.5 62.5 Q404 57 422 59 L409 1 Q400 -4 383 -4 Q349 -4 332.5 14 Q316 32 316 60 Q267 -8 168 -8 Q104 -8 66 25 Q28 58 28 110 Q28 210 116 253.5 Q204 297 366 312 L368 323 Q372 339 372 358 Q372 394 349.5 414 Q327 434 280 434 Q234 434 204.5 411 Q175 388 161 353 L92 353 Q104 415 157 454.5 Q210 494 286 494 Q362 494 403.5 458.5 Q445 423 445 363 Q445 338 440 318 L393 113 Z M353 257 Q273 247 222 234.5 Q171 222 136.5 194.5 Q102 167 102 119 Q102 90 125 71 Q148 52 188 52 Q244 52 280.5 80.5 Q317 109 330 160 L353 257 Z M237 634 Q237 673 263.5 698.5 Q290 724 332 724 Q373 724 400 698.5 Q427 673 427 634 Q427 595 400 570 Q373 545 332 545 Q290 545 263.5 570 Q237 595 237 634 Z M381 634 Q381 656 368 670 Q355 684 332 684 Q309 684 295.5 670 Q282 656 282 634 Q282 612 295.5 598 Q309 584 332 584 Q355 584 368 598 Q381 612 381 634 Z " />
<glyph glyph-name="atilde" unicode="&#xe3;" horiz-adv-x="501" d="M393 113 Q389 97 389 83 Q389 68 396.5 62.5 Q404 57 422 59 L409 1 Q400 -4 383 -4 Q349 -4 332.5 14 Q316 32 316 60 Q267 -8 168 -8 Q104 -8 66 25 Q28 58 28 110 Q28 210 116 253.5 Q204 297 366 312 L368 323 Q372 339 372 358 Q372 394 349.5 414 Q327 434 280 434 Q234 434 204.5 411 Q175 388 161 353 L92 353 Q104 415 157 454.5 Q210 494 286 494 Q362 494 403.5 458.5 Q445 423 445 363 Q445 338 440 318 L393 113 Z M353 257 Q273 247 222 234.5 Q171 222 136.5 194.5 Q102 167 102 119 Q102 90 125 71 Q148 52 188 52 Q244 52 280.5 80.5 Q317 109 330 160 L353 257 Z M394 565 Q372 565 356.5 572 Q341 579 321 593 Q306 604 295 609 Q284 614 273 614 Q254 614 242.5 601.5 Q231 589 224 565 L177 565 Q192 620 217.5 646 Q243 672 280 672 Q299 672 313 665 Q327 658 348 644 Q363 633 373.5 627.5 Q384 622 395 622 Q415 622 427.5 636.5 Q440 651 444 671 L490 671 Q476 617 452.5 591 Q429 565 394 565 Z " />
<glyph glyph-name="ae" unicode="&#xe6;" horiz-adv-x="808" d="M769 329 Q769 297 762 265 L756 232 L422 232 Q416 202 416 175 Q416 118 443.5 86 Q471 54 529 54 Q608 54 650 127 L726 127 Q700 65 647 28.5 Q594 -8 523 -8 Q458 -8 416 21 Q374 50 358 103 Q331 53 285.5 22.5 Q240 -8 172 -8 Q107 -8 67.5 25 Q28 58 28 110 Q28 210 116 253.5 Q204 297 366 312 L368 323 Q372 339 372 358 Q372 394 349.5 414 Q327 434 280 434 Q234 434 204.5 411 Q175 388 161 353 L92 353 Q104 415 157 454.5 Q210 494 286 494 Q341 494 378 474 Q415 454 430 417 Q463 455 506 475 Q549 495 596 495 Q679 495 724 451 Q769 407 769 329 Z M436 290 L699 290 Q701 314 701 323 Q701 433 592 433 Q531 433 493 393 Q455 353 436 290 Z M334 177 L353 257 Q273 247 222 234.5 Q171 222 136.5 194.5 Q102 167 102 119 Q102 90 125 71 Q148 52 188 52 Q239 52 279.5 84 Q320 116 334 177 Z " />
<glyph glyph-name="b" unicode="b" horiz-adv-x="554" d="M513 328 Q513 280 502 233 L498 216 Q473 106 411.5 48.5 Q350 -9 269 -9 Q214 -9 176.5 15.5 Q139 40 124 88 L103 0 L33 0 L195 700 L269 700 L204 419 Q234 456 272.5 475 Q311 494 354 494 Q434 494 473.5 450.5 Q513 407 513 328 Z M440 324 Q440 432 342 432 Q276 432 229.5 382 Q183 332 168 262 L164 245 Q156 212 156 176 Q156 118 184 86 Q212 54 265 54 Q326 54 368 103.5 Q410 153 425 223 L429 240 Q440 290 440 324 Z " />
<glyph glyph-name="c" unicode="c" horiz-adv-x="491" d="M224 -9 Q137 -9 90 41 Q43 91 43 176 Q43 212 52 252 L56 269 Q80 379 143.5 436.5 Q207 494 291 494 Q369 494 414.5 451.5 Q460 409 463 335 L392 335 Q390 383 363.5 407.5 Q337 432 289 432 Q225 432 184.5 383 Q144 334 129 262 L125 245 Q115 198 115 169 Q115 54 224 54 Q271 54 306 83.5 Q341 113 360 163 L434 163 Q405 78 349.5 34.5 Q294 -9 224 -9 Z " />
<glyph glyph-name="cacute" unicode="&#x107;" horiz-adv-x="491" d="M224 -9 Q137 -9 90 41 Q43 91 43 176 Q43 212 52 252 L56 269 Q80 379 143.5 436.5 Q207 494 291 494 Q369 494 414.5 451.5 Q460 409 463 335 L392 335 Q390 383 363.5 407.5 Q337 432 289 432 Q225 432 184.5 383 Q144 334 129 262 L125 245 Q115 198 115 169 Q115 54 224 54 Q271 54 306 83.5 Q341 113 360 163 L434 163 Q405 78 349.5 34.5 Q294 -9 224 -9 Z M362 560 L285 560 Q325 622 380 680 L479 680 Q422 626 362 560 Z " />
<glyph glyph-name="ccaron" unicode="&#x10d;" horiz-adv-x="491" d="M224 -9 Q137 -9 90 41 Q43 91 43 176 Q43 212 52 252 L56 269 Q80 379 143.5 436.5 Q207 494 291 494 Q369 494 414.5 451.5 Q460 409 463 335 L392 335 Q390 383 363.5 407.5 Q337 432 289 432 Q225 432 184.5 383 Q144 334 129 262 L125 245 Q115 198 115 169 Q115 54 224 54 Q271 54 306 83.5 Q341 113 360 163 L434 163 Q405 78 349.5 34.5 Q294 -9 224 -9 Z M476 680 Q431 611 380 560 L271 560 Q259 583 248 616 Q237 649 231 680 L287 680 Q294 660 306 636 Q318 612 330 595 Q368 629 410 680 L476 680 Z " />
<glyph glyph-name="ccedilla" unicode="&#xe7;" horiz-adv-x="491" d="M360 163 L434 163 Q405 78 349.5 34.5 Q294 -9 224 -9 L212 -9 L189 -40 Q221 -41 243 -57.5 Q265 -74 265 -104 Q265 -145 237.5 -167 Q210 -189 163 -189 Q132 -189 106.5 -180.5 Q81 -172 66 -157 L97 -122 Q107 -131 125.5 -136.5 Q144 -142 163 -142 Q186 -142 197.5 -133 Q209 -124 209 -108 Q209 -81 166 -81 Q149 -81 134 -86 L122 -64 L166 -2 Q106 14 74.5 60.5 Q43 107 43 176 Q43 212 52 252 L56 269 Q80 379 143.5 436.5 Q207 494 291 494 Q369 494 414.5 451.5 Q460 409 463 335 L392 335 Q390 383 363.5 407.5 Q337 432 289 432 Q225 432 184.5 383 Q144 334 129 262 L125 245 Q115 198 115 169 Q115 54 224 54 Q271 54 306 83.5 Q341 113 360 163 Z " />
<glyph glyph-name="cdotaccent" unicode="&#x10b;" horiz-adv-x="491" d="M224 -9 Q137 -9 90 41 Q43 91 43 176 Q43 212 52 252 L56 269 Q80 379 143.5 436.5 Q207 494 291 494 Q369 494 414.5 451.5 Q460 409 463 335 L392 335 Q390 383 363.5 407.5 Q337 432 289 432 Q225 432 184.5 383 Q144 334 129 262 L125 245 Q115 198 115 169 Q115 54 224 54 Q271 54 306 83.5 Q341 113 360 163 L434 163 Q405 78 349.5 34.5 Q294 -9 224 -9 Z M286 627 Q286 649 301 663.5 Q316 678 338 678 Q359 678 374 663.5 Q389 649 389 627 Q389 605 374 590.5 Q359 576 338 576 Q316 576 301 590.5 Q286 605 286 627 Z " />
<glyph glyph-name="d" unicode="d" horiz-adv-x="550" d="M567 700 L405 0 L335 0 L350 66 Q320 29 281.5 10 Q243 -9 200 -9 Q121 -9 80.5 34.5 Q40 78 40 156 Q40 200 52 252 L56 268 Q82 379 143 436.5 Q204 494 285 494 Q337 494 374 472 Q411 450 427 407 L493 700 L567 700 Z M386 223 L390 240 Q398 273 398 309 Q398 368 369 400 Q340 432 286 432 Q227 431 186 381 Q145 331 129 261 L125 245 Q113 197 113 160 Q113 54 212 54 Q277 54 324 104 Q371 154 386 223 Z " />
<glyph glyph-name="eth" unicode="&#xf0;" horiz-adv-x="520" d="M443 590 Q483 498 483 393 Q483 334 470 272 L461 228 Q438 110 374.5 50.5 Q311 -9 220 -9 Q139 -9 90 35 Q41 79 41 162 Q41 199 49 232 L53 251 Q104 492 286 492 Q329 492 362.5 473.5 Q396 455 409 428 Q409 499 371 572 L237 538 L229 583 L347 613 Q315 662 270 700 L363 700 Q396 674 421 632 L520 657 L528 611 L443 590 Z M398 305 Q398 361 369 395.5 Q340 430 280 430 Q217 430 180.5 380 Q144 330 127 252 L123 233 Q116 196 116 172 Q116 120 141.5 88 Q167 56 222 56 Q292 56 332 106 Q372 156 388 233 L392 252 Q398 279 398 305 Z " />
<glyph glyph-name="dcaron" unicode="&#x10f;" horiz-adv-x="584" d="M567 700 L405 0 L335 0 L350 66 Q320 29 281.5 10 Q243 -9 200 -9 Q121 -9 80.5 34.5 Q40 78 40 156 Q40 200 52 252 L56 268 Q82 379 143 436.5 Q204 494 285 494 Q337 494 374 472 Q411 450 427 407 L493 700 L567 700 Z M386 223 L390 240 Q398 273 398 309 Q398 368 369 400 Q340 432 286 432 Q227 431 186 381 Q145 331 129 261 L125 245 Q113 197 113 160 Q113 54 212 54 Q277 54 324 104 Q371 154 386 223 Z M621 524 L587 524 Q602 559 618.5 608.5 Q635 658 645 700 L715 700 Q690 603 621 524 Z " />
<glyph glyph-name="dslash" unicode="&#x111;" horiz-adv-x="549" d="M611 551 L533 551 L405 0 L335 0 L350 66 Q320 29 281.5 10 Q243 -9 200 -9 Q121 -9 80.5 34.5 Q40 78 40 156 Q40 200 52 252 L56 268 Q82 379 143 436.5 Q204 494 285 494 Q337 494 374 472 Q411 450 427 407 L459 551 L329 551 L342 610 L473 610 L493 700 L567 700 L546 610 L624 610 L611 551 Z M386 223 L390 240 Q398 273 398 309 Q398 368 369 400 Q340 432 286 432 Q227 431 186 381 Q145 331 129 261 L125 245 Q113 197 113 160 Q113 54 212 54 Q277 54 324 104 Q371 154 386 223 Z " />
<glyph glyph-name="e" unicode="e" horiz-adv-x="507" d="M468 330 Q468 297 461 265 L455 232 L121 232 Q115 202 115 175 Q115 118 142.5 86 Q170 54 228 54 Q307 54 349 127 L425 127 Q399 65 346 28.5 Q293 -8 222 -8 Q135 -8 89 41 Q43 90 43 174 Q43 211 52 253 L56 270 Q80 378 146 436.5 Q212 495 296 495 Q379 495 423.5 451.5 Q468 408 468 330 Z M135 290 L399 290 Q401 312 401 321 Q401 433 291 433 Q230 433 192 393 Q154 353 135 290 Z " />
<glyph glyph-name="eacute" unicode="&#xe9;" horiz-adv-x="507" d="M468 330 Q468 297 461 265 L455 232 L121 232 Q115 202 115 175 Q115 118 142.5 86 Q170 54 228 54 Q307 54 349 127 L425 127 Q399 65 346 28.5 Q293 -8 222 -8 Q135 -8 89 41 Q43 90 43 174 Q43 211 52 253 L56 270 Q80 378 146 436.5 Q212 495 296 495 Q379 495 423.5 451.5 Q468 408 468 330 Z M135 290 L399 290 Q401 312 401 321 Q401 433 291 433 Q230 433 192 393 Q154 353 135 290 Z M363 560 L286 560 Q326 622 381 680 L480 680 Q423 626 363 560 Z " />
<glyph glyph-name="ecaron" unicode="&#x11b;" horiz-adv-x="507" d="M468 330 Q468 297 461 265 L455 232 L121 232 Q115 202 115 175 Q115 118 142.5 86 Q170 54 228 54 Q307 54 349 127 L425 127 Q399 65 346 28.5 Q293 -8 222 -8 Q135 -8 89 41 Q43 90 43 174 Q43 211 52 253 L56 270 Q80 378 146 436.5 Q212 495 296 495 Q379 495 423.5 451.5 Q468 408 468 330 Z M135 290 L399 290 Q401 312 401 321 Q401 433 291 433 Q230 433 192 393 Q154 353 135 290 Z M477 680 Q432 611 381 560 L272 560 Q260 583 249 616 Q238 649 232 680 L288 680 Q295 660 307 636 Q319 612 331 595 Q369 629 411 680 L477 680 Z " />
<glyph glyph-name="ecircumflex" unicode="&#xea;" horiz-adv-x="507" d="M468 330 Q468 297 461 265 L455 232 L121 232 Q115 202 115 175 Q115 118 142.5 86 Q170 54 228 54 Q307 54 349 127 L425 127 Q399 65 346 28.5 Q293 -8 222 -8 Q135 -8 89 41 Q43 90 43 174 Q43 211 52 253 L56 270 Q80 378 146 436.5 Q212 495 296 495 Q379 495 423.5 451.5 Q468 408 468 330 Z M135 290 L399 290 Q401 312 401 321 Q401 433 291 433 Q230 433 192 393 Q154 353 135 290 Z M394 560 Q387 579 375.5 603.5 Q364 628 352 644 Q315 612 272 560 L205 560 Q248 626 302 680 L411 680 Q423 656 434 623 Q445 590 451 560 L394 560 Z " />
<glyph glyph-name="edieresis" unicode="&#xeb;" horiz-adv-x="507" d="M468 330 Q468 297 461 265 L455 232 L121 232 Q115 202 115 175 Q115 118 142.5 86 Q170 54 228 54 Q307 54 349 127 L425 127 Q399 65 346 28.5 Q293 -8 222 -8 Q135 -8 89 41 Q43 90 43 174 Q43 211 52 253 L56 270 Q80 378 146 436.5 Q212 495 296 495 Q379 495 423.5 451.5 Q468 408 468 330 Z M135 290 L399 290 Q401 312 401 321 Q401 433 291 433 Q230 433 192 393 Q154 353 135 290 Z M194 626 Q194 648 209 663 Q224 678 247 678 Q270 678 285 663 Q300 648 300 626 Q300 604 285 589 Q270 574 247 574 Q224 574 209 589 Q194 604 194 626 Z M373 626 Q373 648 388 663 Q403 678 426 678 Q449 678 464 663 Q479 648 479 626 Q479 604 464 589 Q449 574 426 574 Q403 574 388 589 Q373 604 373 626 Z " />
<glyph glyph-name="edotaccent" unicode="&#x117;" horiz-adv-x="507" d="M468 330 Q468 297 461 265 L455 232 L121 232 Q115 202 115 175 Q115 118 142.5 86 Q170 54 228 54 Q307 54 349 127 L425 127 Q399 65 346 28.5 Q293 -8 222 -8 Q135 -8 89 41 Q43 90 43 174 Q43 211 52 253 L56 270 Q80 378 146 436.5 Q212 495 296 495 Q379 495 423.5 451.5 Q468 408 468 330 Z M135 290 L399 290 Q401 312 401 321 Q401 433 291 433 Q230 433 192 393 Q154 353 135 290 Z M287 627 Q287 649 302 663.5 Q317 678 339 678 Q360 678 375 663.5 Q390 649 390 627 Q390 605 375 590.5 Q360 576 339 576 Q317 576 302 590.5 Q287 605 287 627 Z " />
<glyph glyph-name="egrave" unicode="&#xe8;" horiz-adv-x="507" d="M468 330 Q468 297 461 265 L455 232 L121 232 Q115 202 115 175 Q115 118 142.5 86 Q170 54 228 54 Q307 54 349 127 L425 127 Q399 65 346 28.5 Q293 -8 222 -8 Q135 -8 89 41 Q43 90 43 174 Q43 211 52 253 L56 270 Q80 378 146 436.5 Q212 495 296 495 Q379 495 423.5 451.5 Q468 408 468 330 Z M135 290 L399 290 Q401 312 401 321 Q401 433 291 433 Q230 433 192 393 Q154 353 135 290 Z M314 680 Q338 633 353 560 L290 560 Q274 605 228 680 L314 680 Z " />
<glyph glyph-name="emacron" unicode="&#x113;" horiz-adv-x="507" d="M468 330 Q468 297 461 265 L455 232 L121 232 Q115 202 115 175 Q115 118 142.5 86 Q170 54 228 54 Q307 54 349 127 L425 127 Q399 65 346 28.5 Q293 -8 222 -8 Q135 -8 89 41 Q43 90 43 174 Q43 211 52 253 L56 270 Q80 378 146 436.5 Q212 495 296 495 Q379 495 423.5 451.5 Q468 408 468 330 Z M135 290 L399 290 Q401 312 401 321 Q401 433 291 433 Q230 433 192 393 Q154 353 135 290 Z M463 647 L448 584 L222 584 L238 647 L463 647 Z " />
<glyph glyph-name="eogonek" unicode="&#x119;" horiz-adv-x="507" d="M468 330 Q468 297 461 265 L455 232 L122 232 Q116 201 116 173 Q116 117 143.5 85.5 Q171 54 228 54 Q307 54 349 127 L425 127 Q412 94 390.5 69 Q369 44 330 16 Q292 -13 272 -36.5 Q252 -60 252 -86 Q252 -101 261 -109 Q270 -117 293 -117 L303 -117 L292 -165 Q283 -167 263 -167 Q228 -167 209 -150.5 Q190 -134 190 -108 Q190 -78 205.5 -53.5 Q221 -29 251 -6 Q229 -8 220 -8 Q135 -8 89 41.5 Q43 91 43 175 Q43 211 52 253 L56 270 Q80 378 146 436.5 Q212 495 296 495 Q379 495 423.5 451.5 Q468 408 468 330 Z M401 321 Q401 433 291 433 Q231 433 192 393 Q153 353 135 290 L399 290 Q401 312 401 321 Z " />
<glyph glyph-name="f" unicode="f" horiz-adv-x="324" d="M397 700 L383 639 Q359 641 351 641 Q306 641 283 620 Q260 599 249 547 L235 485 L342 485 L328 427 L221 427 L123 0 L49 0 L147 427 L67 427 L81 485 L160 485 L178 563 Q194 631 238.5 668 Q283 705 351 705 Q379 705 397 700 Z " />
<glyph glyph-name="g" unicode="g" horiz-adv-x="541" d="M508 485 L397 8 Q376 -83 322.5 -126 Q269 -169 183 -169 Q103 -169 54.5 -134 Q6 -99 0 -38 L76 -38 Q79 -68 106 -89 Q133 -110 185 -110 Q297 -110 327 16 L345 91 Q288 20 199 20 Q133 20 88.5 63.5 Q44 107 44 185 Q44 213 52 251 L57 273 Q82 383 139 438.5 Q196 494 276 494 Q331 494 367.5 470 Q404 446 419 401 L438 485 L508 485 Z M378 246 L382 261 Q389 288 389 317 Q389 368 362 400.5 Q335 433 279 433 Q218 433 181 387.5 Q144 342 129 270 L125 253 Q117 216 117 187 Q117 83 216 83 Q279 83 320.5 129 Q362 175 378 246 Z " />
<glyph glyph-name="gbreve" unicode="&#x11f;" horiz-adv-x="541" d="M508 485 L397 8 Q376 -83 322.5 -126 Q269 -169 183 -169 Q103 -169 54.5 -134 Q6 -99 0 -38 L76 -38 Q79 -68 106 -89 Q133 -110 185 -110 Q297 -110 327 16 L345 91 Q288 20 199 20 Q133 20 88.5 63.5 Q44 107 44 185 Q44 213 52 251 L57 273 Q82 383 139 438.5 Q196 494 276 494 Q331 494 367.5 470 Q404 446 419 401 L438 485 L508 485 Z M378 246 L382 261 Q389 288 389 317 Q389 368 362 400.5 Q335 433 279 433 Q218 433 181 387.5 Q144 342 129 270 L125 253 Q117 216 117 187 Q117 83 216 83 Q279 83 320.5 129 Q362 175 378 246 Z M492 680 Q478 625 442.5 594 Q407 563 350 563 Q300 563 272 588.5 Q244 614 244 658 Q244 666 246 680 L301 680 Q300 676 300 668 Q300 646 312.5 631 Q325 616 353 616 Q410 616 433 680 L492 680 L492 680 Z " />
<glyph glyph-name="uni0123" unicode="&#x123;" horiz-adv-x="541" d="M508 485 L397 8 Q376 -83 322.5 -126 Q269 -169 183 -169 Q103 -169 54.5 -134 Q6 -99 0 -38 L76 -38 Q79 -68 106 -89 Q133 -110 185 -110 Q297 -110 327 16 L345 91 Q288 20 199 20 Q133 20 88.5 63.5 Q44 107 44 185 Q44 213 52 251 L57 273 Q82 383 139 438.5 Q196 494 276 494 Q331 494 367.5 470 Q404 446 419 401 L438 485 L508 485 Z M378 246 L382 261 Q389 288 389 317 Q389 368 362 400.5 Q335 433 279 433 Q218 433 181 387.5 Q144 342 129 270 L125 253 Q117 216 117 187 Q117 83 216 83 Q279 83 320.5 129 Q362 175 378 246 Z M367 568 L293 568 Q304 614 325 648 Q346 682 375 715 L417 715 Q384 639 367 568 Z " />
<glyph glyph-name="gdotaccent" unicode="&#x121;" horiz-adv-x="541" d="M508 485 L397 8 Q376 -83 322.5 -126 Q269 -169 183 -169 Q103 -169 54.5 -134 Q6 -99 0 -38 L76 -38 Q79 -68 106 -89 Q133 -110 185 -110 Q297 -110 327 16 L345 91 Q288 20 199 20 Q133 20 88.5 63.5 Q44 107 44 185 Q44 213 52 251 L57 273 Q82 383 139 438.5 Q196 494 276 494 Q331 494 367.5 470 Q404 446 419 401 L438 485 L508 485 Z M378 246 L382 261 Q389 288 389 317 Q389 368 362 400.5 Q335 433 279 433 Q218 433 181 387.5 Q144 342 129 270 L125 253 Q117 216 117 187 Q117 83 216 83 Q279 83 320.5 129 Q362 175 378 246 Z M297 627 Q297 649 312 663.5 Q327 678 349 678 Q370 678 385 663.5 Q400 649 400 627 Q400 605 385 590.5 Q370 576 349 576 Q327 576 312 590.5 Q297 605 297 627 Z " />
<glyph glyph-name="h" unicode="h" horiz-adv-x="552" d="M495 355 Q495 333 489 306 L418 0 L344 0 L413 300 Q419 327 419 350 Q419 431 332 431 Q272 431 230 392 Q188 353 175 298 L107 0 L33 0 L195 700 L269 700 L205 425 Q228 453 265 473 Q302 493 352 493 Q415 493 455 456 Q495 419 495 355 Z " />
<glyph glyph-name="hbar" unicode="&#x127;" horiz-adv-x="552" d="M495 355 Q495 333 489 306 L418 0 L344 0 L413 300 Q419 327 419 350 Q419 431 332 431 Q272 431 230 392 Q188 353 175 298 L107 0 L33 0 L161 555 L81 555 L94 614 L175 614 L195 700 L269 700 L249 614 L376 614 L363 555 L235 555 L205 425 Q228 453 265 473 Q302 493 352 493 Q415 493 455 456 Q495 419 495 355 Z " />
<glyph glyph-name="i" unicode="i" horiz-adv-x="245" d="M104 0 L30 0 L141 485 L215 485 L104 0 Z M153 627 Q153 649 168 663.5 Q183 678 205 678 Q226 678 241 663.5 Q256 649 256 627 Q256 605 241 590.5 Q226 576 205 576 Q183 576 168 590.5 Q153 605 153 627 Z " />
<glyph glyph-name="dotlessi" unicode="&#x131;" horiz-adv-x="245" d="M104 0 L30 0 L141 485 L215 485 L104 0 Z " />
<glyph glyph-name="iacute" unicode="&#xed;" horiz-adv-x="245" d="M104 0 L30 0 L141 485 L215 485 L104 0 Z M229 560 L152 560 Q192 622 247 680 L346 680 Q289 626 229 560 Z " />
<glyph glyph-name="icircumflex" unicode="&#xee;" horiz-adv-x="245" d="M104 0 L30 0 L141 485 L215 485 L104 0 Z M260 560 Q253 579 241.5 603.5 Q230 628 218 644 Q181 612 138 560 L71 560 Q114 626 168 680 L277 680 Q289 656 300 623 Q311 590 317 560 L260 560 Z " />
<glyph glyph-name="idieresis" unicode="&#xef;" horiz-adv-x="245" d="M104 0 L30 0 L141 485 L215 485 L104 0 Z M60 626 Q60 648 75 663 Q90 678 113 678 Q136 678 151 663 Q166 648 166 626 Q166 604 151 589 Q136 574 113 574 Q90 574 75 589 Q60 604 60 626 Z M239 626 Q239 648 254 663 Q269 678 292 678 Q315 678 330 663 Q345 648 345 626 Q345 604 330 589 Q315 574 292 574 Q269 574 254 589 Q239 604 239 626 Z " />
<glyph glyph-name="igrave" unicode="&#xec;" horiz-adv-x="245" d="M104 0 L30 0 L141 485 L215 485 L104 0 Z M180 680 Q204 633 219 560 L156 560 Q140 605 94 680 L180 680 Z " />
<glyph glyph-name="imacron" unicode="&#x12b;" horiz-adv-x="245" d="M104 0 L30 0 L141 485 L215 485 L104 0 Z M329 647 L314 584 L88 584 L104 647 L329 647 Z " />
<glyph glyph-name="iogonek" unicode="&#x12f;" horiz-adv-x="245" d="M257 627 Q257 605 242 590.5 Q227 576 205 576 Q184 576 169 590.5 Q154 605 154 627 Q154 649 169 663.5 Q184 678 205 678 Q227 678 242 663.5 Q257 649 257 627 Z M141 485 L215 485 L104 0 Q71 -13 46.5 -37.5 Q22 -62 22 -86 Q22 -101 31 -109 Q40 -117 63 -117 L73 -117 L62 -165 Q53 -167 32 -167 Q-2 -167 -21.5 -149.5 Q-41 -132 -41 -106 Q-41 -70 -18 -43 Q5 -16 44 0 L30 0 L141 485 Z " />
<glyph glyph-name="j" unicode="j" horiz-adv-x="245" d="M154 627 Q154 649 169 663.5 Q184 678 205 678 Q227 678 242 663.5 Q257 649 257 627 Q257 605 242 590.5 Q227 576 205 576 Q184 576 169 590.5 Q154 605 154 627 Z M-71 -99 Q-38 -97 -10 -74.5 Q18 -52 31 4 L141 485 L215 485 L107 14 Q85 -84 40 -123.5 Q-5 -163 -84 -162 L-71 -99 Z " />
<glyph glyph-name="k" unicode="k" horiz-adv-x="500" d="M321 274 Q355 201 381.5 128.5 Q408 56 419 0 L348 0 Q337 50 314 114 Q291 178 266 229 Q200 178 139 137 L107 0 L33 0 L195 700 L269 700 L158 218 Q339 359 437 485 L521 485 Q438 374 321 274 Z " />
<glyph glyph-name="uni0137" unicode="&#x137;" horiz-adv-x="500" d="M321 274 Q355 201 381.5 128.5 Q408 56 419 0 L348 0 Q337 50 314 114 Q291 178 266 229 Q200 178 139 137 L107 0 L33 0 L195 700 L269 700 L158 218 Q339 359 437 485 L521 485 Q438 374 321 274 Z M163 -53 L237 -53 Q226 -99 205 -133 Q184 -167 155 -200 L113 -200 Q146 -124 163 -53 Z " />
<glyph glyph-name="l" unicode="l" horiz-adv-x="260" d="M132 121 Q129 106 129 95 Q129 71 144 61.5 Q159 52 189 54 L177 1 Q168 -3 145 -3 Q99 -3 76.5 18.5 Q54 40 54 80 Q54 96 59 121 L192 700 L266 700 L132 121 Z " />
<glyph glyph-name="lacute" unicode="&#x13a;" horiz-adv-x="260" d="M132 121 Q129 106 129 95 Q129 71 144 61.5 Q159 52 189 54 L177 1 Q168 -3 145 -3 Q99 -3 76.5 18.5 Q54 40 54 80 Q54 96 59 121 L192 700 L266 700 L132 121 Z M282 766 L205 766 Q245 828 300 886 L399 886 Q342 832 282 766 Z " />
<glyph glyph-name="lcaron" unicode="&#x13e;" horiz-adv-x="284" d="M132 121 Q129 106 129 95 Q129 71 144 61.5 Q159 52 189 54 L177 1 Q168 -3 145 -3 Q99 -3 76.5 18.5 Q54 40 54 80 Q54 96 59 121 L192 700 L266 700 L132 121 Z M320 524 L286 524 Q301 559 317.5 608.5 Q334 658 344 700 L414 700 Q389 603 320 524 Z " />
<glyph glyph-name="uni013C" unicode="&#x13c;" horiz-adv-x="260" d="M132 121 Q129 106 129 95 Q129 71 144 61.5 Q159 52 189 54 L177 1 Q168 -3 145 -3 Q99 -3 76.5 18.5 Q54 40 54 80 Q54 96 59 121 L192 700 L266 700 L132 121 Z M50 -53 L124 -53 Q113 -99 92 -133 Q71 -167 42 -200 L0 -200 Q33 -124 50 -53 Z " />
<glyph glyph-name="lslash" unicode="&#x142;" horiz-adv-x="302" d="M148 121 Q144 101 144 94 Q144 70 159.5 61 Q175 52 205 54 L193 1 Q182 -3 161 -3 Q115 -3 92.5 18.5 Q70 40 70 79 Q70 102 75 121 L121 320 L38 275 L53 341 L136 386 L208 700 L282 700 L220 432 L316 485 L300 418 L205 366 L148 121 Z " />
<glyph glyph-name="m" unicode="m" horiz-adv-x="822" d="M766 360 Q766 333 759 306 L688 0 L614 0 L683 300 Q690 328 690 356 Q690 431 612 431 Q555 431 517 392.5 Q479 354 466 298 L397 0 L323 0 L392 300 Q399 335 399 355 Q399 391 381 411 Q363 431 321 431 Q263 431 225.5 392.5 Q188 354 175 298 L107 0 L33 0 L145 485 L215 485 L200 418 Q220 449 256.5 471 Q293 493 347 493 Q391 493 423 471 Q455 449 468 408 Q532 493 633 493 Q693 493 729.5 457.5 Q766 422 766 360 Z " />
<glyph glyph-name="n" unicode="n" horiz-adv-x="552" d="M495 355 Q495 333 489 306 L418 0 L344 0 L413 300 Q419 327 419 350 Q419 431 332 431 Q272 431 230 392 Q188 353 175 298 L107 0 L33 0 L145 485 L215 485 L200 418 Q221 449 259.5 471 Q298 493 352 493 Q415 493 455 456 Q495 419 495 355 Z " />
<glyph glyph-name="nacute" unicode="&#x144;" horiz-adv-x="552" d="M495 355 Q495 333 489 306 L418 0 L344 0 L413 300 Q419 327 419 350 Q419 431 332 431 Q272 431 230 392 Q188 353 175 298 L107 0 L33 0 L145 485 L215 485 L200 418 Q221 449 259.5 471 Q298 493 352 493 Q415 493 455 456 Q495 419 495 355 Z M385 569 L308 569 Q348 631 403 689 L502 689 Q445 635 385 569 Z " />
<glyph glyph-name="ncaron" unicode="&#x148;" horiz-adv-x="552" d="M495 355 Q495 333 489 306 L418 0 L344 0 L413 300 Q419 327 419 350 Q419 431 332 431 Q272 431 230 392 Q188 353 175 298 L107 0 L33 0 L145 485 L215 485 L200 418 Q221 449 259.5 471 Q298 493 352 493 Q415 493 455 456 Q495 419 495 355 Z M499 689 Q454 620 403 569 L294 569 Q282 592 271 625 Q260 658 254 689 L310 689 Q317 669 329 645 Q341 621 353 604 Q391 638 433 689 L499 689 Z " />
<glyph glyph-name="uni0146" unicode="&#x146;" horiz-adv-x="552" d="M495 355 Q495 333 489 306 L418 0 L344 0 L413 300 Q419 327 419 350 Q419 431 332 431 Q272 431 230 392 Q188 353 175 298 L107 0 L33 0 L145 485 L215 485 L200 418 Q221 449 259.5 471 Q298 493 352 493 Q415 493 455 456 Q495 419 495 355 Z M178 -53 L252 -53 Q241 -99 220 -133 Q199 -167 170 -200 L128 -200 Q161 -124 178 -53 Z " />
<glyph glyph-name="eng" unicode="&#x14b;" horiz-adv-x="552" d="M495 355 Q495 333 489 306 L418 0 L344 0 L413 300 Q419 327 419 350 Q419 431 332 431 Q272 431 230 392 Q188 353 175 298 L107 0 L33 0 L145 485 L215 485 L200 418 Q221 449 259.5 471 Q298 493 352 493 Q415 493 455 456 Q495 419 495 355 Z " />
<glyph glyph-name="ntilde" unicode="&#xf1;" horiz-adv-x="552" d="M495 355 Q495 333 489 306 L418 0 L344 0 L413 300 Q419 327 419 350 Q419 431 332 431 Q272 431 230 392 Q188 353 175 298 L107 0 L33 0 L145 485 L215 485 L200 418 Q221 449 259.5 471 Q298 493 352 493 Q415 493 455 456 Q495 419 495 355 Z M425 574 Q403 574 387.5 581 Q372 588 352 602 Q337 613 326 618 Q315 623 304 623 Q285 623 273.5 610.5 Q262 598 255 574 L208 574 Q223 629 248.5 655 Q274 681 311 681 Q330 681 344 674 Q358 667 379 653 Q394 642 404.5 636.5 Q415 631 426 631 Q446 631 458.5 645.5 Q471 660 475 680 L521 680 Q507 626 483.5 600 Q460 574 425 574 Z " />
<glyph glyph-name="o" unicode="o" horiz-adv-x="515" d="M43 174 Q43 212 52 252 L56 269 Q81 379 144.5 436.5 Q208 494 292 494 Q380 494 426.5 446 Q473 398 473 314 Q473 274 463 233 L459 216 Q435 106 371 48.5 Q307 -9 223 -9 Q136 -9 89.5 40.5 Q43 90 43 174 Z M386 223 L390 240 Q400 287 400 317 Q400 431 288 431 Q225 431 185 382.5 Q145 334 129 262 L125 245 Q115 198 115 170 Q115 54 227 54 Q290 54 330.5 103 Q371 152 386 223 Z " />
<glyph glyph-name="oacute" unicode="&#xf3;" horiz-adv-x="515" d="M43 174 Q43 212 52 252 L56 269 Q81 379 144.5 436.5 Q208 494 292 494 Q380 494 426.5 446 Q473 398 473 314 Q473 274 463 233 L459 216 Q435 106 371 48.5 Q307 -9 223 -9 Q136 -9 89.5 40.5 Q43 90 43 174 Z M386 223 L390 240 Q400 287 400 317 Q400 431 288 431 Q225 431 185 382.5 Q145 334 129 262 L125 245 Q115 198 115 170 Q115 54 227 54 Q290 54 330.5 103 Q371 152 386 223 Z M364 560 L287 560 Q327 622 382 680 L481 680 Q424 626 364 560 Z " />
<glyph glyph-name="ocircumflex" unicode="&#xf4;" horiz-adv-x="515" d="M43 174 Q43 212 52 252 L56 269 Q81 379 144.5 436.5 Q208 494 292 494 Q380 494 426.5 446 Q473 398 473 314 Q473 274 463 233 L459 216 Q435 106 371 48.5 Q307 -9 223 -9 Q136 -9 89.5 40.5 Q43 90 43 174 Z M386 223 L390 240 Q400 287 400 317 Q400 431 288 431 Q225 431 185 382.5 Q145 334 129 262 L125 245 Q115 198 115 170 Q115 54 227 54 Q290 54 330.5 103 Q371 152 386 223 Z M395 560 Q388 579 376.5 603.5 Q365 628 353 644 Q316 612 273 560 L206 560 Q249 626 303 680 L412 680 Q424 656 435 623 Q446 590 452 560 L395 560 Z " />
<glyph glyph-name="odieresis" unicode="&#xf6;" horiz-adv-x="515" d="M43 174 Q43 212 52 252 L56 269 Q81 379 144.5 436.5 Q208 494 292 494 Q380 494 426.5 446 Q473 398 473 314 Q473 274 463 233 L459 216 Q435 106 371 48.5 Q307 -9 223 -9 Q136 -9 89.5 40.5 Q43 90 43 174 Z M386 223 L390 240 Q400 287 400 317 Q400 431 288 431 Q225 431 185 382.5 Q145 334 129 262 L125 245 Q115 198 115 170 Q115 54 227 54 Q290 54 330.5 103 Q371 152 386 223 Z M195 626 Q195 648 210 663 Q225 678 248 678 Q271 678 286 663 Q301 648 301 626 Q301 604 286 589 Q271 574 248 574 Q225 574 210 589 Q195 604 195 626 Z M374 626 Q374 648 389 663 Q404 678 427 678 Q450 678 465 663 Q480 648 480 626 Q480 604 465 589 Q450 574 427 574 Q404 574 389 589 Q374 604 374 626 Z " />
<glyph glyph-name="ograve" unicode="&#xf2;" horiz-adv-x="515" d="M43 174 Q43 212 52 252 L56 269 Q81 379 144.5 436.5 Q208 494 292 494 Q380 494 426.5 446 Q473 398 473 314 Q473 274 463 233 L459 216 Q435 106 371 48.5 Q307 -9 223 -9 Q136 -9 89.5 40.5 Q43 90 43 174 Z M386 223 L390 240 Q400 287 400 317 Q400 431 288 431 Q225 431 185 382.5 Q145 334 129 262 L125 245 Q115 198 115 170 Q115 54 227 54 Q290 54 330.5 103 Q371 152 386 223 Z M315 680 Q339 633 354 560 L291 560 Q275 605 229 680 L315 680 Z " />
<glyph glyph-name="ohungarumlaut" unicode="&#x151;" horiz-adv-x="515" d="M43 174 Q43 212 52 252 L56 269 Q81 379 144.5 436.5 Q208 494 292 494 Q380 494 426.5 446 Q473 398 473 314 Q473 274 463 233 L459 216 Q435 106 371 48.5 Q307 -9 223 -9 Q136 -9 89.5 40.5 Q43 90 43 174 Z M386 223 L390 240 Q400 287 400 317 Q400 431 288 431 Q225 431 185 382.5 Q145 334 129 262 L125 245 Q115 198 115 170 Q115 54 227 54 Q290 54 330.5 103 Q371 152 386 223 Z M297 560 L233 560 Q257 600 317 680 L403 680 Q358 637 297 560 Z M459 591 Q449 579 430 560 L367 560 Q410 622 462 680 L547 680 Q521 654 498.5 631 Q476 608 459 591 Z " />
<glyph glyph-name="omacron" unicode="&#x14d;" horiz-adv-x="515" d="M43 174 Q43 212 52 252 L56 269 Q81 379 144.5 436.5 Q208 494 292 494 Q380 494 426.5 446 Q473 398 473 314 Q473 274 463 233 L459 216 Q435 106 371 48.5 Q307 -9 223 -9 Q136 -9 89.5 40.5 Q43 90 43 174 Z M386 223 L390 240 Q400 287 400 317 Q400 431 288 431 Q225 431 185 382.5 Q145 334 129 262 L125 245 Q115 198 115 170 Q115 54 227 54 Q290 54 330.5 103 Q371 152 386 223 Z M464 647 L449 584 L223 584 L239 647 L464 647 Z " />
<glyph glyph-name="oslash" unicode="&#xf8;" horiz-adv-x="515" d="M473 314 Q473 281 463 233 L459 216 Q435 106 371 48.5 Q307 -9 223 -9 Q160 -9 118 18 L84 -28 L44 -2 L82 49 Q43 97 43 175 Q43 212 52 252 L56 269 Q81 379 144.5 436.5 Q208 494 292 494 Q353 494 394 471 L429 518 L469 492 L431 441 Q473 395 473 314 Z M115 169 Q115 136 126 109 L354 416 Q329 431 288 431 Q225 431 185 382.5 Q145 334 129 262 L125 245 Q115 198 115 169 Z M400 316 Q400 355 387 381 L158 71 Q184 54 227 54 Q290 54 330.5 103 Q371 152 386 223 L390 240 Q400 280 400 316 Z " />
<glyph glyph-name="otilde" unicode="&#xf5;" horiz-adv-x="515" d="M43 174 Q43 212 52 252 L56 269 Q81 379 144.5 436.5 Q208 494 292 494 Q380 494 426.5 446 Q473 398 473 314 Q473 274 463 233 L459 216 Q435 106 371 48.5 Q307 -9 223 -9 Q136 -9 89.5 40.5 Q43 90 43 174 Z M386 223 L390 240 Q400 287 400 317 Q400 431 288 431 Q225 431 185 382.5 Q145 334 129 262 L125 245 Q115 198 115 170 Q115 54 227 54 Q290 54 330.5 103 Q371 152 386 223 Z M404 565 Q382 565 366.5 572 Q351 579 331 593 Q316 604 305 609 Q294 614 283 614 Q264 614 252.5 601.5 Q241 589 234 565 L187 565 Q202 620 227.5 646 Q253 672 290 672 Q309 672 323 665 Q337 658 358 644 Q373 633 383.5 627.5 Q394 622 405 622 Q425 622 437.5 636.5 Q450 651 454 671 L500 671 Q486 617 462.5 591 Q439 565 404 565 Z " />
<glyph glyph-name="oe" unicode="&#x153;" horiz-adv-x="849" d="M811 328 Q811 296 804 265 L797 232 L464 232 Q458 201 458 174 Q458 118 485.5 86 Q513 54 570 54 Q649 54 691 127 L768 127 Q741 65 688 28.5 Q635 -8 564 -8 Q503 -8 461.5 17 Q420 42 402 88 Q369 40 323 15.5 Q277 -9 223 -9 Q136 -9 89.5 40.5 Q43 90 43 174 Q43 212 52 252 L56 269 Q81 379 144.5 436.5 Q208 494 292 494 Q354 494 395.5 469 Q437 444 455 398 Q489 445 537 470 Q585 495 638 495 Q721 495 766 450.5 Q811 406 811 328 Z M477 290 L741 290 Q743 312 743 321 Q743 433 634 433 Q573 433 534.5 393 Q496 353 477 290 Z M386 223 L390 240 Q400 287 400 317 Q400 431 288 431 Q225 431 185 382.5 Q145 334 129 262 L125 245 Q115 198 115 170 Q115 54 227 54 Q290 54 330.5 103 Q371 152 386 223 Z " />
<glyph glyph-name="p" unicode="p" horiz-adv-x="551" d="M510 328 Q510 280 499 233 L495 216 Q470 106 408.5 48.5 Q347 -9 266 -9 Q214 -9 177 13 Q140 35 124 78 L70 -160 L-4 -160 L146 485 L216 485 L201 421 Q262 494 350 494 Q431 494 470.5 450.5 Q510 407 510 328 Z M437 324 Q437 432 339 432 Q273 432 226 382 Q179 332 164 262 L161 245 Q153 212 153 176 Q153 118 181 86 Q209 54 262 54 Q323 54 365 103.5 Q407 153 422 223 L426 240 Q437 290 437 324 Z " />
<glyph glyph-name="thorn" unicode="&#xfe;" horiz-adv-x="551" d="M510 328 Q510 280 499 233 L495 216 Q470 106 408.5 48.5 Q347 -9 266 -9 Q214 -9 177 13 Q140 35 124 78 L70 -160 L-4 -160 L196 700 L270 700 L206 426 Q235 460 272 477 Q309 494 350 494 Q431 494 470.5 450.5 Q510 407 510 328 Z M437 324 Q437 432 339 432 Q273 432 226 382 Q179 332 164 262 L161 245 Q153 212 153 176 Q153 118 181 86 Q209 54 262 54 Q323 54 365 103.5 Q407 153 422 223 L426 240 Q437 290 437 324 Z " />
<glyph glyph-name="q" unicode="q" horiz-adv-x="546" d="M520 485 L370 -160 L296 -160 L348 64 Q318 28 280 9.5 Q242 -9 200 -9 Q121 -9 80.5 34.5 Q40 78 40 156 Q40 200 52 252 L56 268 Q82 379 143 436.5 Q204 494 285 494 Q340 494 377 470 Q414 446 430 399 L450 485 L520 485 Z M386 223 L390 240 Q398 273 398 309 Q398 368 369 400 Q340 432 286 432 Q227 431 186 381 Q145 331 129 261 L125 245 Q113 197 113 160 Q113 54 212 54 Q277 54 324 104 Q371 154 386 223 Z " />
<glyph glyph-name="r" unicode="r" horiz-adv-x="369" d="M401 485 L384 412 Q366 415 344 415 Q275 415 228.5 371 Q182 327 166 255 L107 0 L33 0 L146 485 L216 485 L192 383 Q214 425 258 457 Q302 489 360 489 Q385 489 401 485 Z " />
<glyph glyph-name="racute" unicode="&#x155;" horiz-adv-x="369" d="M401 485 L384 412 Q366 415 344 415 Q275 415 228.5 371 Q182 327 166 255 L107 0 L33 0 L146 485 L216 485 L192 383 Q214 425 258 457 Q302 489 360 489 Q385 489 401 485 Z M326 560 L249 560 Q289 622 344 680 L443 680 Q386 626 326 560 Z " />
<glyph glyph-name="rcaron" unicode="&#x159;" horiz-adv-x="369" d="M401 485 L384 412 Q366 415 344 415 Q275 415 228.5 371 Q182 327 166 255 L107 0 L33 0 L146 485 L216 485 L192 383 Q214 425 258 457 Q302 489 360 489 Q385 489 401 485 Z M440 680 Q395 611 344 560 L235 560 Q223 583 212 616 Q201 649 195 680 L251 680 Q258 660 270 636 Q282 612 294 595 Q332 629 374 680 L440 680 Z " />
<glyph glyph-name="uni0157" unicode="&#x157;" horiz-adv-x="369" d="M401 485 L384 412 Q366 415 344 415 Q275 415 228.5 371 Q182 327 166 255 L107 0 L33 0 L146 485 L216 485 L192 383 Q214 425 258 457 Q302 489 360 489 Q385 489 401 485 Z M22 -53 L96 -53 Q85 -99 64 -133 Q43 -167 14 -200 L-28 -200 Q5 -124 22 -53 Z " />
<glyph glyph-name="s" unicode="s" horiz-adv-x="444" d="M21 142 L90 142 Q90 99 121.5 75 Q153 51 205 51 Q253 51 281.5 72.5 Q310 94 310 138 Q310 163 292.5 180.5 Q275 198 236 213 L196 230 Q145 251 114 280 Q83 309 83 353 Q83 416 128.5 455 Q174 494 246 494 Q322 494 367 457.5 Q412 421 414 365 L346 365 Q343 395 317.5 415 Q292 435 242 435 Q202 435 178 416 Q154 397 154 361 Q154 337 174 320 Q194 303 234 287 L269 272 Q324 248 353 218 Q382 188 382 147 Q382 74 333.5 32.5 Q285 -9 204 -9 Q118 -9 67.5 30 Q17 69 21 142 Z " />
<glyph glyph-name="sacute" unicode="&#x15b;" horiz-adv-x="444" d="M21 142 L90 142 Q90 99 121.5 75 Q153 51 205 51 Q253 51 281.5 72.5 Q310 94 310 138 Q310 163 292.5 180.5 Q275 198 236 213 L196 230 Q145 251 114 280 Q83 309 83 353 Q83 416 128.5 455 Q174 494 246 494 Q322 494 367 457.5 Q412 421 414 365 L346 365 Q343 395 317.5 415 Q292 435 242 435 Q202 435 178 416 Q154 397 154 361 Q154 337 174 320 Q194 303 234 287 L269 272 Q324 248 353 218 Q382 188 382 147 Q382 74 333.5 32.5 Q285 -9 204 -9 Q118 -9 67.5 30 Q17 69 21 142 Z M331 560 L254 560 Q294 622 349 680 L448 680 Q391 626 331 560 Z " />
<glyph glyph-name="scaron" unicode="&#x161;" horiz-adv-x="444" d="M21 142 L90 142 Q90 99 121.5 75 Q153 51 205 51 Q253 51 281.5 72.5 Q310 94 310 138 Q310 163 292.5 180.5 Q275 198 236 213 L196 230 Q145 251 114 280 Q83 309 83 353 Q83 416 128.5 455 Q174 494 246 494 Q322 494 367 457.5 Q412 421 414 365 L346 365 Q343 395 317.5 415 Q292 435 242 435 Q202 435 178 416 Q154 397 154 361 Q154 337 174 320 Q194 303 234 287 L269 272 Q324 248 353 218 Q382 188 382 147 Q382 74 333.5 32.5 Q285 -9 204 -9 Q118 -9 67.5 30 Q17 69 21 142 Z M445 680 Q400 611 349 560 L240 560 Q228 583 217 616 Q206 649 200 680 L256 680 Q263 660 275 636 Q287 612 299 595 Q337 629 379 680 L445 680 Z " />
<glyph glyph-name="scedilla" unicode="&#x15f;" horiz-adv-x="444" d="M382 147 Q382 74 333.5 32.5 Q285 -9 204 -9 L201 -9 L177 -40 Q209 -40 231 -56.5 Q253 -73 253 -104 Q253 -145 226 -167 Q199 -189 152 -189 Q121 -189 95 -180 Q69 -171 55 -157 L86 -122 Q96 -131 114.5 -136.5 Q133 -142 152 -142 Q174 -142 186 -132.5 Q198 -123 198 -108 Q198 -81 155 -81 Q138 -81 123 -86 L111 -64 L153 -5 Q89 6 53 43.5 Q17 81 21 142 L90 142 Q90 99 121.5 75 Q153 51 205 51 Q253 51 281.5 72.5 Q310 94 310 138 Q310 163 292.5 180.5 Q275 198 236 213 L196 230 Q145 251 114 280 Q83 309 83 353 Q83 416 128.5 455 Q174 494 246 494 Q322 494 367 457.5 Q412 421 414 365 L346 365 Q343 395 317.5 415 Q292 435 242 435 Q202 435 178 416 Q154 397 154 361 Q154 337 174 320 Q194 303 234 287 L269 272 Q324 248 353 218 Q382 188 382 147 Z " />
<glyph glyph-name="uni0219" unicode="&#x219;" horiz-adv-x="444" d="M21 142 L90 142 Q90 99 121.5 75 Q153 51 205 51 Q253 51 281.5 72.5 Q310 94 310 138 Q310 163 292.5 180.5 Q275 198 236 213 L196 230 Q145 251 114 280 Q83 309 83 353 Q83 416 128.5 455 Q174 494 246 494 Q322 494 367 457.5 Q412 421 414 365 L346 365 Q343 395 317.5 415 Q292 435 242 435 Q202 435 178 416 Q154 397 154 361 Q154 337 174 320 Q194 303 234 287 L269 272 Q324 248 353 218 Q382 188 382 147 Q382 74 333.5 32.5 Q285 -9 204 -9 Q118 -9 67.5 30 Q17 69 21 142 Z M133 -53 L207 -53 Q196 -99 175 -133 Q154 -167 125 -200 L83 -200 Q116 -124 133 -53 Z " />
<glyph glyph-name="germandbls" unicode="&#xdf;" horiz-adv-x="539" d="M486 219 Q486 156 458 105 Q430 54 380 24.5 Q330 -5 266 -5 Q206 -5 173 7 L188 72 Q212 60 268 60 Q334 60 374 104 Q414 148 414 214 Q414 271 375 303.5 Q336 336 274 341 L289 404 Q296 403 310 403 Q351 403 385.5 421.5 Q420 440 440.5 473 Q461 506 461 549 Q461 593 437 617.5 Q413 642 365 642 Q312 642 275.5 604.5 Q239 567 223 500 L107 0 L33 0 L150 511 Q171 603 229.5 654 Q288 705 367 705 Q444 705 487.5 665 Q531 625 531 554 Q531 487 491.5 434 Q452 381 392 365 Q431 351 458.5 310 Q486 269 486 219 Z " />
<glyph glyph-name="t" unicode="t" horiz-adv-x="323" d="M71 80 Q71 103 77 128 L146 427 L67 427 L81 485 L161 485 L190 612 L264 612 L235 485 L342 485 L328 427 L221 427 L155 140 Q150 115 150 102 Q150 79 162.5 68.5 Q175 58 206 58 Q222 58 244 61 L231 3 Q203 -5 172 -5 Q71 -5 71 80 Z " />
<glyph glyph-name="tbar" unicode="&#x167;" horiz-adv-x="323" d="M221 427 L188 285 L285 285 L271 224 L174 224 L155 140 Q150 115 150 102 Q150 79 162.5 68.5 Q175 58 206 58 Q222 58 244 61 L231 3 Q203 -5 172 -5 Q71 -5 71 80 Q71 103 77 128 L99 224 L10 224 L24 285 L113 285 L146 427 L67 427 L81 485 L161 485 L190 612 L264 612 L235 485 L342 485 L328 427 L221 427 Z " />
<glyph glyph-name="tcaron" unicode="&#x165;" horiz-adv-x="323" d="M71 80 Q71 103 77 128 L146 427 L67 427 L81 485 L161 485 L190 612 L264 612 L235 485 L342 485 L328 427 L221 427 L155 140 Q150 115 150 102 Q150 79 162.5 68.5 Q175 58 206 58 Q222 58 244 61 L231 3 Q203 -5 172 -5 Q71 -5 71 80 Z M353 558 L319 558 Q334 593 350.5 642.5 Q367 692 377 734 L447 734 Q422 637 353 558 Z " />
<glyph glyph-name="uni0163" unicode="&#x163;" horiz-adv-x="323" d="M155 140 Q150 115 150 102 Q150 79 162.5 68.5 Q175 58 206 58 Q222 58 244 61 L231 3 Q203 -5 172 -5 Q155 -5 147 -4 L120 -40 Q152 -41 174 -57.5 Q196 -74 196 -104 Q196 -145 168.5 -167 Q141 -189 94 -189 Q63 -189 37.5 -180.5 Q12 -172 -3 -157 L28 -122 Q38 -131 56.5 -136.5 Q75 -142 94 -142 Q117 -142 128.5 -133 Q140 -124 140 -108 Q140 -81 97 -81 Q80 -81 65 -86 L53 -64 L105 9 L106 9 Q71 29 71 80 Q71 101 77 128 L146 427 L67 427 L81 485 L161 485 L190 612 L264 612 L235 485 L342 485 L328 427 L221 427 L155 140 Z " />
<glyph glyph-name="uni021B" unicode="&#x21b;" horiz-adv-x="323" d="M71 80 Q71 103 77 128 L146 427 L67 427 L81 485 L161 485 L190 612 L264 612 L235 485 L342 485 L328 427 L221 427 L155 140 Q150 115 150 102 Q150 79 162.5 68.5 Q175 58 206 58 Q222 58 244 61 L231 3 Q203 -5 172 -5 Q71 -5 71 80 Z M75 -53 L149 -53 Q138 -99 117 -133 Q96 -167 67 -200 L25 -200 Q58 -124 75 -53 Z " />
<glyph glyph-name="u" unicode="u" horiz-adv-x="543" d="M510 485 L398 0 L328 0 L343 66 Q322 36 284.5 14.5 Q247 -7 191 -7 Q127 -7 91.5 26.5 Q56 60 56 122 Q56 150 63 179 L134 485 L208 485 L139 185 Q133 158 133 135 Q133 54 213 54 Q273 54 314 93 Q355 132 368 188 L436 485 L510 485 Z " />
<glyph glyph-name="uacute" unicode="&#xfa;" horiz-adv-x="543" d="M510 485 L398 0 L328 0 L343 66 Q322 36 284.5 14.5 Q247 -7 191 -7 Q127 -7 91.5 26.5 Q56 60 56 122 Q56 150 63 179 L134 485 L208 485 L139 185 Q133 158 133 135 Q133 54 213 54 Q273 54 314 93 Q355 132 368 188 L436 485 L510 485 Z M367 560 L290 560 Q330 622 385 680 L484 680 Q427 626 367 560 Z " />
<glyph glyph-name="ucircumflex" unicode="&#xfb;" horiz-adv-x="543" d="M510 485 L398 0 L328 0 L343 66 Q322 36 284.5 14.5 Q247 -7 191 -7 Q127 -7 91.5 26.5 Q56 60 56 122 Q56 150 63 179 L134 485 L208 485 L139 185 Q133 158 133 135 Q133 54 213 54 Q273 54 314 93 Q355 132 368 188 L436 485 L510 485 Z M398 560 Q391 579 379.5 603.5 Q368 628 356 644 Q319 612 276 560 L209 560 Q252 626 306 680 L415 680 Q427 656 438 623 Q449 590 455 560 L398 560 Z " />
<glyph glyph-name="udieresis" unicode="&#xfc;" horiz-adv-x="543" d="M510 485 L398 0 L328 0 L343 66 Q322 36 284.5 14.5 Q247 -7 191 -7 Q127 -7 91.5 26.5 Q56 60 56 122 Q56 150 63 179 L134 485 L208 485 L139 185 Q133 158 133 135 Q133 54 213 54 Q273 54 314 93 Q355 132 368 188 L436 485 L510 485 Z M198 626 Q198 648 213 663 Q228 678 251 678 Q274 678 289 663 Q304 648 304 626 Q304 604 289 589 Q274 574 251 574 Q228 574 213 589 Q198 604 198 626 Z M377 626 Q377 648 392 663 Q407 678 430 678 Q453 678 468 663 Q483 648 483 626 Q483 604 468 589 Q453 574 430 574 Q407 574 392 589 Q377 604 377 626 Z " />
<glyph glyph-name="ugrave" unicode="&#xf9;" horiz-adv-x="543" d="M510 485 L398 0 L328 0 L343 66 Q322 36 284.5 14.5 Q247 -7 191 -7 Q127 -7 91.5 26.5 Q56 60 56 122 Q56 150 63 179 L134 485 L208 485 L139 185 Q133 158 133 135 Q133 54 213 54 Q273 54 314 93 Q355 132 368 188 L436 485 L510 485 Z M318 680 Q342 633 357 560 L294 560 Q278 605 232 680 L318 680 Z " />
<glyph glyph-name="uhungarumlaut" unicode="&#x171;" horiz-adv-x="543" d="M510 485 L398 0 L328 0 L343 66 Q322 36 284.5 14.5 Q247 -7 191 -7 Q127 -7 91.5 26.5 Q56 60 56 122 Q56 150 63 179 L134 485 L208 485 L139 185 Q133 158 133 135 Q133 54 213 54 Q273 54 314 93 Q355 132 368 188 L436 485 L510 485 Z M300 560 L236 560 Q260 600 320 680 L406 680 Q361 637 300 560 Z M462 591 Q452 579 433 560 L370 560 Q413 622 465 680 L550 680 Q524 654 501.5 631 Q479 608 462 591 Z " />
<glyph glyph-name="umacron" unicode="&#x16b;" horiz-adv-x="543" d="M510 485 L398 0 L328 0 L343 66 Q322 36 284.5 14.5 Q247 -7 191 -7 Q127 -7 91.5 26.5 Q56 60 56 122 Q56 150 63 179 L134 485 L208 485 L139 185 Q133 158 133 135 Q133 54 213 54 Q273 54 314 93 Q355 132 368 188 L436 485 L510 485 Z M467 647 L452 584 L226 584 L242 647 L467 647 Z " />
<glyph glyph-name="uogonek" unicode="&#x173;" horiz-adv-x="543" d="M316 -86 Q316 -101 325 -109 Q334 -117 357 -117 L368 -117 L356 -165 Q348 -167 327 -167 Q292 -167 273 -150 Q254 -133 254 -106 Q254 -70 277 -43 Q300 -16 338 0 L328 0 L343 66 Q322 36 284.5 14.5 Q247 -7 191 -7 Q127 -7 91.5 26.5 Q56 60 56 122 Q56 150 63 179 L134 485 L208 485 L139 185 Q133 158 133 135 Q133 54 213 54 Q273 54 314 93 Q355 132 368 188 L436 485 L510 485 L398 0 Q365 -13 340.5 -37.5 Q316 -62 316 -86 Z " />
<glyph glyph-name="uring" unicode="&#x16f;" horiz-adv-x="543" d="M510 485 L398 0 L328 0 L343 66 Q322 36 284.5 14.5 Q247 -7 191 -7 Q127 -7 91.5 26.5 Q56 60 56 122 Q56 150 63 179 L134 485 L208 485 L139 185 Q133 158 133 135 Q133 54 213 54 Q273 54 314 93 Q355 132 368 188 L436 485 L510 485 Z M250 634 Q250 673 276.5 698.5 Q303 724 345 724 Q386 724 413 698.5 Q440 673 440 634 Q440 595 413 570 Q386 545 345 545 Q303 545 276.5 570 Q250 595 250 634 Z M394 634 Q394 656 381 670 Q368 684 345 684 Q322 684 308.5 670 Q295 656 295 634 Q295 612 308.5 598 Q322 584 345 584 Q368 584 381 598 Q394 612 394 634 Z " />
<glyph glyph-name="v" unicode="v" horiz-adv-x="474" d="M496 485 Q443 379 372 251.5 Q301 124 237 19 Q230 8 224.5 4 Q219 0 207 0 L151 0 Q139 0 135 4 Q131 8 129 19 Q113 125 101.5 251.5 Q90 378 85 485 L158 485 Q159 398 168 284.5 Q177 171 191 63 Q249 159 309 272.5 Q369 386 416 485 L496 485 Z " />
<glyph glyph-name="w" unicode="w" horiz-adv-x="738" d="M756 485 Q627 199 517 19 Q510 8 504.5 4 Q499 0 487 0 L433 0 Q421 0 416.5 4.5 Q412 9 411 19 L396 375 L220 19 Q214 9 208 4.5 Q202 0 190 0 L132 0 Q120 0 116 4 Q112 8 110 19 Q87 166 87 418 L87 485 L159 485 Q157 409 157 364 Q157 195 169 57 L383 485 L455 485 L470 59 Q522 154 578 269.5 Q634 385 677 485 L756 485 Z " />
<glyph glyph-name="wacute" unicode="&#x1e83;" horiz-adv-x="738" d="M756 485 Q627 199 517 19 Q510 8 504.5 4 Q499 0 487 0 L433 0 Q421 0 416.5 4.5 Q412 9 411 19 L396 375 L220 19 Q214 9 208 4.5 Q202 0 190 0 L132 0 Q120 0 116 4 Q112 8 110 19 Q87 166 87 418 L87 485 L159 485 Q157 409 157 364 Q157 195 169 57 L383 485 L455 485 L470 59 Q522 154 578 269.5 Q634 385 677 485 L756 485 Z M472 560 L395 560 Q435 622 490 680 L589 680 Q532 626 472 560 Z " />
<glyph glyph-name="wcircumflex" unicode="&#x175;" horiz-adv-x="738" d="M756 485 Q627 199 517 19 Q510 8 504.5 4 Q499 0 487 0 L433 0 Q421 0 416.5 4.5 Q412 9 411 19 L396 375 L220 19 Q214 9 208 4.5 Q202 0 190 0 L132 0 Q120 0 116 4 Q112 8 110 19 Q87 166 87 418 L87 485 L159 485 Q157 409 157 364 Q157 195 169 57 L383 485 L455 485 L470 59 Q522 154 578 269.5 Q634 385 677 485 L756 485 Z M503 560 Q496 579 484.5 603.5 Q473 628 461 644 Q424 612 381 560 L314 560 Q357 626 411 680 L520 680 Q532 656 543 623 Q554 590 560 560 L503 560 Z " />
<glyph glyph-name="wdieresis" unicode="&#x1e85;" horiz-adv-x="738" d="M756 485 Q627 199 517 19 Q510 8 504.5 4 Q499 0 487 0 L433 0 Q421 0 416.5 4.5 Q412 9 411 19 L396 375 L220 19 Q214 9 208 4.5 Q202 0 190 0 L132 0 Q120 0 116 4 Q112 8 110 19 Q87 166 87 418 L87 485 L159 485 Q157 409 157 364 Q157 195 169 57 L383 485 L455 485 L470 59 Q522 154 578 269.5 Q634 385 677 485 L756 485 Z M303 626 Q303 648 318 663 Q333 678 356 678 Q379 678 394 663 Q409 648 409 626 Q409 604 394 589 Q379 574 356 574 Q333 574 318 589 Q303 604 303 626 Z M482 626 Q482 648 497 663 Q512 678 535 678 Q558 678 573 663 Q588 648 588 626 Q588 604 573 589 Q558 574 535 574 Q512 574 497 589 Q482 604 482 626 Z " />
<glyph glyph-name="wgrave" unicode="&#x1e81;" horiz-adv-x="738" d="M756 485 Q627 199 517 19 Q510 8 504.5 4 Q499 0 487 0 L433 0 Q421 0 416.5 4.5 Q412 9 411 19 L396 375 L220 19 Q214 9 208 4.5 Q202 0 190 0 L132 0 Q120 0 116 4 Q112 8 110 19 Q87 166 87 418 L87 485 L159 485 Q157 409 157 364 Q157 195 169 57 L383 485 L455 485 L470 59 Q522 154 578 269.5 Q634 385 677 485 L756 485 Z M423 680 Q447 633 462 560 L399 560 Q383 605 337 680 L423 680 Z " />
<glyph glyph-name="x" unicode="x" horiz-adv-x="456" d="M280 249 Q328 137 369 0 L296 0 Q266 110 226 204 Q133 100 60 0 L-24 0 Q73 128 187 256 Q135 371 100 485 L174 485 Q205 377 242 296 Q319 383 395 485 L480 485 Q390 367 280 249 Z " />
<glyph glyph-name="y" unicode="y" horiz-adv-x="472" d="M494 485 Q450 381 374 249.5 Q298 118 221 4.5 Q144 -109 101 -160 L20 -160 Q54 -119 139 5 Q115 108 100.5 241.5 Q86 375 84 485 L155 485 Q155 400 165 293 Q175 186 193 79 Q250 165 310.5 274.5 Q371 384 417 485 L494 485 Z " />
<glyph glyph-name="yacute" unicode="&#xfd;" horiz-adv-x="472" d="M494 485 Q450 381 374 249.5 Q298 118 221 4.5 Q144 -109 101 -160 L20 -160 Q54 -119 139 5 Q115 108 100.5 241.5 Q86 375 84 485 L155 485 Q155 400 165 293 Q175 186 193 79 Q250 165 310.5 274.5 Q371 384 417 485 L494 485 Z M336 560 L259 560 Q299 622 354 680 L453 680 Q396 626 336 560 Z " />
<glyph glyph-name="ycircumflex" unicode="&#x177;" horiz-adv-x="472" d="M494 485 Q450 381 374 249.5 Q298 118 221 4.5 Q144 -109 101 -160 L20 -160 Q54 -119 139 5 Q115 108 100.5 241.5 Q86 375 84 485 L155 485 Q155 400 165 293 Q175 186 193 79 Q250 165 310.5 274.5 Q371 384 417 485 L494 485 Z M367 560 Q360 579 348.5 603.5 Q337 628 325 644 Q288 612 245 560 L178 560 Q221 626 275 680 L384 680 Q396 656 407 623 Q418 590 424 560 L367 560 Z " />
<glyph glyph-name="ydieresis" unicode="&#xff;" horiz-adv-x="472" d="M494 485 Q450 381 374 249.5 Q298 118 221 4.5 Q144 -109 101 -160 L20 -160 Q54 -119 139 5 Q115 108 100.5 241.5 Q86 375 84 485 L155 485 Q155 400 165 293 Q175 186 193 79 Q250 165 310.5 274.5 Q371 384 417 485 L494 485 Z M167 626 Q167 648 182 663 Q197 678 220 678 Q243 678 258 663 Q273 648 273 626 Q273 604 258 589 Q243 574 220 574 Q197 574 182 589 Q167 604 167 626 Z M346 626 Q346 648 361 663 Q376 678 399 678 Q422 678 437 663 Q452 648 452 626 Q452 604 437 589 Q422 574 399 574 Q376 574 361 589 Q346 604 346 626 Z " />
<glyph glyph-name="ygrave" unicode="&#x1ef3;" horiz-adv-x="472" d="M494 485 Q450 381 374 249.5 Q298 118 221 4.5 Q144 -109 101 -160 L20 -160 Q54 -119 139 5 Q115 108 100.5 241.5 Q86 375 84 485 L155 485 Q155 400 165 293 Q175 186 193 79 Q250 165 310.5 274.5 Q371 384 417 485 L494 485 Z M287 680 Q311 633 326 560 L263 560 Q247 605 201 680 L287 680 Z " />
<glyph glyph-name="z" unicode="z" horiz-adv-x="455" d="M452 433 L101 63 L377 63 L363 0 L-10 0 L1 51 L352 422 L91 422 L105 485 L463 485 L452 433 Z " />
<glyph glyph-name="zacute" unicode="&#x17a;" horiz-adv-x="455" d="M452 433 L101 63 L377 63 L363 0 L-10 0 L1 51 L352 422 L91 422 L105 485 L463 485 L452 433 Z M333 560 L256 560 Q296 622 351 680 L450 680 Q393 626 333 560 Z " />
<glyph glyph-name="zcaron" unicode="&#x17e;" horiz-adv-x="455" d="M452 433 L101 63 L377 63 L363 0 L-10 0 L1 51 L352 422 L91 422 L105 485 L463 485 L452 433 Z M447 680 Q402 611 351 560 L242 560 Q230 583 219 616 Q208 649 202 680 L258 680 Q265 660 277 636 Q289 612 301 595 Q339 629 381 680 L447 680 Z " />
<glyph glyph-name="zdotaccent" unicode="&#x17c;" horiz-adv-x="455" d="M452 433 L101 63 L377 63 L363 0 L-10 0 L1 51 L352 422 L91 422 L105 485 L463 485 L452 433 Z M257 627 Q257 649 272 663.5 Q287 678 309 678 Q330 678 345 663.5 Q360 649 360 627 Q360 605 345 590.5 Q330 576 309 576 Q287 576 272 590.5 Q257 605 257 627 Z " />
<glyph glyph-name="zero" unicode="0" horiz-adv-x="560" d="M59 199 Q59 263 77 332 L90 386 Q128 543 199.5 616 Q271 689 359 689 Q454 689 499 634 Q544 579 544 484 Q544 424 525 348 L512 294 Q474 137 402.5 64 Q331 -9 243 -9 Q149 -9 104 47.5 Q59 104 59 199 Z M438 305 L448 350 Q465 423 465 482 Q465 621 358 621 Q286 621 237 552 Q188 483 164 375 L154 330 Q136 253 136 198 Q136 59 244 59 Q316 59 365 128 Q414 197 438 305 Z " />
<glyph glyph-name="one" unicode="1" horiz-adv-x="560" d="M453 680 L297 0 L220 0 L349 562 Q314 530 265 507.5 Q216 485 173 476 L188 545 Q235 559 292.5 599 Q350 639 393 680 L453 680 Z " />
<glyph glyph-name="two" unicode="2" horiz-adv-x="560" d="M140 66 L449 66 L433 0 L15 0 L30 61 Q142 137 229.5 205 Q317 273 389 359.5 Q461 446 461 525 Q461 571 433.5 596.5 Q406 622 355 622 Q295 622 254.5 584 Q214 546 196 483 L122 483 Q142 574 203.5 631.5 Q265 689 358 689 Q443 689 490 646 Q537 603 537 531 Q537 448 472.5 358.5 Q408 269 317.5 194 Q227 119 140 66 Z " />
<glyph glyph-name="three" unicode="3" horiz-adv-x="560" d="M474 216 Q474 153 445 101.5 Q416 50 364.5 20.5 Q313 -9 249 -9 Q156 -9 104 35.5 Q52 80 52 162 Q52 180 53 189 L126 189 Q125 183 125 170 Q125 118 159 88 Q193 58 253 58 Q297 58 330 79.5 Q363 101 381 137 Q399 173 399 215 Q399 269 362 297 Q325 325 263 329 L277 388 Q295 386 304 386 Q346 386 381 404 Q416 422 436.5 455 Q457 488 457 530 Q457 572 430.5 597 Q404 622 352 622 Q300 622 262.5 590.5 Q225 559 207 504 L133 504 Q148 563 183 604.5 Q218 646 264 667 Q310 688 359 688 Q442 688 488 648 Q534 608 534 541 Q534 498 514.5 457.5 Q495 417 462 388 Q429 359 391 350 Q428 334 451 298.5 Q474 263 474 216 Z " />
<glyph glyph-name="four" unicode="4" horiz-adv-x="560" d="M512 162 L430 162 L393 0 L316 0 L353 162 L32 162 L40 194 Q49 230 63 253 Q116 336 224.5 468.5 Q333 601 415 680 L510 680 Q419 592 309 460.5 Q199 329 131 229 L368 229 L410 412 L487 412 L445 229 L528 229 L512 162 Z " />
<glyph glyph-name="five" unicode="5" horiz-adv-x="560" d="M503 271 Q503 193 473.5 129.5 Q444 66 386.5 28.5 Q329 -9 251 -9 Q154 -9 101.5 43.5 Q49 96 51 185 L125 185 Q123 121 158 89 Q193 57 254 57 Q337 57 381 117.5 Q425 178 425 268 Q425 318 393.5 350 Q362 382 308 382 Q263 382 225.5 363 Q188 344 165 313 L97 322 Q110 372 150.5 490 Q191 608 221 680 L554 680 L539 614 L266 614 Q235 537 191 399 Q214 421 248 434.5 Q282 448 325 448 Q407 448 455 398.5 Q503 349 503 271 Z " />
<glyph glyph-name="six" unicode="6" horiz-adv-x="560" d="M506 275 Q506 200 472.5 135 Q439 70 380 30.5 Q321 -9 249 -9 Q157 -9 106 43.5 Q55 96 55 180 Q55 210 63 247 L69 272 Q87 347 136 425.5 Q185 504 251 571 Q317 638 384 680 L496 680 Q396 612 325.5 546.5 Q255 481 201 397 Q219 418 251 432.5 Q283 447 325 447 Q409 447 457.5 400.5 Q506 354 506 275 Z M428 269 Q428 324 396.5 353.5 Q365 383 301 383 Q249 383 210.5 354.5 Q172 326 151 279 Q130 232 130 178 Q130 121 163 90 Q196 59 257 59 Q308 59 347 89 Q386 119 407 167.5 Q428 216 428 269 Z " />
<glyph glyph-name="seven" unicode="7" horiz-adv-x="560" d="M563 680 L549 618 Q486 491 355.5 287.5 Q225 84 159 0 L70 0 Q166 126 281 303.5 Q396 481 466 614 L125 614 L140 680 L563 680 Z " />
<glyph glyph-name="eight" unicode="8" horiz-adv-x="560" d="M388 356 Q487 286 487 197 Q487 137 455 89.5 Q423 42 368 15.5 Q313 -11 249 -11 Q186 -11 138.5 11 Q91 33 65 72 Q39 111 39 158 Q39 237 91.5 293 Q144 349 230 376 Q154 437 154 511 Q154 564 180.5 605 Q207 646 253 668.5 Q299 691 356 691 Q440 691 491.5 650 Q543 609 543 543 Q543 476 500.5 429 Q458 382 388 356 Z M469 536 Q469 575 438 601 Q407 627 353 627 Q296 627 263 597 Q230 567 230 519 Q230 488 252.5 457.5 Q275 427 327 394 Q390 410 429.5 446.5 Q469 483 469 536 Z M408 192 Q408 233 379 265.5 Q350 298 289 336 Q215 319 166.5 272 Q118 225 118 163 Q118 116 154 85 Q190 54 253 54 Q297 54 332.5 72.5 Q368 91 388 122.5 Q408 154 408 192 Z " />
<glyph glyph-name="nine" unicode="9" horiz-adv-x="560" d="M547 500 Q547 470 539 433 L533 408 Q515 333 465.5 254.5 Q416 176 350 109 Q284 42 217 0 L106 0 Q206 68 276.5 133.5 Q347 199 401 283 Q383 262 351 247.5 Q319 233 277 233 Q193 233 144.5 279.5 Q96 326 96 405 Q96 480 129.5 545 Q163 610 221.5 649.5 Q280 689 352 689 Q444 689 495.5 636.5 Q547 584 547 500 Z M472 502 Q472 559 439 590 Q406 621 345 621 Q294 621 255 591 Q216 561 195 512.5 Q174 464 174 411 Q174 356 205.5 326.5 Q237 297 301 297 Q353 297 391.5 325.5 Q430 354 451 401 Q472 448 472 502 Z " />
<glyph glyph-name="uni00B9" unicode="&#xb9;" horiz-adv-x="335" d="M322 720 L226 306 L162 306 L235 619 Q209 601 178 586 Q147 571 124 565 L137 621 Q222 664 276 720 L322 720 Z " />
<glyph glyph-name="uni00B2" unicode="&#xb2;" horiz-adv-x="407" d="M184 362 L356 362 L343 308 L68 308 L79 356 Q191 422 266 486.5 Q341 551 341 619 Q341 643 326.5 657 Q312 671 285 671 Q250 671 225.5 649 Q201 627 190 587 L127 587 Q145 655 188.5 692 Q232 729 294 729 Q345 729 376 700 Q407 671 407 624 Q407 547 340.5 479.5 Q274 412 184 362 Z " />
<glyph glyph-name="uni00B3" unicode="&#xb3;" horiz-adv-x="374" d="M314 516 Q336 506 350.5 484.5 Q365 463 365 432 Q365 372 323 335.5 Q281 299 212 299 Q155 299 121.5 326 Q88 353 88 403 Q88 414 89 419 L150 419 Q147 392 165 373.5 Q183 355 216 355 Q256 355 278.5 378 Q301 401 301 434 Q301 467 279 481 Q257 495 224 495 L235 544 Q282 544 311 565.5 Q340 587 340 625 Q340 649 324.5 663 Q309 677 283 677 Q219 677 196 611 L137 611 Q150 665 189.5 697 Q229 729 289 729 Q343 729 373.5 701 Q404 673 404 628 Q404 587 379.5 559 Q355 531 314 516 Z " />
<glyph glyph-name="fraction" unicode="&#x2044;" horiz-adv-x="237" d="M-100 0 L-168 0 L379 680 L447 680 L-100 0 Z " />
<glyph glyph-name="onehalf" unicode="&#xbd;" horiz-adv-x="956" d="M313 680 L217 266 L153 266 L226 579 Q200 561 169 546 Q138 531 115 525 L128 581 Q213 624 267 680 L313 680 Z M225 0 L157 0 L704 680 L772 680 L225 0 Z M662 54 L834 54 L821 0 L546 0 L557 48 Q669 114 744 178.5 Q819 243 819 311 Q819 335 804.5 349 Q790 363 763 363 Q728 363 703.5 341 Q679 319 668 279 L605 279 Q623 347 666.5 384 Q710 421 772 421 Q823 421 854 392 Q885 363 885 316 Q885 239 818.5 171.5 Q752 104 662 54 Z " />
<glyph glyph-name="onequarter" unicode="&#xbc;" horiz-adv-x="904" d="M313 680 L217 266 L153 266 L226 579 Q200 561 169 546 Q138 531 115 525 L128 581 Q213 624 267 680 L313 680 Z M225 0 L157 0 L704 680 L772 680 L225 0 Z M833 93 L782 93 L760 0 L700 0 L722 93 L514 93 L520 118 Q527 149 541 169 Q578 222 636.5 291 Q695 360 749 414 L827 414 Q671 253 598 147 L734 147 L760 257 L820 257 L794 147 L847 147 L833 93 Z " />
<glyph glyph-name="threequarters" unicode="&#xbe;" horiz-adv-x="948" d="M305 476 Q327 466 341.5 444.5 Q356 423 356 392 Q356 332 314 295.5 Q272 259 203 259 Q146 259 112.5 286 Q79 313 79 363 Q79 374 80 379 L141 379 Q138 352 156 333.5 Q174 315 207 315 Q247 315 269.5 338 Q292 361 292 394 Q292 427 270 441 Q248 455 215 455 L226 504 Q273 504 302 525.5 Q331 547 331 585 Q331 609 315.5 623 Q300 637 274 637 Q210 637 187 571 L128 571 Q141 625 180.5 657 Q220 689 280 689 Q334 689 364.5 661 Q395 633 395 588 Q395 547 370.5 519 Q346 491 305 476 Z M269 0 L201 0 L748 680 L816 680 L269 0 Z M877 93 L826 93 L804 0 L744 0 L766 93 L558 93 L564 118 Q571 149 585 169 Q622 222 680.5 291 Q739 360 793 414 L871 414 Q715 253 642 147 L778 147 L804 257 L864 257 L838 147 L891 147 L877 93 Z " />
<glyph glyph-name="asterisk" unicode="&#x2a;" horiz-adv-x="370" d="M281 559 Q326 539 392 516 Q382 485 361 463 Q298 516 269 536 Q273 480 286 419 Q268 415 255 415 Q244 415 224 419 Q229 441 234 475 Q239 509 241 536 Q198 505 148 463 Q127 485 117 516 Q135 522 168.5 535 Q202 548 228 560 Q165 588 117 604 Q127 635 148 657 Q162 643 190 620.5 Q218 598 242 582 Q239 610 234 644 Q229 678 224 700 Q237 704 255 704 Q274 704 286 700 Q274 642 268 583 Q313 614 361 657 Q382 635 392 604 Q329 583 281 559 Z " />
<glyph glyph-name="backslash" unicode="&#x5c;" horiz-adv-x="410" d="M198 700 L316 -20 L253 -20 L134 700 L198 700 Z " />
<glyph glyph-name="middot" unicode="&#xb7;" horiz-adv-x="292" d="M122 316 Q122 337 137 351.5 Q152 366 173 366 Q194 366 209.5 351.5 Q225 337 225 316 Q225 294 209.5 279 Q194 264 173 264 Q152 264 137 279 Q122 294 122 316 Z " />
<glyph glyph-name="bullet" unicode="&#x2022;" horiz-adv-x="380" d="M82 327 Q82 382 119.5 419.5 Q157 457 212 457 Q267 457 304.5 419.5 Q342 382 342 327 Q342 272 304.5 234.5 Q267 197 212 197 Q157 197 119.5 234.5 Q82 272 82 327 Z " />
<glyph glyph-name="colon" unicode="&#x3a;" horiz-adv-x="227" d="M27 46 Q27 67 42 81.5 Q57 96 78 96 Q99 96 114.5 81.5 Q130 67 130 46 Q130 24 114.5 9 Q99 -6 78 -6 Q57 -6 42 9 Q27 24 27 46 Z M108 439 Q108 460 123 474.5 Q138 489 159 489 Q180 489 195.5 474.5 Q211 460 211 439 Q211 417 195.5 402 Q180 387 159 387 Q138 387 123 402 Q108 417 108 439 Z " />
<glyph glyph-name="comma" unicode="&#x2c;" horiz-adv-x="197" d="M109 58 Q100 20 81.5 -12.5 Q63 -45 48 -63.5 Q33 -82 4 -114 L-31 -114 Q6 -37 27 49 L35 87 L116 87 L109 58 Z " />
<glyph glyph-name="ellipsis" unicode="&#x2026;" horiz-adv-x="584" d="M393 46 Q393 67 408 81.5 Q423 96 444 96 Q465 96 480.5 81.5 Q496 67 496 46 Q496 24 480.5 9 Q465 -6 444 -6 Q423 -6 408 9 Q393 24 393 46 Z M200 46 Q200 67 215 81.5 Q230 96 251 96 Q272 96 287.5 81.5 Q303 67 303 46 Q303 24 287.5 9 Q272 -6 251 -6 Q230 -6 215 9 Q200 24 200 46 Z M7 46 Q7 67 22 81.5 Q37 96 58 96 Q79 96 94.5 81.5 Q110 67 110 46 Q110 24 94.5 9 Q79 -6 58 -6 Q37 -6 22 9 Q7 24 7 46 Z " />
<glyph glyph-name="exclam" unicode="&#x21;" horiz-adv-x="294" d="M156 187 L110 187 Q125 283 151 421 Q177 559 203 680 L291 680 Q263 564 225.5 426.5 Q188 289 156 187 Z M56 46 Q56 67 71 81.5 Q86 96 107 96 Q128 96 143.5 81.5 Q159 67 159 46 Q159 24 143.5 9 Q128 -6 107 -6 Q86 -6 71 9 Q56 24 56 46 Z " />
<glyph glyph-name="exclamdown" unicode="&#xa1;" horiz-adv-x="294" d="M244 443 Q244 422 229 407.5 Q214 393 193 393 Q172 393 156.5 407.5 Q141 422 141 443 Q141 465 156.5 480 Q172 495 193 495 Q214 495 229 480 Q244 465 244 443 Z M144 302 L190 302 Q175 206 149 68 Q123 -70 97 -191 L9 -191 Q37 -75 74.5 62.5 Q112 200 144 302 Z " />
<glyph glyph-name="numbersign" unicode="&#x23;" horiz-adv-x="560" d="M475 427 L412 255 L500 255 L486 191 L388 191 L317 0 L248 0 L319 191 L173 191 L102 0 L32 0 L103 191 L13 191 L27 255 L127 255 L190 427 L100 427 L114 492 L214 492 L284 680 L353 680 L284 492 L430 492 L500 680 L569 680 L499 492 L588 492 L573 427 L475 427 Z M406 427 L260 427 L196 255 L343 255 L406 427 Z " />
<glyph glyph-name="period" unicode="&#x2e;" horiz-adv-x="197" d="M7 46 Q7 67 22 81.5 Q37 96 58 96 Q79 96 94.5 81.5 Q110 67 110 46 Q110 24 94.5 9 Q79 -6 58 -6 Q37 -6 22 9 Q7 24 7 46 Z " />
<glyph glyph-name="question" unicode="&#x3f;" horiz-adv-x="407" d="M165 226 Q245 317 297 394.5 Q349 472 349 538 Q349 579 330.5 600.5 Q312 622 274 622 Q184 622 147 504 L75 504 L78 517 Q96 594 144.5 641.5 Q193 689 277 689 Q349 689 389.5 650 Q430 611 430 549 Q430 463 362 367 Q294 271 209 182 L128 182 L165 226 Z M89 46 Q89 68 104 82 Q119 96 141 96 Q162 96 177 81.5 Q192 67 192 46 Q192 24 177 9 Q162 -6 141 -6 Q119 -6 104 9 Q89 24 89 46 Z " />
<glyph glyph-name="questiondown" unicode="&#xbf;" horiz-adv-x="377" d="M300 443 Q300 421 285 407 Q270 393 248 393 Q227 393 212 407.5 Q197 422 197 443 Q197 465 212 480 Q227 495 248 495 Q270 495 285 480 Q300 465 300 443 Z M224 263 Q144 172 92 94.5 Q40 17 40 -49 Q40 -90 58.5 -111.5 Q77 -133 115 -133 Q205 -133 242 -15 L314 -15 L311 -28 Q293 -105 244.5 -152.5 Q196 -200 112 -200 Q40 -200 -0.5 -161 Q-41 -122 -41 -60 Q-41 26 27 122 Q95 218 180 307 L261 307 L224 263 Z " />
<glyph glyph-name="quotedbl" unicode="&#x22;" horiz-adv-x="325" d="M218 680 Q202 610 182.5 548 Q163 486 146 448 L111 448 Q113 488 121.5 549.5 Q130 611 146 680 L218 680 Z M377 680 Q361 610 341.5 548 Q322 486 305 448 L270 448 Q272 488 280.5 549.5 Q289 611 305 680 L377 680 Z " />
<glyph glyph-name="quotesingle" unicode="&#x27;" horiz-adv-x="166" d="M218 680 Q202 610 182.5 548 Q163 486 146 448 L111 448 Q113 488 121.5 549.5 Q130 611 146 680 L218 680 Z " />
<glyph glyph-name="semicolon" unicode="&#x3b;" horiz-adv-x="227" d="M124 58 Q115 20 96.5 -12.5 Q78 -45 63 -63.5 Q48 -82 19 -114 L-16 -114 Q21 -37 42 49 L50 87 L131 87 L124 58 Z M108 439 Q108 460 123 474.5 Q138 489 159 489 Q180 489 195.5 474.5 Q211 460 211 439 Q211 417 195.5 402 Q180 387 159 387 Q138 387 123 402 Q108 417 108 439 Z " />
<glyph glyph-name="slash" unicode="&#x2f;" horiz-adv-x="410" d="M34 -20 L-39 -20 L411 700 L485 700 L34 -20 Z " />
<glyph glyph-name="underscore" unicode="&#x5f;" horiz-adv-x="502" d="M428 -102 L428 -158 L-84 -158 L-84 -102 L428 -102 Z " />
<glyph glyph-name="braceleft" unicode="&#x7b;" horiz-adv-x="370" d="M413 627 L373 627 Q338 627 316.5 616 Q295 605 288 574 L245 385 Q220 287 122 266 L122 264 Q193 248 193 182 Q193 162 189 145 L145 -48 Q143 -54 143 -64 Q143 -85 159 -91.5 Q175 -98 206 -98 L245 -98 L233 -151 L184 -151 Q125 -151 97.5 -134.5 Q70 -118 70 -71 Q70 -49 78 -12 L112 135 Q117 160 117 175 Q117 206 99.5 221 Q82 236 45 236 L59 294 Q105 294 132.5 319 Q160 344 173 396 L206 541 Q219 598 241.5 628.5 Q264 659 295.5 669.5 Q327 680 376 680 L425 680 L413 627 Z " />
<glyph glyph-name="braceright" unicode="&#x7d;" horiz-adv-x="359" d="M186 680 Q245 680 272.5 664 Q300 648 300 601 Q300 579 292 541 L258 396 Q253 377 253 356 Q253 294 326 294 L312 236 Q265 236 237.5 211.5 Q210 187 198 135 L164 -12 Q151 -69 128.5 -99 Q106 -129 74.5 -140 Q43 -151 -6 -151 L-55 -151 L-43 -98 L-3 -98 Q33 -98 53.5 -88 Q74 -78 82 -48 L125 145 Q149 244 247 264 L247 266 Q176 282 176 348 Q176 362 181 385 L225 574 Q227 586 227 590 Q227 612 211 619.5 Q195 627 164 627 L124 627 L137 680 L186 680 Z " />
<glyph glyph-name="bracketleft" unicode="&#x5b;" horiz-adv-x="333" d="M376 627 L250 627 L83 -98 L209 -98 L196 -151 L-4 -151 L188 680 L388 680 L376 627 Z " />
<glyph glyph-name="bracketright" unicode="&#x5d;" horiz-adv-x="333" d="M337 680 L145 -151 L-55 -151 L-43 -98 L83 -98 L250 627 L124 627 L137 680 L337 680 Z " />
<glyph glyph-name="parenleft" unicode="&#x28;" horiz-adv-x="361" d="M424 680 Q135 441 135 158 Q135 70 163.5 -10 Q192 -90 234 -146 L160 -146 Q120 -96 90 -17.5 Q60 61 60 155 Q60 310 134.5 445 Q209 580 341 680 L424 680 Z " />
<glyph glyph-name="parenright" unicode="&#x29;" horiz-adv-x="361" d="M225 376 Q225 464 197 544 Q169 624 127 680 L201 680 Q240 632 270.5 552.5 Q301 473 301 379 Q301 224 226 89 Q151 -46 19 -146 L-63 -146 Q225 92 225 376 Z " />
<glyph glyph-name="emdash" unicode="&#x2014;" horiz-adv-x="809" d="M781 325 L767 263 L49 263 L64 325 L781 325 Z " />
<glyph glyph-name="endash" unicode="&#x2013;" horiz-adv-x="586" d="M560 325 L545 263 L51 263 L65 325 L560 325 Z " />
<glyph glyph-name="hyphen" unicode="&#x2d;" horiz-adv-x="362" d="M335 327 L320 261 L49 261 L64 327 L335 327 Z " />
<glyph glyph-name="guillemotleft" unicode="&#xab;" horiz-adv-x="586" d="M341 234 L469 48 L395 48 L263 241 L481 435 L563 435 L341 234 Z M134 234 L262 48 L188 48 L56 241 L274 435 L356 435 L134 234 Z " />
<glyph glyph-name="guillemotright" unicode="&#xbb;" horiz-adv-x="586" d="M524 242 L306 48 L224 48 L446 249 L318 435 L392 435 L524 242 Z M317 242 L99 48 L17 48 L239 249 L111 435 L185 435 L317 242 Z " />
<glyph glyph-name="guilsinglleft" unicode="&#x2039;" horiz-adv-x="379" d="M134 234 L262 48 L188 48 L56 241 L274 435 L356 435 L134 234 Z " />
<glyph glyph-name="guilsinglright" unicode="&#x203a;" horiz-adv-x="379" d="M317 242 L99 48 L17 48 L239 249 L111 435 L185 435 L317 242 Z " />
<glyph glyph-name="quotedblbase" unicode="&#x201e;" horiz-adv-x="355" d="M122 58 Q110 5 83 -33.5 Q56 -72 16 -116 L-21 -116 Q19 -32 38 49 L47 87 L129 87 L122 58 Z M279 58 Q267 5 240 -33.5 Q213 -72 173 -116 L136 -116 Q176 -32 195 49 L204 87 L286 87 L279 58 Z " />
<glyph glyph-name="quotedblleft" unicode="&#x201c;" horiz-adv-x="355" d="M263 506 Q272 544 290.5 577.5 Q309 611 324.5 629.5 Q340 648 369 680 L406 680 Q366 596 347 515 L338 477 L256 477 L263 506 Z M106 506 Q115 544 133.5 577.5 Q152 611 167.5 629.5 Q183 648 212 680 L249 680 Q209 596 190 515 L181 477 L99 477 L106 506 Z " />
<glyph glyph-name="quotedblright" unicode="&#x201d;" horiz-adv-x="355" d="M401 651 Q389 598 362 559.5 Q335 521 295 477 L258 477 Q298 561 317 642 L326 680 L408 680 L401 651 Z M244 651 Q232 598 205 559.5 Q178 521 138 477 L101 477 Q141 561 160 642 L169 680 L251 680 L244 651 Z " />
<glyph glyph-name="quoteleft" unicode="&#x2018;" horiz-adv-x="197" d="M106 506 Q115 544 133.5 577.5 Q152 611 167.5 629.5 Q183 648 212 680 L249 680 Q209 596 190 515 L181 477 L99 477 L106 506 Z " />
<glyph glyph-name="quoteright" unicode="&#x2019;" horiz-adv-x="197" d="M244 651 Q232 598 205 559.5 Q178 521 138 477 L101 477 Q141 561 160 642 L169 680 L251 680 L244 651 Z " />
<glyph glyph-name="quotesinglbase" unicode="&#x201a;" horiz-adv-x="197" d="M116 58 Q104 5 77 -33.5 Q50 -72 10 -116 L-27 -116 Q13 -32 32 49 L41 87 L123 87 L116 58 Z " />
<glyph glyph-name="uni00A0" unicode="&#xa0;" horiz-adv-x="600" d="" />
<glyph glyph-name="cent" unicode="&#xa2;" horiz-adv-x="560" d="M430 335 Q431 378 404 403.5 Q377 429 328 429 Q258 429 217.5 379 Q177 329 161 251 L157 234 Q150 205 150 171 Q150 119 174.5 87.5 Q199 56 253 56 Q305 56 338.5 84 Q372 112 393 163 L464 163 Q440 86 387.5 41.5 Q335 -3 264 -8 L247 -80 L183 -80 L201 -4 Q143 8 109 52.5 Q75 97 75 167 Q75 201 84 240 L88 257 Q113 369 171 428 Q229 487 316 493 L332 565 L396 565 L379 490 Q437 477 470.5 435 Q504 393 500 335 L430 335 Z " />
<glyph glyph-name="currency" unicode="&#xa4;" horiz-adv-x="560" d="M479 475 L434 431 Q464 390 464 332 Q464 274 434 233 L479 188 L435 145 L390 191 Q349 166 294 166 Q238 166 194 193 L148 145 L105 189 L151 234 Q123 274 123 332 Q123 390 152 430 L104 476 L148 519 L194 472 Q241 498 294 498 Q349 498 390 473 L435 519 L479 475 Z M189 332 Q189 280 218 251 Q247 222 294 222 Q341 222 369 251 Q397 280 397 332 Q397 384 369 413 Q341 442 294 442 Q247 442 218 413 Q189 384 189 332 Z " />
<glyph glyph-name="dollar" unicode="&#x24;" horiz-adv-x="560" d="M208 503 Q208 466 230.5 442.5 Q253 419 302 394 L355 367 Q480 305 480 206 Q480 145 450.5 96 Q421 47 369 19 Q317 -9 252 -9 L235 -80 L169 -80 L187 -3 Q115 11 74.5 56.5 Q34 102 34 175 L35 194 L106 194 Q104 129 142.5 93 Q181 57 254 57 Q320 57 362.5 96.5 Q405 136 405 196 Q405 231 382 256.5 Q359 282 316 303 L267 329 Q196 365 164.5 404 Q133 443 133 496 Q133 552 161 596 Q189 640 237.5 664.5 Q286 689 345 689 L347 689 L365 766 L431 766 L411 680 Q472 664 507 620 Q542 576 538 515 L466 515 Q465 567 429.5 594.5 Q394 622 339 622 Q280 622 244 587.5 Q208 553 208 503 Z " />
<glyph glyph-name="Euro" unicode="&#x20ac;" horiz-adv-x="560" d="M212 439 L415 439 L402 385 L197 385 Q197 381 195 375 L185 331 L179 301 L382 301 L371 248 L171 248 Q169 233 169 205 Q169 58 293 58 Q382 58 435 164 L511 164 Q477 76 419 34 Q361 -8 285 -8 Q187 -8 140 50.5 Q93 109 93 209 Q93 222 95 248 L25 248 L36 301 L102 301 Q106 322 109 336 L120 385 L56 385 L68 439 L134 439 Q172 566 245.5 627.5 Q319 689 402 689 Q489 689 536.5 642 Q584 595 586 511 L513 511 Q505 621 404 621 Q335 621 287.5 571.5 Q240 522 212 439 Z " />
<glyph glyph-name="sterling" unicode="&#xa3;" horiz-adv-x="560" d="M557 506 L486 506 Q481 557 450.5 589.5 Q420 622 369 622 Q313 622 278 588 Q243 554 233 489 Q227 450 225 355 L408 355 L395 297 L222 297 Q218 253 213 231 Q201 181 172 138.5 Q143 96 98 66 L447 66 L432 0 L-4 0 L8 50 Q63 90 95 134 Q127 178 140 231 Q148 264 149 297 L84 297 L97 355 L151 355 L151 403 Q151 459 157 495 Q173 582 228 635.5 Q283 689 372 689 Q456 689 503.5 638.5 Q551 588 557 506 Z " />
<glyph glyph-name="yen" unicode="&#xa5;" horiz-adv-x="560" d="M421 401 L522 401 L510 348 L377 348 L325 288 L320 264 L491 264 L478 210 L307 210 L259 0 L182 0 L230 210 L59 210 L71 264 L243 264 L248 286 Q229 335 225 348 L90 348 L102 401 L206 401 Q155 552 129 680 L207 680 Q244 496 296 353 Q423 502 534 680 L622 680 Q539 547 421 401 Z " />
<glyph glyph-name="plus" unicode="&#x2b;" horiz-adv-x="570" d="M508 291 L339 291 L339 121 L271 121 L271 291 L102 291 L102 357 L271 357 L271 527 L339 527 L339 357 L508 357 L508 291 Z " />
<glyph glyph-name="minus" unicode="&#x2212;" horiz-adv-x="570" d="M505 357 L505 291 L99 291 L99 357 L505 357 Z " />
<glyph glyph-name="multiply" unicode="&#xd7;" horiz-adv-x="570" d="M352 324 L508 168 L461 121 L305 277 L149 121 L102 168 L258 324 L102 480 L149 527 L305 371 L461 527 L508 480 L352 324 Z " />
<glyph glyph-name="divide" unicode="&#xf7;" horiz-adv-x="570" d="M516 357 L516 291 L110 291 L110 357 L516 357 Z M261 159 Q261 180 276 194.5 Q291 209 312 209 Q333 209 348.5 194.5 Q364 180 364 159 Q364 137 348.5 122 Q333 107 312 107 Q291 107 276 122 Q261 137 261 159 Z M261 486 Q261 507 276 521.5 Q291 536 312 536 Q333 536 348.5 521.5 Q364 507 364 486 Q364 464 348.5 449 Q333 434 312 434 Q291 434 276 449 Q261 464 261 486 Z " />
<glyph glyph-name="equal" unicode="&#x3d;" horiz-adv-x="570" d="M505 278 L505 212 L99 212 L99 278 L505 278 Z M505 436 L505 370 L99 370 L99 436 L505 436 Z " />
<glyph glyph-name="notequal" unicode="&#x2260;" horiz-adv-x="570" d="M338 381 L291 267 L488 267 L488 201 L264 201 L223 103 L162 103 L202 201 L82 201 L82 267 L230 267 L277 381 L82 381 L82 447 L304 447 L346 549 L408 549 L366 447 L488 447 L488 381 L338 381 Z " />
<glyph glyph-name="greater" unicode="&#x3e;" horiz-adv-x="570" d="M508 354 L508 288 L102 144 L102 213 L422 321 L102 430 L102 499 L508 354 Z " />
<glyph glyph-name="less" unicode="&#x3c;" horiz-adv-x="570" d="M498 430 L178 321 L498 213 L498 144 L92 288 L92 354 L498 499 L498 430 Z " />
<glyph glyph-name="greaterequal" unicode="&#x2265;" horiz-adv-x="570" d="M489 354 L489 288 L83 144 L83 213 L403 321 L83 430 L83 499 L489 354 Z M490 41 L84 41 L84 107 L490 107 L490 41 Z " />
<glyph glyph-name="lessequal" unicode="&#x2264;" horiz-adv-x="570" d="M501 107 L501 41 L95 41 L95 107 L501 107 Z M502 430 L182 321 L502 213 L502 144 L96 288 L96 354 L502 499 L502 430 Z " />
<glyph glyph-name="plusminus" unicode="&#xb1;" horiz-adv-x="570" d="M496 412 L496 346 L327 346 L327 176 L259 176 L259 346 L90 346 L90 412 L259 412 L259 582 L327 582 L327 412 L496 412 Z M89 97 L495 97 L495 31 L89 31 L89 97 Z " />
<glyph glyph-name="approxequal" unicode="&#x2248;" horiz-adv-x="570" d="M288 381 Q256 393 238.5 398 Q221 403 203 403 Q183 403 160 393 Q137 383 122 366 L92 408 Q117 439 142.5 451 Q168 463 200 463 Q223 463 246.5 456.5 Q270 450 302 437 Q331 426 350 420.5 Q369 415 387 415 Q408 415 429.5 425 Q451 435 466 452 L497 410 Q472 380 445.5 367.5 Q419 355 389 355 Q365 355 342 362 Q319 369 288 381 Z M288 211 Q256 223 238.5 228 Q221 233 203 233 Q183 233 160 223 Q137 213 122 196 L92 238 Q117 269 142.5 281 Q168 293 200 293 Q223 293 246.5 286.5 Q270 280 302 267 Q331 256 350 250.5 Q369 245 387 245 Q408 245 429.5 255 Q451 265 466 282 L497 240 Q471 210 445 198 Q419 186 389 186 Q366 186 343.5 192.5 Q321 199 288 211 Z " />
<glyph glyph-name="asciitilde" unicode="&#x7e;" horiz-adv-x="570" d="M324 364 Q347 350 363 343 Q379 336 394 336 Q421 336 433.5 354 Q446 372 446 400 L509 400 Q509 346 480 310 Q451 274 399 274 Q376 274 356 282.5 Q336 291 309 307 Q283 323 263 331 Q243 339 221 339 Q195 339 180.5 320.5 Q166 302 166 275 L103 275 Q103 305 116.5 334.5 Q130 364 156.5 382.5 Q183 401 220 401 Q246 401 268 392 Q290 383 324 364 Z " />
<glyph glyph-name="logicalnot" unicode="&#xac;" horiz-adv-x="570" d="M488 150 L422 150 L422 291 L82 291 L82 357 L488 357 L488 150 Z " />
<glyph glyph-name="percent" unicode="&#x25;" horiz-adv-x="830" d="M103 482 Q103 536 126 583.5 Q149 631 190.5 659.5 Q232 688 285 688 Q341 688 380 653.5 Q419 619 419 556 Q419 503 396 455.5 Q373 408 331.5 379 Q290 350 238 350 Q181 350 142 384.5 Q103 419 103 482 Z M199 0 L128 0 L677 680 L748 680 L199 0 Z M354 550 Q354 588 333.5 609 Q313 630 278 630 Q245 630 220.5 609 Q196 588 182.5 555 Q169 522 169 488 Q169 450 189 429 Q209 408 245 408 Q278 408 303 429 Q328 450 341 483 Q354 516 354 550 Z M456 123 Q456 177 479 224.5 Q502 272 543 300.5 Q584 329 637 329 Q693 329 732.5 294 Q772 259 772 196 Q772 143 749 96 Q726 49 684.5 20 Q643 -9 590 -9 Q533 -9 494.5 25.5 Q456 60 456 123 Z M706 191 Q706 229 686 250 Q666 271 631 271 Q598 271 573 250 Q548 229 534.5 196 Q521 163 521 129 Q521 91 541.5 70 Q562 49 598 49 Q631 49 655.5 70 Q680 91 693 124 Q706 157 706 191 Z " />
<glyph glyph-name="perthousand" unicode="&#x2030;" horiz-adv-x="1188" d="M103 482 Q103 536 126 583.5 Q149 631 190.5 659.5 Q232 688 285 688 Q341 688 380 653.5 Q419 619 419 556 Q419 503 396 455.5 Q373 408 331.5 379 Q290 350 238 350 Q181 350 142 384.5 Q103 419 103 482 Z M199 0 L128 0 L677 680 L748 680 L199 0 Z M354 550 Q354 588 333.5 609 Q313 630 278 630 Q245 630 220.5 609 Q196 588 182.5 555 Q169 522 169 488 Q169 450 189 429 Q209 408 245 408 Q278 408 303 429 Q328 450 341 483 Q354 516 354 550 Z M456 123 Q456 177 479 224.5 Q502 272 543 300.5 Q584 329 637 329 Q693 329 732.5 294 Q772 259 772 196 Q772 143 749 96 Q726 49 684.5 20 Q643 -9 590 -9 Q533 -9 494.5 25.5 Q456 60 456 123 Z M814 123 Q814 177 837 224.5 Q860 272 901.5 300.5 Q943 329 996 329 Q1052 329 1091 294 Q1130 259 1130 196 Q1130 143 1107 96 Q1084 49 1042.5 20 Q1001 -9 949 -9 Q892 -9 853 25.5 Q814 60 814 123 Z M706 191 Q706 229 686 250 Q666 271 631 271 Q598 271 573 250 Q548 229 534.5 196 Q521 163 521 129 Q521 91 541.5 70 Q562 49 598 49 Q631 49 655.5 70 Q680 91 693 124 Q706 157 706 191 Z M1065 191 Q1065 229 1044.5 250 Q1024 271 989 271 Q956 271 931.5 250 Q907 229 893.5 196 Q880 163 880 129 Q880 91 900 70 Q920 49 956 49 Q989 49 1014 70 Q1039 91 1052 124 Q1065 157 1065 191 Z " />
<glyph glyph-name="at" unicode="&#x40;" horiz-adv-x="863" d="M817 332 Q817 261 793.5 194 Q770 127 724.5 84.5 Q679 42 616 42 Q573 42 545 63 Q517 84 510 119 Q490 82 456 63.5 Q422 45 383 45 Q322 45 283.5 86 Q245 127 245 198 Q245 260 270 319.5 Q295 379 340 417.5 Q385 456 441 456 Q486 456 515.5 436 Q545 416 552 382 L566 445 L636 445 L576 196 Q570 174 570 154 Q570 99 624 99 Q663 99 691.5 133 Q720 167 735 220 Q750 273 750 330 Q750 410 715.5 467 Q681 524 620.5 553.5 Q560 583 482 583 Q381 583 299.5 527 Q218 471 172 379.5 Q126 288 126 184 Q126 103 160 44 Q194 -15 256 -46.5 Q318 -78 399 -78 Q496 -78 559 -45 L581 -100 Q506 -141 397 -141 Q295 -141 217.5 -101 Q140 -61 98 12.5 Q56 86 56 184 Q56 306 111.5 412 Q167 518 264.5 581.5 Q362 645 482 645 Q579 645 655 607 Q731 569 774 498 Q817 427 817 332 Z M525 300 Q525 344 505 366.5 Q485 389 447 389 Q408 389 379 360.5 Q350 332 335 288.5 Q320 245 320 202 Q320 157 341.5 133.5 Q363 110 400 110 Q438 110 466.5 138.5 Q495 167 510 211.5 Q525 256 525 300 Z " />
<glyph glyph-name="ampersand" unicode="&#x26;" horiz-adv-x="582" d="M433 86 Q471 27 496 0 L408 0 Q402 4 379 37 Q315 -7 228 -7 Q163 -7 118 17 Q73 41 50.5 80.5 Q28 120 28 166 Q28 245 72.5 309.5 Q117 374 196 421 Q187 460 187 494 Q187 577 228.5 633 Q270 689 347 689 Q409 689 445.5 657.5 Q482 626 482 569 Q482 550 478 531 L409 531 Q410 538 410 550 Q410 584 393 602.5 Q376 621 344 621 Q301 621 280 587.5 Q259 554 259 502 Q259 434 299 337.5 Q339 241 397 144 Q437 204 461 309 L532 309 Q499 166 433 86 Z M346 89 Q255 238 213 360 Q103 289 103 179 Q103 127 139.5 92.5 Q176 58 241 58 Q300 58 346 89 Z " />
<glyph glyph-name="paragraph" unicode="&#xb6;" horiz-adv-x="632" d="M557 -170 L490 -170 L490 614 L388 614 L388 -170 L322 -170 L322 274 L280 274 Q224 274 178.5 298.5 Q133 323 106.5 366.5 Q80 410 80 465 L80 490 Q80 545 106.5 588.5 Q133 632 178.5 656 Q224 680 280 680 L557 680 L557 -170 Z " />
<glyph glyph-name="section" unicode="&#xa7;" horiz-adv-x="522" d="M387 110 Q438 70 438 7 Q438 -55 395 -95 Q352 -135 281 -135 Q203 -135 160.5 -97 Q118 -59 115 -2 L114 16 L181 16 Q183 -26 208.5 -50 Q234 -74 282 -74 Q323 -74 348 -53 Q373 -32 373 1 Q373 35 351 54.5 Q329 74 280 98 L254 111 L223 126 Q168 154 137 174 Q106 194 85 224 Q64 254 64 298 Q64 351 92 388 Q120 425 169 444 Q144 464 131 488.5 Q118 513 118 547 Q118 609 161 649 Q204 689 275 689 Q353 689 395.5 651 Q438 613 441 556 L442 538 L376 538 Q373 580 348 604 Q323 628 274 628 Q234 628 209 607 Q184 586 184 553 Q184 529 195.5 512 Q207 495 225 484 Q243 473 275 457 L302 443 L331 428 Q387 400 418.5 380 Q450 360 471 330 Q492 300 492 256 Q492 203 464 166 Q436 129 387 110 Z M425 247 Q425 281 404.5 306 Q384 331 355.5 346.5 Q327 362 282 382 L255 394 L213 415 Q178 403 154.5 373.5 Q131 344 131 307 Q131 273 151.5 248 Q172 223 200.5 207 Q229 191 273 172 L301 160 L344 139 Q378 150 401.5 179.5 Q425 209 425 247 Z " />
<glyph glyph-name="copyright" unicode="&#xa9;" horiz-adv-x="823" d="M81 340 Q81 441 125.5 521 Q170 601 250 646 Q330 691 432 691 Q535 691 615 646 Q695 601 739.5 521 Q784 441 784 340 Q784 239 739.5 159 Q695 79 615 34 Q535 -11 432 -11 Q330 -11 250 34 Q170 79 125.5 159 Q81 239 81 340 Z M719 340 Q719 426 683 493 Q647 560 581.5 597.5 Q516 635 432 635 Q348 635 283 597.5 Q218 560 182 493 Q146 426 146 340 Q146 254 182 187 Q218 120 283 82.5 Q348 45 432 45 Q516 45 581.5 82.5 Q647 120 683 187 Q719 254 719 340 Z M263 324 L263 356 Q263 414 286 456.5 Q309 499 347.5 520.5 Q386 542 432 542 Q476 542 511.5 526 Q547 510 567.5 482.5 Q588 455 591 423 L592 411 L525 411 Q520 446 496.5 465.5 Q473 485 434 485 Q384 485 358 447 Q332 409 332 351 L332 330 Q332 272 358 234 Q384 196 434 196 Q474 196 497 216.5 Q520 237 525 275 L592 275 L591 263 Q587 211 544 175 Q501 139 431 139 Q385 139 347 161.5 Q309 184 286 226 Q263 268 263 324 Z " />
<glyph glyph-name="registered" unicode="&#xae;" horiz-adv-x="470" d="M506 558 Q506 501 480.5 455 Q455 409 409 383 Q363 357 305 357 Q247 357 201.5 383 Q156 409 130.5 455 Q105 501 105 558 Q105 615 130.5 661 Q156 707 201.5 733 Q247 759 305 759 Q363 759 409 733 Q455 707 480.5 661 Q506 615 506 558 Z M463 558 Q463 629 420.5 675 Q378 721 305 721 Q233 721 190.5 675 Q148 629 148 558 Q148 487 190.5 441 Q233 395 305 395 Q378 395 420.5 441 Q463 487 463 558 Z M344 543 Q379 489 394 454 L349 454 Q325 504 303 539 L275 539 L275 454 L234 454 L234 671 L316 671 Q347 671 368 654 Q389 637 389 604 Q389 558 344 543 Z M276 572 L309 572 Q329 572 338.5 579.5 Q348 587 348 604 Q348 637 309 637 L276 637 L276 572 Z " />
<glyph glyph-name="trademark" unicode="&#x2122;" horiz-adv-x="731" d="M372 627 L282 627 L226 384 L165 384 L221 627 L131 627 L143 680 L384 680 L372 627 Z M761 680 L693 384 L638 384 L689 604 Q639 526 564 440 Q556 430 545 430 L537 430 Q528 430 521 443 Q484 518 469 591 L421 384 L367 384 L435 680 L497 680 Q507 634 521.5 581.5 Q536 529 550 496 Q594 545 682 680 L761 680 Z " />
<glyph glyph-name="degree" unicode="&#xb0;" horiz-adv-x="350" d="M117 565 Q117 619 154 655 Q191 691 245 691 Q299 691 336 655 Q373 619 373 565 Q373 511 336 475 Q299 439 245 439 Q191 439 154 475 Q117 511 117 565 Z M318 565 Q318 597 297.5 618 Q277 639 245 639 Q213 639 192.5 618 Q172 597 172 565 Q172 532 192.5 511.5 Q213 491 245 491 Q277 491 297.5 511.5 Q318 532 318 565 Z " />
<glyph glyph-name="bar" unicode="&#x7c;" horiz-adv-x="336" d="M224 -79 L152 -79 L152 736 L224 736 L224 -79 Z " />
<glyph glyph-name="brokenbar" unicode="&#xa6;" horiz-adv-x="336" d="M141 736 L213 736 L213 407 L141 407 L141 736 Z M213 -79 L141 -79 L141 250 L213 250 L213 -79 Z " />
<glyph glyph-name="dagger" unicode="&#x2020;" horiz-adv-x="466" d="M445 420 L297 420 L297 -95 L227 -95 L227 420 L81 420 L81 485 L227 485 L227 680 L297 680 L297 485 L445 485 L445 420 Z " />
<glyph glyph-name="daggerdbl" unicode="&#x2021;" horiz-adv-x="466" d="M278 420 L278 231 L425 231 L425 166 L278 166 L278 -95 L206 -95 L206 166 L61 166 L61 231 L206 231 L206 420 L61 420 L61 485 L206 485 L206 680 L278 680 L278 485 L425 485 L425 420 L278 420 Z " />
<glyph glyph-name="asciicircum" unicode="&#x5e;" horiz-adv-x="570" d="M436 264 L285 595 L132 264 L59 264 L253 680 L317 680 L511 264 L436 264 Z " />
<glyph glyph-name="uni0308" unicode="&#x308;" d="M-238 626 Q-238 648 -223 663 Q-208 678 -185 678 Q-162 678 -147 663 Q-132 648 -132 626 Q-132 604 -147 589 Q-162 574 -185 574 Q-208 574 -223 589 Q-238 604 -238 626 Z M-59 626 Q-59 648 -44 663 Q-29 678 -6 678 Q17 678 32 663 Q47 648 47 626 Q47 604 32 589 Q17 574 -6 574 Q-29 574 -44 589 Q-59 604 -59 626 Z " />
<glyph glyph-name="uni0307" unicode="&#x307;" d="M-64 627 Q-64 649 -49 663.5 Q-34 678 -12 678 Q9 678 24 663.5 Q39 649 39 627 Q39 605 24 590.5 Q9 576 -12 576 Q-34 576 -49 590.5 Q-64 605 -64 627 Z " />
<glyph glyph-name="gravecomb" unicode="&#x300;" d="M-13 680 Q11 633 26 560 L-37 560 Q-53 605 -99 680 L-13 680 Z " />
<glyph glyph-name="acutecomb" unicode="&#x301;" d="M-67 560 L-144 560 Q-104 622 -49 680 L50 680 Q-7 626 -67 560 Z " />
<glyph glyph-name="uni030B" unicode="&#x30b;" d="M-194 560 L-258 560 Q-234 600 -174 680 L-88 680 Q-133 637 -194 560 Z M-32 591 Q-42 579 -61 560 L-124 560 Q-81 622 -29 680 L56 680 Q30 654 7.5 631 Q-15 608 -32 591 Z " />
<glyph glyph-name="uni0302" unicode="&#x302;" d="M-28 560 Q-35 579 -46.5 603.5 Q-58 628 -70 644 Q-107 612 -150 560 L-217 560 Q-174 626 -120 680 L-11 680 Q1 656 12 623 Q23 590 29 560 L-28 560 Z " />
<glyph glyph-name="uni030C" unicode="&#x30c;" d="M33 680 Q-12 611 -63 560 L-172 560 Q-184 583 -195 616 Q-206 649 -212 680 L-156 680 Q-149 660 -137 636 Q-125 612 -113 595 Q-75 629 -33 680 L33 680 Z " />
<glyph glyph-name="uni0306" unicode="&#x306;" d="M49 680 Q35 625 -0.5 594 Q-36 563 -93 563 Q-143 563 -171 588.5 Q-199 614 -199 658 Q-199 666 -197 680 L-142 680 Q-143 676 -143 668 Q-143 646 -130.5 631 Q-118 616 -90 616 Q-33 616 -10 680 L49 680 L49 680 Z " />
<glyph glyph-name="uni030A" unicode="&#x30a;" d="M-147 634 Q-147 673 -120.5 698.5 Q-94 724 -52 724 Q-11 724 16 698.5 Q43 673 43 634 Q43 595 16 570 Q-11 545 -52 545 Q-94 545 -120.5 570 Q-147 595 -147 634 Z M-3 634 Q-3 656 -16 670 Q-29 684 -52 684 Q-75 684 -88.5 670 Q-102 656 -102 634 Q-102 612 -88.5 598 Q-75 584 -52 584 Q-29 584 -16 598 Q-3 612 -3 634 Z " />
<glyph glyph-name="tildecomb" unicode="&#x303;" d="M-51 565 Q-73 565 -88.5 572 Q-104 579 -124 593 Q-139 604 -150 609 Q-161 614 -172 614 Q-191 614 -202.5 601.5 Q-214 589 -221 565 L-268 565 Q-253 620 -227.5 646 Q-202 672 -165 672 Q-146 672 -132 665 Q-118 658 -97 644 Q-82 633 -71.5 627.5 Q-61 622 -50 622 Q-30 622 -17.5 636.5 Q-5 651 -1 671 L45 671 Q31 617 7.5 591 Q-16 565 -51 565 Z " />
<glyph glyph-name="uni0304" unicode="&#x304;" d="M40 647 L25 584 L-201 584 L-185 647 L40 647 Z " />
<glyph glyph-name="uni0312" unicode="&#x312;" d="M10 568 L-64 568 Q-53 614 -32 648 Q-11 682 18 715 L60 715 Q27 639 10 568 Z " />
<glyph glyph-name="uni0326" unicode="&#x326;" d="M-185 -53 L-111 -53 Q-122 -99 -143 -133 Q-164 -167 -193 -200 L-235 -200 Q-202 -124 -185 -53 Z " />
<glyph glyph-name="uni0327" unicode="&#x327;" d="M-120 -104 Q-120 -145 -147 -167 Q-174 -189 -221 -189 Q-253 -189 -278.5 -180.5 Q-304 -172 -319 -157 L-288 -122 Q-278 -131 -259 -136.5 Q-240 -142 -221 -142 Q-199 -142 -187 -132.5 Q-175 -123 -175 -108 Q-175 -81 -219 -81 Q-238 -81 -250 -86 L-262 -64 L-211 9 L-159 9 L-196 -40 Q-164 -41 -142 -57.5 Q-120 -74 -120 -104 Z " />
<glyph glyph-name="uni0328" unicode="&#x328;" d="M-232 -106 Q-232 -62 -198.5 -32 Q-165 -2 -114 12 L-88 0 Q-121 -13 -145.5 -37.5 Q-170 -62 -170 -86 Q-170 -101 -161 -109 Q-152 -117 -129 -117 L-119 -117 L-130 -165 Q-139 -167 -159 -167 Q-194 -167 -213 -150 Q-232 -133 -232 -106 Z " />
<glyph glyph-name="uni0335" unicode="&#x335;" d="M-48 264 L-48 205 L-330 205 L-330 264 L-48 264 Z " />
<glyph glyph-name="uni0336" unicode="&#x336;" d="M-48 274 L-48 194 L-503 194 L-503 274 L-48 274 Z " />
<glyph glyph-name="uni0337" unicode="&#x337;" d="M-279 324 L-279 390 L-45 533 L-45 466 L-279 324 Z " />
<glyph glyph-name="uni0338" unicode="&#x338;" d="M-385 -26 L-440 0 L-77 706 L-22 680 L-385 -26 Z " />
<glyph glyph-name="acute" unicode="&#xb4;" horiz-adv-x="254" d="M187 560 L110 560 Q150 622 205 680 L304 680 Q247 626 187 560 Z " />
<glyph glyph-name="breve" unicode="&#x2d8;" horiz-adv-x="340" d="M389 680 Q375 625 339.5 594 Q304 563 247 563 Q197 563 169 588.5 Q141 614 141 658 Q141 666 143 680 L198 680 Q197 676 197 668 Q197 646 209.5 631 Q222 616 250 616 Q307 616 330 680 L389 680 L389 680 Z " />
<glyph glyph-name="caron" unicode="&#x2c7;" horiz-adv-x="340" d="M373 680 Q328 611 277 560 L168 560 Q156 583 145 616 Q134 649 128 680 L184 680 Q191 660 203 636 Q215 612 227 595 Q265 629 307 680 L373 680 Z " />
<glyph glyph-name="cedilla" unicode="&#xb8;" horiz-adv-x="282" d="M162 -104 Q162 -145 135 -167 Q108 -189 61 -189 Q29 -189 3.5 -180.5 Q-22 -172 -37 -157 L-6 -122 Q4 -131 23 -136.5 Q42 -142 61 -142 Q83 -142 95 -132.5 Q107 -123 107 -108 Q107 -81 63 -81 Q44 -81 32 -86 L20 -64 L71 9 L123 9 L86 -40 Q118 -41 140 -57.5 Q162 -74 162 -104 Z " />
<glyph glyph-name="circumflex" unicode="&#x2c6;" horiz-adv-x="340" d="M312 560 Q305 579 293.5 603.5 Q282 628 270 644 Q233 612 190 560 L123 560 Q166 626 220 680 L329 680 Q341 656 352 623 Q363 590 369 560 L312 560 Z " />
<glyph glyph-name="dieresis" unicode="&#xa8;" horiz-adv-x="380" d="M142 626 Q142 648 157 663 Q172 678 195 678 Q218 678 233 663 Q248 648 248 626 Q248 604 233 589 Q218 574 195 574 Q172 574 157 589 Q142 604 142 626 Z M321 626 Q321 648 336 663 Q351 678 374 678 Q397 678 412 663 Q427 648 427 626 Q427 604 412 589 Q397 574 374 574 Q351 574 336 589 Q321 604 321 626 Z " />
<glyph glyph-name="dotaccent" unicode="&#x2d9;" horiz-adv-x="198" d="M134 627 Q134 649 149 663.5 Q164 678 186 678 Q207 678 222 663.5 Q237 649 237 627 Q237 605 222 590.5 Q207 576 186 576 Q164 576 149 590.5 Q134 605 134 627 Z " />
<glyph glyph-name="grave" unicode="&#x60;" horiz-adv-x="254" d="M241 680 Q265 633 280 560 L217 560 Q201 605 155 680 L241 680 Z " />
<glyph glyph-name="hungarumlaut" unicode="&#x2dd;" horiz-adv-x="381" d="M187 560 L123 560 Q147 600 207 680 L293 680 Q248 637 187 560 Z M349 591 Q339 579 320 560 L257 560 Q300 622 352 680 L437 680 Q411 654 388.5 631 Q366 608 349 591 Z " />
<glyph glyph-name="overscore" unicode="&#xaf;" horiz-adv-x="320" d="M360 647 L345 584 L119 584 L135 647 L360 647 Z " />
<glyph glyph-name="ogonek" unicode="&#x2db;" horiz-adv-x="215" d="M-17 -106 Q-17 -62 16.5 -32 Q50 -2 101 12 L127 0 Q94 -13 69.5 -37.5 Q45 -62 45 -86 Q45 -101 54 -109 Q63 -117 86 -117 L96 -117 L85 -165 Q76 -167 56 -167 Q21 -167 2 -150 Q-17 -133 -17 -106 Z " />
<glyph glyph-name="ring" unicode="&#x2da;" horiz-adv-x="284" d="M137 634 Q137 673 163.5 698.5 Q190 724 232 724 Q273 724 300 698.5 Q327 673 327 634 Q327 595 300 570 Q273 545 232 545 Q190 545 163.5 570 Q137 595 137 634 Z M281 634 Q281 656 268 670 Q255 684 232 684 Q209 684 195.5 670 Q182 656 182 634 Q182 612 195.5 598 Q209 584 232 584 Q255 584 268 598 Q281 612 281 634 Z " />
<glyph glyph-name="tilde" unicode="&#x2dc;" horiz-adv-x="382" d="M331 565 Q309 565 293.5 572 Q278 579 258 593 Q243 604 232 609 Q221 614 210 614 Q191 614 179.5 601.5 Q168 589 161 565 L114 565 Q129 620 154.5 646 Q180 672 217 672 Q236 672 250 665 Q264 658 285 644 Q300 633 310.5 627.5 Q321 622 332 622 Q352 622 364.5 636.5 Q377 651 381 671 L427 671 Q413 617 389.5 591 Q366 565 331 565 Z " />
</font>
</svg>
